osu file format v10

[General]
AudioFilename: OP.mp3
AudioLeadIn: 2000
PreviewTime: 71245
Countdown: 0
SampleSet: Soft
StackLeniency: 0.7
Mode: 0
LetterboxInBreaks: 0

[Editor]
DistanceSpacing: 1.1
BeatDivisor: 4
GridSize: 4

[Metadata]
Title:Magical Happy Show!
TitleUnicode:Magical Happy Show!
Artist:Machico
ArtistUnicode:Machico
Creator:-[NYAN]-
Version:Easy
Source:Supipara
Tags:minori a3272509123 op opening
BeatmapID:173786
BeatmapSetID:52796

[Difficulty]
HPDrainRate:2
CircleSize:3
OverallDifficulty:2
ApproachRate:3
SliderMultiplier:0.8
SliderTickRate:1

[Events]
//Background and Video events
Video,0,"OP.avi"
0,0,"BG.png"
//Break Periods
//Storyboard Layer 0 (Background)
//Storyboard Layer 1 (Fail)
//Storyboard Layer 2 (Pass)
//Storyboard Layer 3 (Foreground)
//Storyboard Sound Samples
//Background Colour Transformations
3,100,255,128,128

[TimingPoints]
1935,413.793103448276,4,1,0,55,1,0
44969,-100,4,1,0,45,0,0
48072,-100,4,2,0,70,0,0
71245,-100,4,1,0,55,0,0
72900,-100,4,1,0,55,0,1
99590,-100,4,1,0,55,0,0
102486,-100,4,1,0,55,0,0

[Colours]
Combo1 : 240,5,5
Combo2 : 128,0,255
Combo3 : 255,0,128
Combo4 : 128,0,64

[HitObjects]
456,112,1935,6,0,B|412:140|344:136|308:96,1,160,4|0,0:0|0:0,0:0:0
232,52,3176,1,8,0:0:0
144,60,3590,2,0,B|88:116|88:116|144:120|180:184|156:236,1,240,0|8,0:0|0:0,0:0:0
72,204,5245,6,0,B|52:248|76:280,1,80,0|0,0:0|0:0,0:0:0
152,324,6072,2,0,B|200:328|224:292,1,80,0|8,0:0|0:0,0:0:0
248,212,6900,2,0,B|192:196|168:132|200:84,1,160,2|0,0:0|0:0,0:0:0
372,112,8555,5,2,0:0:0
456,212,9176,1,2,0:0:0
324,232,9797,2,0,B|292:280|220:280|188:232,2,160,2|0|0,0:0|0:0|0:0,0:0:0
320,144,11866,5,2,0:0:0
188,144,12486,1,2,0:0:0
76,76,13107,2,0,B|28:108|28:180|76:212,1,160,0|0,0:0|0:0,0:0:0
156,252,14348,2,0,B|240:252,2,80,2|8|4,0:0|0:0|0:0,0:0:0
184,104,18486,6,0,B|152:80|104:88,1,80,0|10,0:0|0:0,0:0:0
88,172,19314,2,0,B|120:196|168:188,1,80,0|8,0:0|0:0,0:0:0
248,168,20141,2,0,B|324:148|324:148|340:92|400:64|452:88,1,240,0|8,0:0|0:0,0:0:0
444,264,22210,5,10,0:0:0
424,180,22624,2,0,B|380:192|364:228,1,80,0|8,0:0|0:0,0:0:0
368,316,23452,1,0,0:0:0
280,332,23866,2,0,B|200:332|200:332|140:280,1,160,8|8,0:0|0:0,0:0:0
144,104,25521,5,10,0:0:0
228,72,25935,2,0,B|308:72,1,80,0|8,0:0|0:0,0:0:0
392,48,26762,2,0,B|408:104|372:156|312:160,1,160
224,160,28003,1,8,0:0:0
308,316,28831,5,10,0:0:0
396,324,29245,2,0,B|436:316|448:268,1,80,0|8,0:0|0:0,0:0:0
456,180,30072,2,0,B|388:176|364:240,2,120,0|0|8,0:0|0:0|0:0,0:0:0
320,68,32141,5,10,0:0:0
316,156,32555,2,0,B|236:156,1,80,0|8,0:0|0:0,0:0:0
148,156,33383,2,0,B|152:208|220:248|220:296,1,160,0|0,0:0|0:0,0:0:0
132,296,34624,1,8,0:0:0
308,324,35452,5,10,0:0:0
308,236,35866,2,0,B|388:236,1,80,0|8,0:0|0:0,0:0:0
360,152,36693,2,0,B|428:136|464:192,2,120,0|0|8,0:0|0:0|0:0,0:0:0
192,96,38762,5,10,0:0:0
108,120,39176,2,0,B|56:180,1,80,0|8,0:0|0:0,0:0:0
36,268,40003,2,0,B|80:280|112:252|112:252|180:292,1,160
264,316,41245,1,8,0:0:0
324,252,41659,5,2,0:0:0
360,332,42072,2,0,B|400:316|416:280|412:240|412:240|432:196,1,160,8|8,0:0|0:0,0:0:0
440,112,43314,2,0,B|392:108|364:136|348:168|348:168|304:160,1,160
224,120,44555,1,2,0:0:0
180,44,44969,6,0,B|140:68|136:108|136:108|136:132|132:160|104:176,1,160,4|8,0:0|0:0,0:0:0
28,224,46210,1,0,0:0:0
104,268,46624,2,0,B|164:324|252:320,1,160,0|8,0:0|0:0,0:0:0
340,320,47866,1,0,0:0:0
424,300,48279,6,0,B|426:255|389:224|350:211|309:234|309:234|308:187|278:160|232:143|195:168,1,320,2|2,0:0|0:0,0:0:0
52,272,50762,2,0,B|52:192,1,80,0|8,0:0|0:0,0:0:0
52,104,51590,6,0,B|92:88|160:116|200:60,1,160,0|8,0:0|0:0,0:0:0
288,48,52831,1,0,0:0:0
372,76,53245,2,0,B|420:92|452:156|443:208,1,160,0|8,0:0|0:0,0:0:0
268,212,54900,6,0,B|259:262|291:326|339:342,2,160,0|8|0,0:0|0:0|0:0,0:0:0
204,48,57383,1,8,0:0:0
116,40,57797,1,8,0:0:0
76,120,58210,6,0,B|116:140|152:120|152:120|204:156|268:128|288:80,1,240,4|8,0:0|0:0,0:0:0
376,80,59866,2,0,B|416:56|452:80,1,80,0|8,0:0|0:0,0:0:0
452,168,60693,2,0,B|412:192|376:168,1,80,0|8,0:0|0:0,0:0:0
296,200,61521,1,0,0:0:0
144,292,62348,6,0,B|100:284|84:244,1,80,2|8,0:0|0:0,0:0:0
164,204,63176,2,0,B|240:232|240:232|320:232,1,160
244,72,64831,6,0,B|324:72|324:72|368:72|396:104,1,160,4|0,0:0|0:0,0:0:0
352,180,66072,1,8,0:0:0
440,184,66486,2,0,B|480:164|484:120,2,80,4|0|0,0:0|0:0|0:0,0:0:0
288,92,68141,6,0,B|368:92,2,80,4|0|0,0:0|0:0|0:0,0:0:0
284,180,69383,1,8,0:0:0
212,132,69797,2,0,B|172:52|84:52,1,160,4|0,0:0|0:0,0:0:0
20,168,71245,6,0,B|52:216|122:223,1,120,4|8,0:0|0:0,0:0:0
208,216,72279,2,0,B|216:260|180:288,1,80,0|8,0:0|0:0,0:0:0
180,332,72900,6,0,B|244:344|288:296,1,120,4|8,0:0|0:0,0:0:0
356,240,73935,2,0,B|396:224|408:180,2,80,2|8|0,0:0|0:0|0:0,0:0:0
324,160,75176,2,0,B|240:160|180:100,1,160,8|8,0:0|0:0,0:0:0
96,128,76417,6,0,B|80:88|36:80,2,80,2|8|0,0:0|0:0|0:0,0:0:0
16,164,77659,2,0,B|32:204|76:212,1,80,8|2,0:0|0:0,0:0:0
160,192,78486,2,0,B|212:208|232:272|292:280,1,160,8|8,0:0|0:0,0:0:0
380,288,79728,6,0,B|472:288|500:200,1,160,4|2,0:0|0:0,0:0:0
456,124,80969,1,8,0:0:0
400,56,81383,2,0,B|308:56|276:140,1,160,4|0,0:0|0:0,0:0:0
236,220,82624,1,8,0:0:0
292,288,83038,6,0,B|320:240|400:240|400:240|400:164|448:140,1,240,6|8,0:0|0:0,0:0:0
368,100,84693,2,0,B|336:128|328:168|328:168|284:172|260:204,1,160,0|2,0:0|0:0,0:0:0
132,84,86348,6,0,B|104:53|60:52,2,80,0|8|0,0:0|0:0|0:0,0:0:0
172,164,87590,1,8,0:0:0
152,248,88003,2,0,B|115:245|76:208|84:164,2,120,0|0|8,0:0|0:0|0:0,0:0:0
236,224,89659,5,2,0:0:0
316,260,90072,2,0,B|316:340,2,80,8|0|8,0:0|0:0|0:0,0:0:0
308,172,91314,1,0,0:0:0
220,152,91728,2,0,B|228:112|260:80|304:72|344:88,1,160,8|8,0:0|0:0,0:0:0
396,160,92969,6,0,B|432:136|432:92,2,80,0|8|0,0:0|0:0|0:0,0:0:0
320,204,94210,1,8,0:0:0
236,176,94624,1,0,0:0:0
152,196,95038,2,0,B|103:224|95:296|144:332,1,160,8|8,0:0|0:0,0:0:0
208,268,96279,6,0,B|288:268,1,80,0|8,0:0|0:0,0:0:0
376,252,97107,2,0,B|412:236,2,40,0|0|8,0:0|0:0|0:0,0:0:0
316,184,97935,2,0,B|284:152|244:148|204:152|172:184,2,160,4|0|4,0:0|0:0|0:0,0:0:0
256,192,100003,12,8,101659,0:0:0
232,104,102486,5,8,0:0:0
144,112,102900,2,0,B|152:160|192:184,1,80,4|8,0:0|0:0,0:0:0
196,264,103728,2,0,B|244:256|260:216,1,80,0|8,0:0|0:0,0:0:0
264,132,104555,2,0,B|344:124|344:124|368:164|408:168,1,160,2|0,0:0|0:0,0:0:0
424,80,105797,1,8,0:0:0
488,140,106210,5,2,0:0:0
440,264,106831,1,2,0:0:0
316,308,107452,2,0,B|280:348|208:348|172:308,2,160,0|0|8,0:0|0:0|0:0,0:0:0
312,220,109521,6,0,B|272:172|204:184,1,120,2|0,0:0|0:0,0:0:0
88,248,110762,2,0,B|48:196|76:136,1,120,2|0,0:0|0:0,0:0:0
204,96,112003,2,0,B|248:100|284:84,1,80,2|0,0:0|0:0,0:0:0
368,72,112831,6,0,B|440:108|440:108|468:184,1,160,4|0,0:0|0:0,0:0:0
444,268,114072,1,8,0:0:0
380,208,114486,2,0,B|304:232|220:208,1,160,2|0,0:0|0:0,0:0:0
136,208,115728,1,8,0:0:0
140,120,116141,6,0,B|212:72|292:112,1,160,0|0,0:0|0:0,0:0:0
356,172,117383,2,0,B|356:212,1,40,0|4,0:0|0:0,0:0:0
