osu file format v14

[General]
AudioFilename: El _mini personaje_ del dia - Remix.mp3
AudioLeadIn: 0
PreviewTime: -1
Countdown: 0
SampleSet: None
StackLeniency: 0.7
Mode: 0
LetterboxInBreaks: 0
WidescreenStoryboard: 0

[Editor]
DistanceSpacing: 2
BeatDivisor: 4
GridSize: 4
TimelineZoom: 3.799999

[Metadata]
Title:El mini personaje del dia [Asterisk remix]
TitleUnicode:El mini personaje del dia [Asterisk remix]
Artist:Macanudo
ArtistUnicode:Macanudo
Creator:Leupoi
Version:chuceeeeeeentryyyy art
Source:
Tags:
BeatmapID:731452
BeatmapSetID:329784

[Difficulty]
HPDrainRate:5
CircleSize:4.2
OverallDifficulty:8
ApproachRate:9.7
SliderMultiplier:2
SliderTickRate:2

[Events]
//Background and Video events
0,0,"maxresdefault (10).jpg",0,0
//Break Periods
2,16928,23618
//Storyboard Layer 0 (Background)
//Storyboard Layer 1 (Fail)
//Storyboard Layer 2 (Pass)
//Storyboard Layer 3 (Foreground)
//Storyboard Sound Samples

[TimingPoints]
113,461.538461538462,4,2,1,40,1,0
1959,-100,4,2,1,40,0,1
8882,-166.666666666667,4,2,1,40,0,1
9228,-83.3333333333333,4,2,1,40,0,1
12747,-166.666666666667,4,2,1,40,0,1
13036,-83.3333333333333,4,2,1,40,0,1
16728,-83.3333333333333,4,2,1,40,0,0
28959,-133.333333333333,4,2,1,40,0,0
29189,-83.3333333333333,4,2,1,40,0,0
29651,-50,4,2,1,40,0,0
30113,-83.3333333333333,4,2,1,40,0,0
32420,-200,4,2,1,40,0,0
41189,-100,4,2,1,40,0,0
49497,-66.6666666666667,4,2,1,40,0,1
61497,-50,4,2,1,40,0,1
64728,-200,4,2,1,40,0,0
71651,-100,4,2,1,40,0,0

[Colours]
Combo1 : 128,255,255
Combo2 : 128,255,128
Combo3 : 64,0,64
Combo4 : 0,128,192
Combo5 : 255,255,255

[HitObjects]
120,88,113,6,0,L|108:72,8,12.5
120,88,1497,2,0,P|208:136|288:96,1,175
96,168,1959,2,0,P|80:224|96:280,1,100
264,207,2305,2,0,P|280:151|264:95,1,100
168,312,2651,1,0,0:0:0:0:
168,312,2766,1,0,0:0:0:0:
168,312,2882,6,0,L|224:328,1,50
360,256,3113,2,0,L|376:200,1,50
168,64,3343,2,0,L|152:120,1,50
408,96,3574,2,0,L|424:40,1,50
264,208,3805,1,0,0:0:0:0:
264,208,3920,1,0,0:0:0:0:
264,208,4036,2,0,P|224:208|192:200,1,50
64,144,4266,6,0,L|16:192,1,50
76,268,4497,6,0,L|97:222,1,50
172,288,4728,6,0,L|167:337,1,50
268,348,4959,1,0,0:0:0:0:
340,320,5074,1,0,0:0:0:0:
392,260,5189,2,0,B|428:180|408:136|408:136|360:144|352:188,1,200
316,244,5766,1,0,0:0:0:0:
316,244,5882,6,0,L|240:276,1,50
336,88,6113,2,0,L|412:56,1,50
200,160,6343,6,0,L|180:113,1,50
392,260,6574,2,0,L|411:306,1,50
328,328,6805,1,0,0:0:0:0:
280,336,6920,1,0,0:0:0:0:
268,252,7036,1,0,0:0:0:0:
316,244,7151,2,0,L|318:231,12,12.5
316,244,7613,1,0,0:0:0:0:
32,332,7843,6,0,L|40:296,1,25
88,307,7959,6,0,L|83:332,1,25
133,331,8074,6,0,L|138:306,1,25
188,306,8189,6,0,L|183:331,1,25
264,304,8305,1,0,0:0:0:0:
264,304,8363,1,0,0:0:0:0:
264,304,8420,2,0,P|300:248|248:280,1,175
360,348,8882,2,0,L|456:348,1,89.9999972534181
480,330,9286,1,0,0:0:0:0:
496,300,9343,6,0,P|500:240|492:180,1,119.999996337891
268,136,9689,1,0,0:0:0:0:
268,136,9805,6,0,P|296:188|372:192,1,119.999996337891
350,116,10151,1,0,0:0:0:0:
160,72,10266,2,0,L|112:136,1,59.9999981689454
320,308,10497,2,0,L|368:244,1,59.9999981689454
387,51,10728,6,0,P|300:172|404:64,1,449.99998626709
284,81,10959,1,0,0:0:0:0:
317,184,11189,1,0,0:0:0:0:
420,147,11420,1,0,0:0:0:0:
404,63,11593,1,0,0:0:0:0:
136,160,11939,5,0,0:0:0:0:
357,291,12055,2,0,L|437:300,1,59.9999981689454
244,231,12286,2,0,L|324:240,1,59.9999981689454
136,160,12516,2,0,L|216:169,1,59.9999981689454
24,92,12747,2,0,L|104:101,1,59.9999981689454
344,72,13036,2,0,B|253:60|253:60|161:76,1,179.999994506836
40,220,13497,5,0,0:0:0:0:
56,188,13613,1,0,0:0:0:0:
168,232,13728,5,0,0:0:0:0:
176,266,13844,1,0,0:0:0:0:
309,187,13959,6,0,L|255:158,1,59.9999981689454
344,72,14189,6,0,L|397:100,1,59.9999981689454
456,288,14420,2,0,P|388:224|472:256,1,239.999992675781
456,288,15113,1,0,0:0:0:0:
469,238,15343,1,0,0:0:0:0:
256,192,15459,12,0,16728,0:0:0:0:
252,120,24113,6,0,P|312:136|372:112,1,119.999996337891
423,59,24459,1,0,0:0:0:0:
432,136,24574,2,0,P|416:164|384:184,1,59.9999981689454
312,216,24805,2,0,P|328:244|360:264,1,59.9999981689454
428,288,25036,2,0,P|412:316|380:336,1,59.9999981689454
248,268,25266,6,0,P|236:196|260:152,1,119.999996337891
315,97,25613,1,0,0:0:0:0:
236,72,25728,1,0,0:0:0:0:
156,88,25843,1,0,0:0:0:0:
96,144,25959,1,0,0:0:0:0:
96,144,26074,5,0,0:0:0:0:
156,88,26189,1,0,0:0:0:0:
236,72,26305,1,0,0:0:0:0:
315,97,26420,2,0,P|336:156|308:212,1,119.999996337891
192,324,26766,2,0,P|171:265|199:209,1,119.999996337891
248,268,27113,5,0,0:0:0:0:
194,324,27228,1,0,0:0:0:0:
116,332,27343,1,0,0:0:0:0:
52,286,27459,1,0,0:0:0:0:
55,147,27574,5,0,0:0:0:0:
121,186,27689,1,0,0:0:0:0:
146,260,27804,1,0,0:0:0:0:
116,332,27920,1,0,0:0:0:0:
204,200,28036,6,0,L|220:136,1,59.9999981689454
376,48,28266,2,0,L|360:112,1,59.9999981689454
304,216,28497,1,0,0:0:0:0:
322,237,28613,1,0,0:0:0:0:
404,168,28728,1,0,0:0:0:0:
422,147,28844,1,0,0:0:0:0:
456,264,28959,2,0,B|456:301|456:301|456:256,1,75.0000028610231
376,304,29305,5,0,0:0:0:0:
292,336,29420,1,0,0:0:0:0:
204,312,29536,1,0,0:0:0:0:
144,240,29651,1,0,0:0:0:0:
176,152,29766,1,0,0:0:0:0:
244,104,29882,2,0,L|236:96,25,6.25
244,104,30113,5,0,0:0:0:0:
200,92,30170,1,0,0:0:0:0:
156,96,30228,1,0,0:0:0:0:
120,124,30286,1,0,0:0:0:0:
92,160,30343,1,0,0:0:0:0:
88,204,30401,1,0,0:0:0:0:
112,240,30459,1,0,0:0:0:0:
148,264,30516,1,0,0:0:0:0:
192,276,30574,6,0,L|336:276,1,119.999996337891
428,160,30920,1,0,0:0:0:0:
428,160,31036,2,0,L|284:160,1,119.999996337891
168,184,31382,1,0,0:0:0:0:
168,184,31497,2,0,L|224:204,1,59.9999981689454
300,83,31728,1,0,0:0:0:0:
300,83,31843,2,0,L|244:103,1,59.9999981689454
428,160,32074,1,0,0:0:0:0:
428,160,32189,2,0,L|408:104,1,59.9999981689454
336,264,32420,6,0,L|364:264,1,25
176,120,32651,6,0,L|148:120,1,25
376,100,32882,6,0,L|376:72,1,25
232,260,33113,6,0,L|232:288,1,25
410,177,33343,6,0,L|429:157,1,25
195,188,33574,6,0,L|175:207,1,25
333,247,33805,6,0,L|352:266,1,25
322,32,34036,6,0,L|302:12,1,25
176,40,34266,5,0,0:0:0:0:
448,344,34497,5,0,0:0:0:0:
44,160,34728,5,0,0:0:0:0:
472,144,34959,5,0,0:0:0:0:
184,344,35189,5,0,0:0:0:0:
320,32,35420,5,0,0:0:0:0:
340,264,35651,5,0,0:0:0:0:
44,292,35882,5,0,0:0:0:0:
420,60,36113,5,0,0:0:0:0:
140,68,36343,5,0,0:0:0:0:
264,356,36574,5,0,0:0:0:0:
320,32,36805,5,0,0:0:0:0:
56,156,37036,5,0,0:0:0:0:
472,228,37266,5,0,0:0:0:0:
80,344,37497,5,0,0:0:0:0:
140,68,37728,5,0,0:0:0:0:
512,384,37959,5,0,0:0:0:0:
0,192,38189,5,0,0:0:0:0:
512,0,38420,5,0,0:0:0:0:
256,192,38882,5,0,0:0:0:0:
256,192,39113,1,0,0:0:0:0:
256,192,39228,1,0,0:0:0:0:
256,192,39343,1,0,0:0:0:0:
256,192,39574,1,0,0:0:0:0:
256,192,39805,1,0,0:0:0:0:
256,192,39920,1,0,0:0:0:0:
256,192,40151,1,0,0:0:0:0:
256,192,40209,1,0,0:0:0:0:
256,192,40266,1,0,0:0:0:0:
256,192,40382,1,0,0:0:0:0:
256,192,40497,1,0,0:0:0:0:
256,192,40613,1,0,0:0:0:0:
256,192,40728,1,0,0:0:0:0:
256,192,40901,1,0,0:0:0:0:
256,192,41016,1,0,0:0:0:0:
256,192,41132,1,0,0:0:0:0:
256,192,41189,6,0,L|256:132,1,50
329,142,41420,2,0,L|329:202,1,50
402,192,41651,2,0,L|402:142,1,50
475,142,41882,1,0,0:0:0:0:
476,196,41997,1,0,0:0:0:0:
476,196,42055,1,0,0:0:0:0:
476,196,42113,1,0,0:0:0:0:
480,324,42228,1,0,0:0:0:0:
480,324,42343,6,0,L|480:256,1,50
409,344,42574,6,0,L|409:276,1,50
338,223,42805,6,0,L|338:291,1,50
267,243,43036,6,0,L|267:311,1,50
197,362,43266,6,0,L|197:302,1,50
167,141,43497,6,0,L|167:191,1,50
97,312,43729,6,0,L|97:252,1,50
67,91,43959,6,0,L|67:141,1,50
4,348,44189,6,0,L|4:298,1,50
28,196,44420,5,0,0:0:0:0:
67,152,44535,1,0,0:0:0:0:
114,117,44650,1,0,0:0:0:0:
168,93,44766,1,0,0:0:0:0:
226,82,44881,1,0,0:0:0:0:
396,104,45112,1,0,0:0:0:0:
125,357,45343,1,0,0:0:0:0:
103,312,45458,1,0,0:0:0:0:
91,263,45573,1,0,0:0:0:0:
88,213,45689,1,0,0:0:0:0:
96,164,45804,1,0,0:0:0:0:
114,117,45919,1,0,0:0:0:0:
140,75,46035,1,0,0:0:0:0:
256,196,46151,5,0,0:0:0:0:
48,76,49497,6,0,B|48:160|48:160|128:160,1,150.000005722046
209,160,49959,6,0,L|209:85,1,75.0000028610231
292,176,50189,6,0,B|291:91|291:91|384:192|384:192|384:60,1,300.000011444092
483,192,50882,6,0,B|483:116|483:116|483:204,1,150.000005722046
144,200,51343,6,0,B|56:200|56:200|56:280|56:280|152:280|152:280|56:280|56:280|56:352|56:352|176:352|176:352,1,525.000020027161
224,339,52266,6,0,B|224:187|224:187|328:135|364:247|272:279|272:279|316:355,1,450.000017166138
451,45,53189,6,0,B|312:53|225:170|649:169|547:285|315:304,1,450.000017166138
379,295,54113,1,0,0:0:0:0:
221,318,54343,6,0,L|70:318,1,150.000005722046
145,318,54459,1,0,0:0:0:0:
152,215,54805,6,0,L|303:215,1,150.000005722046
227,215,54920,1,0,0:0:0:0:
383,103,55266,6,0,L|232:103,1,150.000005722046
308,103,55381,1,0,0:0:0:0:
64,68,55728,5,0,0:0:0:0:
99,347,55959,1,0,0:0:0:0:
381,313,56189,1,0,0:0:0:0:
345,29,56420,1,0,0:0:0:0:
69,268,56651,5,0,0:0:0:0:
299,342,56882,1,0,0:0:0:0:
377,106,57112,1,0,0:0:0:0:
139,31,57343,1,0,0:0:0:0:
403,294,57574,6,0,P|432:257|442:210,1,75.0000028610231
366,225,57805,1,0,0:0:0:0:
69,268,58036,2,0,P|81:307|116:339,1,75.0000028610231
147,268,58266,1,0,0:0:0:0:
139,31,58497,2,0,P|94:31|56:51,1,75.0000028610231
118,103,58728,1,0,0:0:0:0:
324,101,58959,2,0,P|345:69|353:34,1,75.0000028610231
277,39,59189,1,0,0:0:0:0:
0,365,59420,5,0,0:0:0:0:
256,0,59651,5,0,0:0:0:0:
512,365,59882,5,0,0:0:0:0:
256,192,59997,12,0,60113,0:0:0:0:
314,138,60113,5,0,0:0:0:0:
256,192,60228,12,0,60343,0:0:0:0:
197,138,60343,5,0,0:0:0:0:
256,192,60459,12,0,60574,0:0:0:0:
197,240,60574,5,0,0:0:0:0:
256,192,60689,12,0,60804,0:0:0:0:
314,240,60805,5,0,0:0:0:0:
257,189,61036,5,0,0:0:0:0:
251,251,61497,6,0,P|167:232|80:182,1,150.000005722046
246,102,61728,6,0,P|330:121|418:171,1,150.000005722046
214,241,61959,6,0,P|151:183|100:96,1,150.000005722046
282,111,62190,6,0,P|346:169|397:256,1,150.000005722046
186,215,62420,6,0,P|160:133|160:32,1,150.000005722046
310,138,62651,6,0,P|336:220|337:321,1,150.000005722046
175,179,62882,6,0,P|194:95|243:7,1,150.000005722046,0|0,0:0|0:0,0:0:0:0:
322,174,63113,6,0,P|303:258|253:346,1,150.000005722046,0|0,0:0|0:0,0:0:0:0:
249,176,63343,5,0,0:0:0:0:
55,70,63574,6,0,B|285:70|285:70|170:70|170:70|254:202|152:307,1,600
450,55,64497,6,0,B|311:63|224:180|648:179|546:295|314:314,1,450.000017166138
408,166,64728,1,0,0:0:0:0:
427,294,64959,1,0,0:0:0:0:
104,318,65189,6,0,L|76:318,1,25
141,237,65420,6,0,L|113:237,1,25
175,161,65651,6,0,L|147:161,1,25
212,80,65882,6,0,L|184:80,1,25
300,80,66113,6,0,L|328:80,1,25
337,161,66343,6,0,L|365:161,1,25
371,237,66574,6,0,L|399:237,1,25
408,318,66805,6,0,L|436:318,1,25
479,196,67036,6,0,L|479:130,1,50
33,146,67497,6,0,L|33:196,1,50
234,355,67959,6,0,L|284:355,1,50
278,29,68420,6,0,L|228:29,1,50
57,306,68882,6,0,L|95:359,1,50
446,84,69343,6,0,L|416:43,1,50
161,34,69805,6,0,L|120:63,1,50
317,322,70266,6,0,L|357:292,1,50
283,79,70728,6,0,P|259:72|223:84,1,50
229,305,71189,6,0,P|253:312|289:300,1,50
274,157,71651,2,0,P|224:171|290:173,1,200
