osu file format v14

[General]
AudioFilename: Uroboros_9236.mp3
AudioLeadIn: 3000
PreviewTime: 52210
Countdown: 0
SampleSet: Normal
StackLeniency: 0.7
Mode: 2
LetterboxInBreaks: 0
EpilepsyWarning: 1
WidescreenStoryboard: 1

[Editor]
Bookmarks: 2301,17301,26028,34755,43482,52210,69664,87119,95846,104573,113301,122028,130755,139482,148210,156937,165664,183119,200573,208210
DistanceSpacing: 0.8
BeatDivisor: 4
GridSize: 4
TimelineZoom: 1.8

[Metadata]
Title:Uroboros 9236
TitleUnicode:Uroboros 9236
Artist:Mabinogi
ArtistUnicode:Mabinogi
Creator:ZHSteven
Version:Inferno CTB
Source:
Tags:Mabinogi 2012 G11 boss Firce777 blah
BeatmapID:712730
BeatmapSetID:141759

[Difficulty]
HPDrainRate:6
CircleSize:4
OverallDifficulty:9
ApproachRate:9
SliderMultiplier:1.9
SliderTickRate:1

[Events]
//Background and Video events
0,0,"485623.jpg",0,0
//Break Periods
//Storyboard Layer 0 (Background)
//Storyboard Layer 1 (Fail)
//Storyboard Layer 2 (Pass)
//Storyboard Layer 3 (Foreground)
//Storyboard Sound Samples

[TimingPoints]
2317,400,4,2,0,60,1,0
15117,272.727272727273,4,1,0,60,1,0
27867,-66.6666666666667,4,1,0,60,0,0
28207,-100,4,1,0,60,0,0
29980,-66.6666666666667,4,1,0,60,0,0
30389,-100,4,1,0,60,0,0
34753,-100,4,1,0,60,0,0
52207,-100,4,1,0,60,0,1
87117,-100,4,1,0,60,0,0
121957,-100,4,2,0,60,0,0
130753,-100,4,1,0,60,0,0
165662,-100,4,1,0,60,0,1
200571,-100,4,1,0,60,0,0
347776,-100,4,1,0,60,0,0

[HitObjects]
256,192,1517,12,0,2117,0:0:0:0:
128,96,2317,6,0,B|316:96,1,190,8|0,0:0|0:0,0:0:0:0:
40,96,3117,1,4,0:0:0:0:
280,180,3517,6,0,B|192:180,3,63.3333333333333,2|2|0|8,0:0|0:0|0:0|0:0,0:0:0:0:
404,104,4317,1,0,0:0:0:0:
96,96,4717,1,4,0:0:0:0:
204,104,5117,5,0,0:0:0:0:
96,160,5250,1,0,0:0:0:0:
0,232,5383,1,0,0:0:0:0:
120,276,5517,2,0,B|312:272,1,190,8|0,0:0|0:0,0:0:0:0:
512,200,6317,2,0,B|320:204,1,190,4|0,0:0|0:0,0:0:0:0:
220,160,6850,5,0,0:0:0:0:
336,128,6983,1,2,0:0:0:0:
248,60,7117,1,8,0:0:0:0:
408,84,7517,1,0,0:0:0:0:
224,152,7917,1,4,0:0:0:0:
0,304,8217,1,0,0:0:0:0:
248,232,8517,1,0,0:0:0:0:
44,192,8717,6,0,B|232:176,2,190,8|0|4,0:0|0:0|0:0,0:0:0:0:
432,104,9917,1,2,0:0:0:0:
312,160,10050,1,0,0:0:0:0:
168,232,10183,1,0,0:0:0:0:
292,272,10317,6,0,B|104:276,2,190,8|0|4,0:0|0:0|0:0,0:0:0:0:
48,112,11517,1,2,0:0:0:0:
156,160,11650,1,0,0:0:0:0:
288,224,11783,1,0,0:0:0:0:
428,156,11917,6,0,B|104:376,1,380,8|4,0:0|0:0,0:0:0:0:
392,240,13117,2,0,B|328:240,2,63.3333333333333,2|0|2,0:0|0:0|0:0,0:0:0:0:
216,224,13517,6,0,B|376:88,1,190,8|0,0:0|0:0,0:0:0:0:
40,136,14317,2,0,B|36:204,1,63.3333333333333,4|0,0:0|0:0,0:0:0:0:
140,136,14583,2,2,B|72:140,1,63.3333333333333
164,196,14850,2,0,B|256:196,1,63.3333333333333
56,128,15117,6,0,B|256:336|256:336|460:108,2,570,8|0|4,0:0|0:0|0:0,0:0:0:0:
224,240,17298,5,4,0:0:0:0:
16,236,17571,1,0,0:0:0:0:
296,240,17844,1,8,0:0:0:0:
88,240,18117,1,0,0:0:0:0:
368,240,18389,5,0,0:0:0:0:
156,240,18662,1,0,0:0:0:0:
440,240,18935,1,8,0:0:0:0:
224,244,19207,1,0,0:0:0:0:
328,240,19344,1,0,0:0:0:0:
444,144,19480,5,4,0:0:0:0:
172,240,19753,1,0,0:0:0:0:
380,240,20026,1,8,0:0:0:0:
100,240,20298,1,0,0:0:0:0:
312,240,20571,5,0,0:0:0:0:
28,240,20844,1,0,0:0:0:0:
240,236,21117,1,8,0:0:0:0:
28,240,21389,1,0,0:0:0:0:
136,240,21526,1,0,0:0:0:0:
240,236,21662,6,0,B|36:236,1,190,4|0,0:0|0:0,0:0:0:0:
328,316,22207,2,0,B|124:316,1,190,8|0,0:0|0:0,0:0:0:0:
448,316,22753,2,0,B|244:316,1,190
16,136,23298,2,0,B|212:136,1,190,8|0,0:0|0:0,0:0:0:0:
296,192,23707,1,0,0:0:0:0:
412,284,23844,2,0,B|304:284,2,95,4|0|0,0:0|0:0|0:0,0:0:0:0:
140,228,24389,1,8,0:0:0:0:
256,228,24526,1,0,0:0:0:0:
368,228,24662,1,0,0:0:0:0:
80,228,24935,6,0,B|180:228,1,95
316,228,25207,2,0,B|221:228,1,95,8|0,0:0|0:0,0:0:0:0:
352,228,25480,2,0,B|288:228,3,47.5
356,308,25753,2,0,B|420:308,3,47.5,8|0|0|0,0:0|0:0|0:0|0:0,0:0:0:0:
468,308,26026,6,0,B|268:312,1,190
80,108,26571,2,0,B|184:108,2,95,8|0|0,0:0|0:0|0:0,0:0:0:0:
392,124,27117,6,0,B|392:240,1,95
224,124,27389,2,0,B|340:124,1,95
152,124,27662,2,0,B|48:124,1,95,8|0,0:0|0:0,0:0:0:0:
136,240,27935,2,0,B|436:240,1,284.999991506338
232,148,28480,5,0,0:0:0:0:
432,108,28753,2,0,B|328:108,2,95,8|0|0,0:0|0:0|0:0,0:0:0:0:
104,128,29298,6,0,B|101:224,1,95
268,132,29571,2,0,B|152:132,1,95
340,132,29844,2,0,B|444:132,1,95,8|0,0:0|0:0,0:0:0:0:
388,248,30117,2,0,B|112:112,1,284.999991506338
360,188,30661,6,0,B|480:188,1,95
304,192,30934,2,0,B|204:104,2,95,8|0|0,0:0|0:0|0:0,0:0:0:0:
460,308,31344,2,0,B|268:308,1,190
116,308,31753,2,0,B|212:308,2,95,0|0|8,0:0|0:0|0:0,0:0:0:0:
248,196,32161,1,0,0:0:0:0:
120,156,32298,1,0,0:0:0:0:
272,92,32434,1,0,0:0:0:0:
168,64,32571,6,0,B|376:128,1,190,4|0,0:0|0:0,0:0:0:0:
480,196,32979,1,0,0:0:0:0:
316,264,33116,2,0,B|200:264,2,95,8|0|0,0:0|0:0|0:0,0:0:0:0:
184,264,33525,1,0,0:0:0:0:
328,264,33661,2,0,B|220:264,1,95,8|0,0:0|0:0,0:0:0:0:
112,196,33934,6,0,B|232:196,1,95,0|0,0:0|0:0,0:0:0:0:
328,196,34207,2,0,B|264:196,3,47.5,8|0|0|0,0:0|0:0|0:0|0:0,0:0:0:0:
380,196,34480,2,0,B|316:196,3,47.5
424,196,34753,6,0,B|236:196,1,190,4|0,0:0|0:0,0:0:0:0:
328,260,35161,1,0,0:0:0:0:
428,320,35298,2,0,B|364:320,3,47.5,8|0|0|0,0:0|0:0|0:0|0:0,0:0:0:0:
424,256,35571,2,0,B|208:256,1,190
284,184,35979,5,0,0:0:0:0:
164,156,36116,1,0,0:0:0:0:
284,116,36252,1,0,0:0:0:0:
144,96,36389,2,0,B|168:136,3,47.5,8|0|0|0,0:0|0:0|0:0|0:0,0:0:0:0:
96,96,36662,2,0,B|144:96,3,47.5,8|0|0|0,0:0|0:0|0:0|0:0,0:0:0:0:
88,196,36935,6,0,B|276:196,1,190
184,260,37344,1,0,0:0:0:0:
84,320,37480,2,0,B|148:320,3,47.5,8|0|0|0,0:0|0:0|0:0|0:0,0:0:0:0:
88,256,37753,2,0,B|304:256,1,190
228,184,38161,5,0,0:0:0:0:
348,156,38298,1,0,0:0:0:0:
216,112,38434,1,0,0:0:0:0:
368,96,38571,2,0,B|344:136,3,47.5,8|0|0|0,0:0|0:0|0:0|0:0,0:0:0:0:
416,96,38843,2,0,B|368:96,3,47.5,8|0|0|0,0:0|0:0|0:0|0:0,0:0:0:0:
468,96,39117,6,0,B|252:96,1,190
144,120,39525,1,0,0:0:0:0:
68,232,39661,1,8,0:0:0:0:
224,276,39798,1,0,0:0:0:0:
116,296,39934,1,0,0:0:0:0:
200,296,40070,1,0,0:0:0:0:
28,296,40207,5,8,0:0:0:0:
128,200,40344,1,0,0:0:0:0:
260,144,40480,1,0,0:0:0:0:
440,308,40617,2,0,B|248:288,1,190,8|0,0:0|0:0,0:0:0:0:
168,236,41026,1,0,0:0:0:0:
60,176,41162,1,0,0:0:0:0:
172,112,41298,6,0,B|172:212,1,95,8|0,0:0|0:0,0:0:0:0:
332,156,41571,2,0,B|242:124,1,95
408,200,41844,2,0,B|498:169,1,95,8|0,0:0|0:0,0:0:0:0:
312,232,42117,2,0,B|217:232,1,95
136,236,42389,6,0,B|80:236,3,47.5,8|0|0|0,0:0|0:0|0:0|0:0,0:0:0:0:
200,240,42662,2,0,B|136:236,3,47.5
248,240,42935,1,8,0:0:0:0:
288,244,43003,1,0,0:0:0:0:
352,248,43071,1,0,0:0:0:0:
412,252,43139,1,0,0:0:0:0:
472,256,43207,1,8,0:0:0:0:
420,192,43276,1,0,0:0:0:0:
364,180,43344,1,0,0:0:0:0:
312,168,43412,1,0,0:0:0:0:
272,164,43480,6,0,B|148:160,2,95
320,172,44025,2,0,B|444:168,3,95,8|0|0|0,0:0|0:0|0:0|0:0,0:0:0:0:
320,248,44570,2,0,B|192:248,1,95
84,248,44843,2,0,B|192:248,1,95
28,252,45117,1,8,0:0:0:0:
28,157,45253,2,0,B|220:156,1,190
384,160,45662,6,0,B|168:200,1,190
332,120,46071,2,0,B|436:120,1,95,0|8,0:0|0:0,0:0:0:0:
336,64,46344,2,0,B|148:112,1,190
28,132,46752,2,0,B|24:252,1,95
160,168,47025,2,0,B|80:236,1,95
256,224,47298,2,0,B|136:240,1,95,8|0,0:0|0:0,0:0:0:0:
344,308,47570,1,8,0:0:0:0:
108,320,47707,1,8,0:0:0:0:
216,272,47844,6,0,B|-8:268,1,190
268,200,48389,2,0,B|372:200,2,95,8|0|0,0:0|0:0|0:0,0:0:0:0:
68,192,48934,2,0,B|192:136,1,95
308,216,49207,2,0,B|212:160,1,95
380,232,49480,2,0,B|480:280,1,95,8|0,0:0|0:0,0:0:0:0:
304,308,49753,2,0,B|112:312,1,190
24,264,50161,5,0,0:0:0:0:
112,204,50298,1,0,0:0:0:0:
228,168,50434,1,0,0:0:0:0:
352,144,50570,2,0,B|440:208,1,95,8|0,0:0|0:0,0:0:0:0:
268,144,50844,2,0,B|176:192,1,95
68,208,51117,6,0,B|128:208,3,47.5
160,208,51389,2,0,B|220:208,3,47.5
264,212,51661,5,8,0:0:0:0:
324,224,51729,1,0,0:0:0:0:
392,224,51798,1,0,0:0:0:0:
444,180,51866,1,0,0:0:0:0:
376,156,51935,1,8,0:0:0:0:
296,152,52002,1,0,0:0:0:0:
212,152,52070,1,0,0:0:0:0:
120,152,52207,6,0,B|120:44,1,95,6|0,0:0|0:0,0:0:0:0:
272,80,52480,6,0,B|205:148,1,95
408,156,52752,2,0,B|305:168,1,95,8|0,0:0|0:0,0:0:0:0:
484,204,53025,1,8,0:0:0:0:
268,248,53161,2,2,B|384:244,1,95,8|0,0:0|0:0,0:0:0:0:
200,240,53434,6,0,B|280:172,1,95,8|0,0:0|0:0,0:0:0:0:
136,184,53707,1,8,0:0:0:0:
356,136,53843,1,8,0:0:0:0:
260,132,53979,1,0,0:0:0:0:
192,136,54048,1,0,0:0:0:0:
120,128,54116,1,0,0:0:0:0:
164,92,54184,1,0,0:0:0:0:
224,56,54252,1,0,0:0:0:0:
160,40,54320,1,0,0:0:0:0:
120,152,54389,6,0,B|120:44,1,95,2|0,0:0|0:0,0:0:0:0:
272,80,54662,6,0,B|205:148,1,95
408,156,54935,2,0,B|305:168,1,95,8|0,0:0|0:0,0:0:0:0:
484,204,55206,1,8,0:0:0:0:
268,248,55344,2,0,B|384:244,1,95,8|0,0:0|0:0,0:0:0:0:
200,240,55617,6,0,B|280:172,1,95,8|0,0:0|0:0,0:0:0:0:
136,184,55888,1,8,0:0:0:0:
356,136,56026,1,8,0:0:0:0:
216,144,56162,1,0,0:0:0:0:
160,136,56230,1,0,0:0:0:0:
96,128,56297,1,0,0:0:0:0:
160,92,56366,1,0,0:0:0:0:
224,56,56435,1,0,0:0:0:0:
292,48,56503,1,0,0:0:0:0:
336,88,56571,6,0,B|452:136,2,95
96,84,57117,1,2,0:0:0:0:
264,64,57253,1,0,0:0:0:0:
96,84,57389,1,0,0:0:0:0:
452,224,57661,2,0,B|348:196,1,95
200,228,57934,2,0,B|304:192,1,95
128,232,58207,2,8,B|20:152,3,95,8|0|8|0,0:0|0:0|0:0|0:0,0:0:0:0:
208,300,58752,6,0,B|96:300,1,95,2|0,0:0|0:0,0:0:0:0:
268,240,59025,2,0,B|173:240,1,95
344,240,59298,2,0,B|444:240,1,95,8|0,0:0|0:0,0:0:0:0:
312,184,59570,1,0,0:0:0:0:
180,144,59707,1,0,0:0:0:0:
64,80,59843,6,0,B|12:84,3,47.5
116,76,60116,6,0,B|64:80,3,47.5
164,76,60388,5,2,0:0:0:0:
220,92,60457,1,0,0:0:0:0:
284,120,60525,1,0,0:0:0:0:
344,160,60593,1,0,0:0:0:0:
260,216,60661,1,8,0:0:0:0:
184,256,60729,1,0,0:0:0:0:
120,288,60798,1,8,0:0:0:0:
160,328,60866,1,0,0:0:0:0:
216,332,60935,6,0,B|348:332,2,95
448,332,61480,2,0,B|316:332,2,95,8|0|0,0:0|0:0|0:0,0:0:0:0:
348,272,61888,1,0,0:0:0:0:
208,332,62025,2,0,B|340:332,1,95
208,264,62298,2,0,B|-4:264,1,190,0|2,0:0|0:0,0:0:0:0:
116,184,62707,1,0,0:0:0:0:
288,140,62845,1,0,0:0:0:0:
180,116,62981,1,0,0:0:0:0:
360,328,63118,6,0,B|228:328,2,95,8|0|0,0:0|0:0|0:0,0:0:0:0:
64,332,63663,2,0,B|196:332,2,95,2|0|0,0:0|0:0|0:0,0:0:0:0:
164,272,64072,1,0,0:0:0:0:
304,332,64207,2,0,B|172:332,1,95,8|0,0:0|0:0,0:0:0:0:
304,264,64481,2,0,B|516:264,1,190
396,184,64889,1,0,0:0:0:0:
288,144,65027,1,0,0:0:0:0:
172,104,65163,1,0,0:0:0:0:
48,180,65298,6,0,B|160:180,2,95,2|0|0,0:0|0:0|0:0,0:0:0:0:
144,260,65707,1,8,0:0:0:0:
288,176,65844,2,0,B|176:176,2,95
192,260,66253,1,8,0:0:0:0:
352,268,66389,6,0,B|257:264,1,95,2|0,0:0|0:0,0:0:0:0:
408,188,66662,2,0,B|304:192,1,95,0|8,0:0|0:0,0:0:0:0:
472,136,66935,1,2,0:0:0:0:
328,88,67071,1,0,0:0:0:0:
168,80,67207,1,0,0:0:0:0:
232,192,67344,1,8,0:0:0:0:
32,208,67480,6,0,B|444:208,1,380,6|0,0:0|0:0,0:0:0:0:
208,296,68298,1,0,0:0:0:0:
336,296,68436,1,8,0:0:0:0:
464,296,68572,2,0,B|340:296,1,95
220,296,68845,2,0,B|336:292,1,95,0|8,0:0|0:0,0:0:0:0:
132,300,69118,2,0,B|48:200,1,95
184,176,69390,5,8,0:0:0:0:
252,200,69457,1,0,0:0:0:0:
300,240,69527,1,0,0:0:0:0:
360,268,69595,1,0,0:0:0:0:
400,152,69662,6,0,B|520:152,1,95,2|0,0:0|0:0,0:0:0:0:
248,64,69935,2,0,B|336:152,1,95,8|0,0:0|0:0,0:0:0:0:
128,128,70207,2,0,B|160:224,1,95,8|0,0:0|0:0,0:0:0:0:
28,204,70480,1,8,0:0:0:0:
164,296,70617,2,0,B|108:204,1,95,8|0,0:0|0:0,0:0:0:0:
272,248,70890,6,0,B|172:208,1,95,8|0,0:0|0:0,0:0:0:0:
328,188,71163,1,8,0:0:0:0:
152,152,71299,1,8,0:0:0:0:
232,100,71435,1,0,0:0:0:0:
304,84,71504,1,0,0:0:0:0:
372,68,71572,1,0,0:0:0:0:
436,64,71640,1,0,0:0:0:0:
496,84,71708,1,0,0:0:0:0:
432,64,71776,1,0,0:0:0:0:
372,64,71845,6,0,B|436:156,1,95,2|0,0:0|0:0,0:0:0:0:
248,64,72117,2,0,B|336:152,1,95,8|0,0:0|0:0,0:0:0:0:
128,128,72390,2,0,B|240:128,1,95,8|0,0:0|0:0,0:0:0:0:
28,204,72663,1,8,0:0:0:0:
184,296,72799,2,0,B|64:296,1,95,8|0,0:0|0:0,0:0:0:0:
268,252,73072,6,0,B|168:212,1,95,8|0,0:0|0:0,0:0:0:0:
328,188,73345,1,8,0:0:0:0:
224,140,73481,1,8,0:0:0:0:
300,96,73617,1,0,0:0:0:0:
356,84,73685,1,0,0:0:0:0:
300,96,73753,1,0,0:0:0:0:
248,100,73821,1,0,0:0:0:0:
184,100,73889,1,0,0:0:0:0:
136,88,73957,1,0,0:0:0:0:
96,52,74027,2,0,B|-44:52,2,95
344,96,74571,1,2,0:0:0:0:
176,76,74708,1,0,0:0:0:0:
344,96,74844,1,0,0:0:0:0:
60,224,75116,2,0,B|164:196,1,95
312,228,75389,2,0,B|208:192,1,95
384,232,75662,2,0,B|492:152,2,95,2|0|0,0:0|0:0|0:0,0:0:0:0:
264,300,76208,6,0,B|368:280,1,95
224,240,76480,2,0,B|296:168,1,95,8|0,0:0|0:0,0:0:0:0:
164,240,76753,2,0,B|84:172,1,95
200,184,77025,1,8,0:0:0:0:
332,144,77162,1,0,0:0:0:0:
448,80,77298,6,0,B|500:84,3,47.5
396,76,77571,6,0,B|448:80,3,47.5
348,76,77843,5,2,0:0:0:0:
292,88,77912,1,0,0:0:0:0:
228,120,77980,1,0,0:0:0:0:
160,160,78048,1,0,0:0:0:0:
232,212,78116,1,8,0:0:0:0:
312,252,78184,1,0,0:0:0:0:
404,280,78253,1,8,0:0:0:0:
332,324,78321,1,0,0:0:0:0:
256,324,78389,6,0,B|124:324,2,95
0,324,78934,2,0,B|132:324,2,95,8|0|0,0:0|0:0|0:0,0:0:0:0:
164,272,79343,1,0,0:0:0:0:
304,332,79480,2,0,B|172:332,1,95
304,264,79753,2,0,B|516:264,1,190,0|8,0:0|0:0,0:0:0:0:
396,184,80162,1,0,0:0:0:0:
224,140,80298,1,0,0:0:0:0:
332,116,80434,1,0,0:0:0:0:
152,328,80571,6,0,B|284:328,2,95
448,332,81117,2,0,B|316:332,2,95,8|0|0,0:0|0:0|0:0,0:0:0:0:
348,272,81525,1,0,0:0:0:0:
208,332,81662,2,0,B|340:332,1,95
208,264,81934,2,0,B|-4:264,1,190,0|8,0:0|0:0,0:0:0:0:
116,184,82344,1,0,0:0:0:0:
224,144,82480,1,0,0:0:0:0:
340,104,82616,1,0,0:0:0:0:
464,180,82753,6,0,B|352:180,2,95
368,260,83162,1,8,0:0:0:0:
224,176,83298,2,0,B|336:176,2,95
320,260,83707,1,8,0:0:0:0:
160,268,83843,6,0,B|255:264,1,95
104,188,84116,2,0,B|208:192,1,95,0|8,0:0|0:0,0:0:0:0:
40,136,84389,1,0,0:0:0:0:
184,88,84525,1,0,0:0:0:0:
344,80,84662,1,0,0:0:0:0:
280,192,84798,1,8,0:0:0:0:
476,252,84935,5,0,0:0:0:0:
376,256,85071,1,0,0:0:0:0:
276,256,85208,1,0,0:0:0:0:
176,252,85344,1,8,0:0:0:0:
76,252,85480,5,0,0:0:0:0:
104,200,85549,1,0,0:0:0:0:
152,200,85617,1,8,0:0:0:0:
196,200,85685,1,0,0:0:0:0:
248,200,85753,5,0,0:0:0:0:
204,152,85821,1,0,0:0:0:0:
148,128,85889,1,8,0:0:0:0:
92,156,85958,1,0,0:0:0:0:
48,296,86025,6,0,B|172:296,1,95
292,296,86298,2,0,B|176:292,1,95,8|0,0:0|0:0,0:0:0:0:
380,300,86571,2,0,B|376:172,1,95
200,196,86844,1,8,0:0:0:0:
276,192,86912,1,0,0:0:0:0:
352,196,86980,1,8,0:0:0:0:
424,200,87049,1,0,0:0:0:0:
492,132,87117,6,0,B|380:132,1,95,0|0,0:0|0:0,0:0:0:0:
264,132,87389,2,0,B|376:132,2,95,8|0|0,0:0|0:0|0:0,0:0:0:0:
380,80,87799,1,0,0:0:0:0:
232,84,87935,1,8,0:0:0:0:
208,32,88003,1,0,0:0:0:0:
188,84,88071,1,0,0:0:0:0:
372,248,88208,6,0,B|260:248,1,95,0|0,0:0|0:0,0:0:0:0:
144,248,88480,2,0,B|256:248,2,95,8|0|0,0:0|0:0|0:0,0:0:0:0:
260,196,88890,1,0,0:0:0:0:
112,200,89026,1,8,0:0:0:0:
88,148,89094,1,0,0:0:0:0:
68,200,89162,1,0,0:0:0:0:
232,308,89299,6,2,B|24:304,1,190
204,256,89708,2,2,B|412:252,1,190
208,192,90117,2,2,B|212:88,1,95
384,184,90389,2,0,B|284:184,2,95,8|0|0,0:0|0:0|0:0,0:0:0:0:
112,176,90935,6,0,B|232:176,1,95,8|0,0:0|0:0,0:0:0:0:
32,144,91208,2,8,B|32:40,1,95
212,316,91480,6,0,B|420:312,1,190
308,256,91889,2,0,B|4:256,1,285,8|0,0:0|0:0,0:0:0:0:
164,192,92435,1,0,0:0:0:0:
320,180,92571,6,0,B|515:180,2,190,8|0|8,0:0|0:0|0:0,0:0:0:0:
200,124,93253,1,0,0:0:0:0:
272,268,93389,1,0,0:0:0:0:
152,272,93526,1,0,0:0:0:0:
28,272,93662,6,0,B|148:232,3,95
276,276,94208,2,0,B|156:236,2,95,8|0|0,0:0|0:0|0:0,0:0:0:0:
356,220,94617,1,0,0:0:0:0:
400,220,94685,1,0,0:0:0:0:
440,220,94753,6,0,B|116:224,1,285,2|0,0:0|0:0,0:0:0:0:
0,224,95299,2,0,B|189:220,1,190
108,136,95708,1,0,0:0:0:0:
20,132,95844,2,0,B|132:132,1,95,0|0,0:0|0:0,0:0:0:0:
248,132,96117,2,0,B|136:132,2,95,8|0|0,0:0|0:0|0:0,0:0:0:0:
132,80,96526,1,0,0:0:0:0:
280,84,96662,1,8,0:0:0:0:
304,32,96730,1,0,0:0:0:0:
324,84,96798,1,0,0:0:0:0:
140,248,96935,6,0,B|252:248,1,95
368,248,97207,2,0,B|256:248,2,95,8|0|0,0:0|0:0|0:0,0:0:0:0:
252,196,97617,1,0,0:0:0:0:
400,200,97753,1,8,0:0:0:0:
424,148,97821,1,0,0:0:0:0:
444,200,97889,1,0,0:0:0:0:
276,312,98026,6,2,B|484:308,1,190
308,256,98435,2,2,B|100:252,1,190
256,196,98844,2,2,B|252:92,1,95
76,180,99116,2,0,B|176:180,2,95
368,180,99662,6,0,B|248:180,1,95,8|0,0:0|0:0,0:0:0:0:
408,116,99935,2,0,B|492:40,1,95,0|8,0:0|0:0,0:0:0:0:
304,304,100207,6,0,B|96:300,1,190
204,256,100616,2,0,B|508:256,1,285,8|0,0:0|0:0,0:0:0:0:
348,192,101162,1,0,0:0:0:0:
192,180,101298,6,0,B|-3:180,2,190,0|0|8,0:0|0:0|0:0,0:0:0:0:
312,124,101980,1,0,0:0:0:0:
240,268,102116,1,0,0:0:0:0:
360,272,102253,1,0,0:0:0:0:
484,272,102389,6,0,B|364:232,3,95
236,276,102935,2,0,B|356:236,2,95,8|0|0,0:0|0:0|0:0,0:0:0:0:
156,220,103344,1,0,0:0:0:0:
112,220,103412,1,0,0:0:0:0:
72,220,103480,6,2,B|396:224,1,285
512,224,104026,2,0,B|322:220,1,190
204,136,104435,1,8,0:0:0:0:
328,96,104571,5,0,0:0:0:0:
208,112,104708,1,0,0:0:0:0:
352,256,104844,1,8,0:0:0:0:
356,192,104912,1,0,0:0:0:0:
364,132,104980,1,0,0:0:0:0:
196,248,105117,5,0,0:0:0:0:
312,248,105253,1,0,0:0:0:0:
196,248,105389,1,8,0:0:0:0:
168,192,105458,1,0,0:0:0:0:
204,140,105526,1,0,0:0:0:0:
312,248,105661,5,0,0:0:0:0:
196,248,105799,1,0,0:0:0:0:
268,248,105867,1,8,0:0:0:0:
268,248,105935,1,8,0:0:0:0:
144,252,106071,1,0,0:0:0:0:
268,248,106207,5,8,0:0:0:0:
228,248,106277,1,8,0:0:0:0:
172,248,106344,1,0,0:0:0:0:
120,248,106412,1,0,0:0:0:0:
72,248,106481,1,8,0:0:0:0:
204,316,106617,1,0,0:0:0:0:
48,112,106753,6,0,B|276:112,1,190
424,112,107162,2,0,B|424:320,1,190,8|8,0:0|0:0,0:0:0:0:
248,200,107571,2,0,B|352:200,2,95
432,120,107980,6,0,B|232:120,1,190,8|0,0:0|0:0,0:0:0:0:
60,128,108389,2,0,B|168:128,1,95
296,128,108662,2,0,B|176:128,1,95,8|0,0:0|0:0,0:0:0:0:
372,124,108935,5,0,0:0:0:0:
372,124,109003,1,0,0:0:0:0:
372,124,109071,1,0,0:0:0:0:
216,224,109208,2,0,B|336:224,1,95,8|0,0:0|0:0,0:0:0:0:
136,220,109480,5,0,0:0:0:0:
136,220,109549,1,0,0:0:0:0:
136,220,109616,1,0,0:0:0:0:
312,296,109753,2,0,B|180:296,1,95,8|0,0:0|0:0,0:0:0:0:
60,296,110026,5,0,0:0:0:0:
60,296,110094,1,0,0:0:0:0:
60,296,110162,1,8,0:0:0:0:
208,296,110299,1,0,0:0:0:0:
24,228,110435,2,0,B|224:228,1,190,8|0,0:0|0:0,0:0:0:0:
376,232,110844,2,0,B|244:232,1,95
260,164,111049,1,0,0:0:0:0:
220,164,111117,5,8,0:0:0:0:
112,160,111253,1,0,0:0:0:0:
220,164,111389,1,0,0:0:0:0:
72,160,111526,1,0,0:0:0:0:
220,164,111662,5,8,0:0:0:0:
112,160,111799,1,0,0:0:0:0:
260,164,111935,1,0,0:0:0:0:
392,168,112071,1,0,0:0:0:0:
260,164,112208,5,8,0:0:0:0:
220,164,112276,1,0,0:0:0:0:
176,168,112344,1,0,0:0:0:0:
332,88,112480,1,8,0:0:0:0:
180,80,112617,1,0,0:0:0:0:
352,248,112753,5,8,0:0:0:0:
292,248,112821,1,0,0:0:0:0:
232,248,112889,1,0,0:0:0:0:
168,248,112958,1,0,0:0:0:0:
108,244,113026,1,8,0:0:0:0:
232,248,113162,1,0,0:0:0:0:
44,88,113299,5,0,0:0:0:0:
224,116,113436,1,0,0:0:0:0:
80,240,113572,1,8,0:0:0:0:
136,220,113640,1,0,0:0:0:0:
184,204,113708,1,0,0:0:0:0:
316,248,113845,5,0,0:0:0:0:
200,248,113981,1,0,0:0:0:0:
316,248,114117,1,8,0:0:0:0:
344,192,114186,1,0,0:0:0:0:
368,136,114254,1,0,0:0:0:0:
200,248,114389,5,0,0:0:0:0:
316,248,114527,1,0,0:0:0:0:
244,248,114595,1,8,0:0:0:0:
244,248,114663,1,8,0:0:0:0:
372,248,114799,1,0,0:0:0:0:
244,248,114935,5,8,0:0:0:0:
284,248,115003,1,8,0:0:0:0:
340,248,115072,1,0,0:0:0:0:
392,248,115140,1,0,0:0:0:0:
440,248,115207,5,8,0:0:0:0:
308,316,115345,1,0,0:0:0:0:
464,112,115481,6,0,B|236:112,1,190
160,132,115890,2,8,B|332:256,1,190
424,228,116299,1,0,0:0:0:0:
320,216,116435,1,0,0:0:0:0:
472,132,116571,5,0,0:0:0:0:
8,128,116844,1,8,0:0:0:0:
416,132,117117,2,0,B|308:132,1,95
168,132,117389,2,8,B|288:132,1,95
120,140,117663,5,0,0:0:0:0:
120,140,117731,1,0,0:0:0:0:
120,140,117799,1,0,0:0:0:0:
296,224,117936,2,0,B|80:224,1,190,8|0,0:0|0:0,0:0:0:0:
256,296,118481,2,0,B|388:296,1,95
184,296,118754,5,8,0:0:0:0:
184,296,118822,1,0,0:0:0:0:
184,296,118890,1,0,0:0:0:0:
328,296,119027,1,0,0:0:0:0:
488,228,119163,2,0,B|288:228,1,190,8|0,0:0|0:0,0:0:0:0:
136,232,119572,2,0,B|268:232,1,95
252,164,119777,1,0,0:0:0:0:
292,164,119845,5,8,0:0:0:0:
400,160,119981,1,0,0:0:0:0:
292,164,120117,1,0,0:0:0:0:
440,160,120254,1,0,0:0:0:0:
292,164,120390,1,8,0:0:0:0:
400,160,120527,1,0,0:0:0:0:
252,164,120663,1,0,0:0:0:0:
120,168,120799,1,0,0:0:0:0:
252,164,120936,5,8,0:0:0:0:
292,164,121004,1,0,0:0:0:0:
336,168,121072,1,0,0:0:0:0:
180,88,121208,1,8,0:0:0:0:
332,80,121345,1,0,0:0:0:0:
160,248,121481,5,8,0:0:0:0:
220,248,121549,1,0,0:0:0:0:
280,248,121617,1,8,0:0:0:0:
344,248,121686,1,0,0:0:0:0:
404,244,121754,1,8,0:0:0:0:
220,248,121890,1,8,0:0:0:0:
492,252,122026,5,4,0:0:0:0:
252,196,122435,1,0,0:0:0:0:
28,168,122844,1,0,0:0:0:0:
136,188,123117,2,0,B|204:184,1,47.5
132,188,123253,2,8,B|268:36,1,190
324,280,123662,1,0,0:0:0:0:
480,248,123935,1,10,0:0:0:0:
316,184,124208,5,0,0:0:0:0:
440,72,124480,1,0,0:0:0:0:
264,120,124753,1,8,0:0:0:0:
132,92,125026,1,0,0:0:0:0:
96,176,125162,1,0,0:0:0:0:
56,272,125299,6,0,B|245:276,1,190,0|8,0:0|0:0,0:0:0:0:
296,324,125708,2,0,B|72:332,1,190,0|8,0:0|0:0,0:0:0:0:
0,336,126117,1,0,0:0:0:0:
120,216,126389,5,12,0:0:0:0:
328,256,126798,1,0,0:0:0:0:
484,168,127207,1,0,0:0:0:0:
376,188,127480,6,0,B|308:184,1,47.5
380,188,127616,2,0,B|244:36,1,190,8|0,0:0|0:0,0:0:0:0:
188,280,128025,1,0,0:0:0:0:
32,248,128298,1,8,0:0:0:0:
104,212,128435,1,0,0:0:0:0:
196,184,128571,5,4,0:0:0:0:
72,72,128843,1,0,0:0:0:0:
180,104,128980,1,0,0:0:0:0:
288,120,129116,1,0,0:0:0:0:
376,128,129253,1,0,0:0:0:0:
480,112,129389,1,8,0:0:0:0:
280,224,129662,5,4,0:0:0:0:
152,248,129799,1,0,0:0:0:0:
40,240,129935,1,8,0:0:0:0:
156,176,130071,1,0,0:0:0:0:
4,332,130208,5,12,0:0:0:0:
56,336,130276,1,0,0:0:0:0:
108,344,130344,1,0,0:0:0:0:
160,348,130412,1,0,0:0:0:0:
196,352,130480,1,8,0:0:0:0:
248,356,130548,1,0,0:0:0:0:
300,364,130616,1,8,0:0:0:0:
348,360,130685,1,0,0:0:0:0:
404,356,130753,6,0,B|520:340,2,95
144,144,131299,2,0,B|324:204,1,190,8|0,0:0|0:0,0:0:0:0:
432,236,131708,2,0,B|251:296,1,190
376,104,132117,2,0,B|476:104,1,95,8|0,0:0|0:0,0:0:0:0:
376,104,132389,2,0,B|176:96,1,190,8|0,0:0|0:0,0:0:0:0:
64,184,132799,1,0,0:0:0:0:
160,364,132935,6,0,B|44:348,2,95
320,136,133480,2,0,B|139:196,1,190,8|0,0:0|0:0,0:0:0:0:
44,208,133889,2,0,B|224:268,1,190
184,132,134298,2,0,B|84:132,1,95
236,80,134571,1,8,0:0:0:0:
52,140,134844,6,0,B|152:136,1,95
16,220,135117,1,0,0:0:0:0:
232,196,135389,1,0,0:0:0:0:
28,288,135662,2,0,B|204:212,1,190,8|0,0:0|0:0,0:0:0:0:
92,192,136071,1,0,0:0:0:0:
356,180,136344,1,0,0:0:0:0:
484,288,136480,2,0,B|308:212,1,190,8|0,0:0|0:0,0:0:0:0:
412,84,137026,1,0,0:0:0:0:
208,68,137299,6,0,B|320:68,1,95
144,72,137571,2,0,B|144:188,1,95,0|8,0:0|0:0,0:0:0:0:
316,160,137844,1,0,0:0:0:0:
144,168,138117,1,8,0:0:0:0:
304,68,138389,6,0,B|192:68,1,95
364,68,138662,1,8,0:0:0:0:
212,164,138799,2,0,B|428:164,1,190
472,164,139208,1,8,0:0:0:0:
352,364,139480,6,0,B|468:348,2,95
212,320,139889,1,0,0:0:0:0:
72,124,140026,2,0,B|252:184,1,190,8|0,0:0|0:0,0:0:0:0:
372,208,140435,2,0,B|191:268,1,190
376,104,140844,2,0,B|476:104,1,95,8|0,0:0|0:0,0:0:0:0:
336,104,141116,2,0,B|136:96,1,190,8|0,0:0|0:0,0:0:0:0:
16,212,141526,1,0,0:0:0:0:
160,364,141662,6,0,B|44:348,2,95
296,288,142071,1,0,0:0:0:0:
440,124,142207,2,0,B|259:184,1,190,8|0,0:0|0:0,0:0:0:0:
140,208,142617,2,0,B|320:268,1,190
232,128,143025,2,0,B|132:128,1,95,8|0,0:0|0:0,0:0:0:0:
308,124,143298,1,8,0:0:0:0:
188,64,143435,1,0,0:0:0:0:
52,140,143571,6,0,B|152:136,1,95
16,220,143844,1,0,0:0:0:0:
320,224,144116,1,0,0:0:0:0:
48,276,144389,2,0,B|224:200,1,190,8|0,0:0|0:0,0:0:0:0:
104,180,144798,1,0,0:0:0:0:
336,164,145071,1,0,0:0:0:0:
464,276,145207,2,0,B|288:200,1,190,0|8,0:0|0:0,0:0:0:0:
468,84,145753,1,0,0:0:0:0:
208,68,146026,6,0,B|320:68,1,95
132,68,146298,2,0,B|132:184,1,95,8|0,0:0|0:0,0:0:0:0:
316,160,146571,1,0,0:0:0:0:
208,160,146708,1,0,0:0:0:0:
72,156,146844,1,8,0:0:0:0:
209,68,146980,1,0,0:0:0:0:
304,68,147116,6,0,B|192:68,1,95
380,68,147389,1,8,0:0:0:0:
360,160,147526,1,0,0:0:0:0:
208,68,147662,2,0,B|320:68,1,95
132,68,147935,1,8,0:0:0:0:
32,104,148072,1,0,0:0:0:0:
88,196,148208,6,0,B|276:196,1,190,4|0,0:0|0:0,0:0:0:0:
184,260,148617,1,0,0:0:0:0:
84,320,148754,2,0,B|148:320,3,47.5,8|0|0|0,0:0|0:0|0:0|0:0,0:0:0:0:
88,256,149026,2,0,B|304:256,1,190
228,184,149435,5,0,0:0:0:0:
348,156,149572,1,0,0:0:0:0:
192,120,149708,1,0,0:0:0:0:
368,96,149844,2,0,B|344:136,3,47.5,8|0|0|0,0:0|0:0|0:0|0:0,0:0:0:0:
416,96,150117,2,0,B|368:96,3,47.5,8|0|0|0,0:0|0:0|0:0|0:0,0:0:0:0:
424,196,150390,6,0,B|236:196,1,190
328,260,150799,1,0,0:0:0:0:
428,320,150936,2,0,B|364:320,3,47.5,8|0|0|0,0:0|0:0|0:0|0:0,0:0:0:0:
424,256,151208,2,0,B|208:256,1,190
284,184,151617,5,0,0:0:0:0:
164,156,151754,1,0,0:0:0:0:
320,120,151890,1,0,0:0:0:0:
144,96,152026,2,0,B|168:136,3,47.5,8|0|0|0,0:0|0:0|0:0|0:0,0:0:0:0:
96,96,152299,2,0,B|144:96,3,47.5,8|0|0|0,0:0|0:0|0:0|0:0,0:0:0:0:
44,96,152572,6,0,B|260:96,1,190
368,120,152981,1,0,0:0:0:0:
444,232,153117,1,8,0:0:0:0:
288,276,153254,1,0,0:0:0:0:
396,296,153390,1,0,0:0:0:0:
312,296,153526,1,0,0:0:0:0:
484,296,153663,5,8,0:0:0:0:
384,200,153799,1,0,0:0:0:0:
252,144,153935,1,0,0:0:0:0:
72,308,154072,2,0,B|264:288,1,190,8|0,0:0|0:0,0:0:0:0:
344,236,154481,1,0,0:0:0:0:
452,176,154617,1,0,0:0:0:0:
340,112,154754,6,0,B|340:212,1,95,8|0,0:0|0:0,0:0:0:0:
180,156,155026,2,0,B|270:124,1,95
104,200,155299,2,0,B|14:169,1,95,8|0,0:0|0:0,0:0:0:0:
200,232,155572,2,0,B|295:232,1,95
376,236,155844,6,0,B|432:236,3,47.5,8|0|0|0,0:0|0:0|0:0|0:0,0:0:0:0:
312,240,156117,2,0,B|376:236,3,47.5
264,240,156390,1,8,0:0:0:0:
224,244,156458,1,0,0:0:0:0:
160,248,156526,1,0,0:0:0:0:
88,252,156594,1,0,0:0:0:0:
8,260,156663,1,8,0:0:0:0:
72,188,156731,1,0,0:0:0:0:
152,168,156799,1,0,0:0:0:0:
208,164,156867,1,0,0:0:0:0:
240,164,156935,6,0,B|364:160,2,95
192,172,157481,2,0,B|68:168,3,95,8|0|0|0,0:0|0:0|0:0|0:0,0:0:0:0:
192,248,158026,2,0,B|320:248,1,95
428,248,158299,2,0,B|320:248,1,95
484,252,158571,1,8,0:0:0:0:
484,157,158707,2,0,B|292:156,1,190
128,160,159117,6,0,B|344:200,1,190
180,120,159526,2,0,B|76:120,1,95,0|8,0:0|0:0,0:0:0:0:
176,64,159799,2,0,B|364:112,1,190,0|0,0:0|0:0,0:0:0:0:
484,132,160208,2,0,B|488:252,1,95
352,168,160481,2,0,B|432:236,1,95
256,224,160754,2,0,B|376:240,1,95,8|0,0:0|0:0,0:0:0:0:
168,308,161026,1,8,0:0:0:0:
404,320,161163,1,8,0:0:0:0:
296,272,161299,6,0,B|520:268,1,190
244,200,161844,2,0,B|140:200,2,95,8|0|0,0:0|0:0|0:0,0:0:0:0:
444,192,162390,2,0,B|320:136,1,95
204,216,162663,2,0,B|300:160,1,95
132,232,162935,2,0,B|32:280,1,95,8|0,0:0|0:0,0:0:0:0:
208,308,163208,2,0,B|400:312,1,190
488,264,163617,5,0,0:0:0:0:
400,204,163754,1,0,0:0:0:0:
284,168,163890,1,0,0:0:0:0:
160,144,164026,2,0,B|72:208,1,95,8|0,0:0|0:0,0:0:0:0:
244,144,164299,2,0,B|336:192,1,95
444,208,164572,6,0,B|384:208,3,47.5
352,208,164844,2,0,B|292:208,3,47.5
248,212,165117,5,8,0:0:0:0:
188,224,165185,1,0,0:0:0:0:
120,224,165254,1,0,0:0:0:0:
56,224,165322,1,0,0:0:0:0:
120,160,165390,1,8,0:0:0:0:
200,156,165458,1,0,0:0:0:0:
292,156,165526,1,0,0:0:0:0:
392,152,165663,6,0,B|392:44,1,95,6|0,0:0|0:0,0:0:0:0:
240,80,165935,6,0,B|307:148,1,95
104,156,166208,2,0,B|207:168,1,95,8|0,0:0|0:0,0:0:0:0:
28,204,166481,1,8,0:0:0:0:
244,248,166617,2,2,B|128:244,1,95,8|0,0:0|0:0,0:0:0:0:
312,240,166890,6,0,B|232:172,1,95,8|0,0:0|0:0,0:0:0:0:
376,184,167163,1,8,0:0:0:0:
156,136,167299,1,8,0:0:0:0:
252,132,167435,1,0,0:0:0:0:
320,136,167504,1,0,0:0:0:0:
392,128,167572,1,0,0:0:0:0:
348,92,167640,1,0,0:0:0:0:
288,56,167708,1,0,0:0:0:0:
352,40,167776,1,0,0:0:0:0:
392,152,167844,6,0,B|392:44,1,95,2|0,0:0|0:0,0:0:0:0:
240,80,168116,6,0,B|307:148,1,95
104,156,168389,2,0,B|207:168,1,95,8|0,0:0|0:0,0:0:0:0:
28,204,168662,1,8,0:0:0:0:
244,248,168798,2,0,B|128:244,1,95,8|0,0:0|0:0,0:0:0:0:
312,240,169071,6,0,B|232:172,1,95,8|0,0:0|0:0,0:0:0:0:
376,184,169344,1,8,0:0:0:0:
156,136,169480,1,8,0:0:0:0:
296,144,169616,1,0,0:0:0:0:
352,136,169685,1,0,0:0:0:0:
416,128,169753,1,0,0:0:0:0:
352,92,169822,1,0,0:0:0:0:
288,56,169889,1,0,0:0:0:0:
220,48,169957,1,0,0:0:0:0:
176,88,170026,6,0,B|60:136,2,95
416,84,170571,1,2,0:0:0:0:
248,64,170708,1,0,0:0:0:0:
416,84,170844,1,0,0:0:0:0:
60,224,171117,2,0,B|164:196,1,95
312,228,171390,2,0,B|208:192,1,95
384,232,171663,2,8,B|492:152,3,95,8|0|8|0,0:0|0:0|0:0|0:0,0:0:0:0:
304,300,172208,6,0,B|416:300,1,95,2|0,0:0|0:0,0:0:0:0:
224,240,172481,2,0,B|328:240,1,95
164,240,172754,2,0,B|64:240,1,95,8|0,0:0|0:0,0:0:0:0:
200,184,173026,1,0,0:0:0:0:
332,144,173163,1,0,0:0:0:0:
448,80,173299,6,0,B|500:84,3,47.5
396,76,173572,6,0,B|448:80,3,47.5
348,76,173844,5,2,0:0:0:0:
292,92,173913,1,0,0:0:0:0:
228,120,173981,1,0,0:0:0:0:
160,160,174049,1,0,0:0:0:0:
232,212,174117,1,8,0:0:0:0:
320,252,174185,1,0,0:0:0:0:
392,296,174254,1,8,0:0:0:0:
340,328,174322,1,0,0:0:0:0:
284,332,174390,6,0,B|152:332,2,95
64,332,174935,2,0,B|196:332,2,95,8|0|0,0:0|0:0|0:0,0:0:0:0:
164,272,175344,1,0,0:0:0:0:
304,332,175481,2,0,B|172:332,1,95
304,264,175754,2,0,B|516:264,1,190,0|2,0:0|0:0,0:0:0:0:
396,184,176163,1,0,0:0:0:0:
224,140,176299,1,0,0:0:0:0:
332,116,176435,1,0,0:0:0:0:
152,328,176572,6,0,B|284:328,2,95,8|0|0,0:0|0:0|0:0,0:0:0:0:
448,332,177117,2,0,B|316:332,2,95,2|0|0,0:0|0:0|0:0,0:0:0:0:
348,272,177526,1,0,0:0:0:0:
208,332,177663,2,0,B|340:332,1,95,8|0,0:0|0:0,0:0:0:0:
208,264,177935,2,0,B|-4:264,1,190
116,184,178345,1,0,0:0:0:0:
224,144,178481,1,0,0:0:0:0:
340,104,178617,1,0,0:0:0:0:
464,180,178754,6,0,B|352:180,2,95,2|0|0,0:0|0:0|0:0,0:0:0:0:
368,260,179163,1,8,0:0:0:0:
224,176,179299,2,0,B|336:176,2,95
320,260,179708,1,8,0:0:0:0:
160,268,179844,6,0,B|255:264,1,95,2|0,0:0|0:0,0:0:0:0:
104,188,180117,2,0,B|208:192,1,95,0|8,0:0|0:0,0:0:0:0:
40,136,180390,1,2,0:0:0:0:
184,88,180526,1,0,0:0:0:0:
344,80,180663,1,0,0:0:0:0:
280,192,180799,1,8,0:0:0:0:
480,208,180935,6,0,B|68:208,1,380,6|0,0:0|0:0,0:0:0:0:
304,296,181754,1,0,0:0:0:0:
176,296,181890,1,8,0:0:0:0:
48,296,182026,2,0,B|172:296,1,95
292,296,182299,2,0,B|176:292,1,95,0|8,0:0|0:0,0:0:0:0:
380,300,182572,2,0,B|464:200,1,95
328,176,182844,5,8,0:0:0:0:
260,200,182913,1,0,0:0:0:0:
212,240,182981,1,0,0:0:0:0:
152,268,183049,1,0,0:0:0:0:
112,152,183117,6,0,B|-8:152,1,95,2|0,0:0|0:0,0:0:0:0:
264,64,183390,2,0,B|176:152,1,95,8|0,0:0|0:0,0:0:0:0:
384,128,183662,2,0,B|352:224,1,95,8|0,0:0|0:0,0:0:0:0:
484,204,183935,1,8,0:0:0:0:
348,296,184071,2,0,B|404:204,1,95,8|0,0:0|0:0,0:0:0:0:
240,248,184344,6,0,B|340:208,1,95,8|0,0:0|0:0,0:0:0:0:
184,188,184617,1,8,0:0:0:0:
360,152,184753,1,8,0:0:0:0:
280,100,184889,1,0,0:0:0:0:
208,84,184958,1,0,0:0:0:0:
140,68,185026,1,0,0:0:0:0:
76,64,185094,1,0,0:0:0:0:
16,84,185162,1,0,0:0:0:0:
80,64,185230,1,0,0:0:0:0:
140,64,185299,6,0,B|76:156,1,95,2|0,0:0|0:0,0:0:0:0:
264,64,185571,2,0,B|176:152,1,95,8|0,0:0|0:0,0:0:0:0:
384,128,185844,2,0,B|272:128,1,95,8|0,0:0|0:0,0:0:0:0:
484,204,186117,1,8,0:0:0:0:
328,296,186253,2,0,B|448:296,1,95,8|0,0:0|0:0,0:0:0:0:
244,252,186526,6,0,B|344:212,1,95,8|0,0:0|0:0,0:0:0:0:
184,188,186799,1,8,0:0:0:0:
288,140,186935,1,8,0:0:0:0:
212,96,187071,1,0,0:0:0:0:
156,84,187140,1,0,0:0:0:0:
212,96,187208,1,0,0:0:0:0:
264,100,187276,1,0,0:0:0:0:
328,100,187344,1,0,0:0:0:0:
376,88,187413,1,0,0:0:0:0:
416,52,187481,2,0,B|556:52,2,95
168,96,188025,1,2,0:0:0:0:
336,76,188162,1,0,0:0:0:0:
168,96,188298,1,0,0:0:0:0:
452,224,188571,2,0,B|348:196,1,95
200,228,188844,2,0,B|304:192,1,95
128,232,189117,2,0,B|20:152,2,95,2|0|0,0:0|0:0|0:0,0:0:0:0:
248,300,189663,6,0,B|144:280,1,95
288,240,189935,2,0,B|216:168,1,95,8|0,0:0|0:0,0:0:0:0:
348,240,190208,2,0,B|428:172,1,95
312,184,190480,1,8,0:0:0:0:
180,144,190617,1,0,0:0:0:0:
64,80,190753,6,0,B|12:84,3,47.5
116,76,191026,6,0,B|64:80,3,47.5
164,76,191298,5,2,0:0:0:0:
220,88,191367,1,0,0:0:0:0:
284,120,191435,1,0,0:0:0:0:
352,160,191503,1,0,0:0:0:0:
280,212,191571,1,8,0:0:0:0:
196,256,191639,1,0,0:0:0:0:
120,296,191708,1,8,0:0:0:0:
172,328,191776,1,0,0:0:0:0:
224,332,191844,6,0,B|356:332,2,95
448,332,192389,2,0,B|316:332,2,95,8|0|0,0:0|0:0|0:0,0:0:0:0:
348,272,192798,1,0,0:0:0:0:
208,332,192935,2,0,B|340:332,1,95
208,264,193208,2,0,B|-4:264,1,190,0|8,0:0|0:0,0:0:0:0:
116,184,193617,1,0,0:0:0:0:
288,140,193753,1,0,0:0:0:0:
180,116,193889,1,0,0:0:0:0:
360,328,194026,6,0,B|228:328,2,95
64,332,194572,2,0,B|196:332,2,95,8|0|0,0:0|0:0|0:0,0:0:0:0:
164,272,194980,1,0,0:0:0:0:
304,332,195117,2,0,B|172:332,1,95
304,264,195389,2,0,B|516:264,1,190,0|8,0:0|0:0,0:0:0:0:
396,184,195799,1,0,0:0:0:0:
288,144,195935,1,0,0:0:0:0:
172,104,196071,1,0,0:0:0:0:
48,180,196208,6,0,B|160:180,2,95
144,260,196617,1,8,0:0:0:0:
288,176,196753,2,0,B|176:176,2,95
192,260,197162,1,8,0:0:0:0:
352,268,197298,6,0,B|257:264,1,95
408,188,197571,2,0,B|304:192,1,95,0|8,0:0|0:0,0:0:0:0:
472,136,197844,1,0,0:0:0:0:
328,88,197980,1,0,0:0:0:0:
168,80,198117,1,0,0:0:0:0:
232,192,198253,1,8,0:0:0:0:
36,252,198390,5,0,0:0:0:0:
136,256,198526,1,0,0:0:0:0:
236,256,198663,1,0,0:0:0:0:
336,252,198799,1,8,0:0:0:0:
436,252,198935,5,0,0:0:0:0:
408,200,199004,1,0,0:0:0:0:
360,200,199072,1,8,0:0:0:0:
316,200,199140,1,0,0:0:0:0:
264,200,199208,5,0,0:0:0:0:
308,152,199276,1,0,0:0:0:0:
364,128,199344,1,8,0:0:0:0:
420,156,199413,1,0,0:0:0:0:
464,296,199480,6,0,B|340:296,1,95
220,296,199753,2,0,B|336:292,1,95,8|0,0:0|0:0,0:0:0:0:
132,300,200026,2,0,B|136:172,1,95
312,196,200299,5,8,0:0:0:0:
236,192,200367,1,0,0:0:0:0:
160,196,200435,1,8,0:0:0:0:
88,200,200504,1,0,0:0:0:0:
16,204,200571,1,0,0:0:0:0:
256,192,200844,12,0,201117,0:0:0:0:
232,104,201389,6,0,B|96:128,1,95,0|8,0:0|0:0,0:0:0:0:
300,100,201662,5,0,0:0:0:0:
136,128,201798,2,0,B|364:172,1,190,8|0,0:0|0:0,0:0:0:0:
176,232,202208,2,0,B|292:252,1,95
404,236,202480,2,8,B|300:264,1,95
456,168,202753,2,0,L|448:56,1,95
280,176,203026,2,0,L|372:120,1,95
192,96,203298,6,0,B|56:120,1,95
248,88,203572,5,0,0:0:0:0:
360,136,203708,1,8,0:0:0:0:
244,188,203844,5,0,0:0:0:0:
120,148,203980,1,0,0:0:0:0:
248,256,204117,1,0,0:0:0:0:
68,176,204253,1,8,0:0:0:0:
244,188,204389,5,0,0:0:0:0:
368,144,204525,1,0,0:0:0:0:
248,256,204662,1,8,0:0:0:0:
328,224,204730,1,0,0:0:0:0:
408,184,204798,1,0,0:0:0:0:
328,152,204867,1,0,0:0:0:0:
248,120,204935,1,8,0:0:0:0:
256,192,205139,12,0,205548,0:0:0:0:
288,36,205753,6,0,B|416:36,1,95
484,112,206026,2,0,B|360:112,1,95,0|8,0:0|0:0,0:0:0:0:
212,116,206299,2,0,B|336:116,1,95
124,120,206571,2,0,B|0:120,1,95
260,184,206844,2,0,B|260:312,1,95,0|8,0:0|0:0,0:0:0:0:
48,216,207117,1,6,0:0:0:0:
