osu file format v14

[General]
AudioFilename: Uroboros_9236.mp3
AudioLeadIn: 3000
PreviewTime: 52210
Countdown: 0
SampleSet: None
StackLeniency: 0.7
Mode: 2
LetterboxInBreaks: 0
EpilepsyWarning: 1
WidescreenStoryboard: 0

[Editor]
Bookmarks: 2301,17301,26028,34755,43482,52210,69664,87119,95846,104573,113301,122028,130755,139482,148210,156937,165664,183119,200573,208210
DistanceSpacing: 0.8
BeatDivisor: 4
GridSize: 4
TimelineZoom: 1.8

[Metadata]
Title:Uroboros 9236
TitleUnicode:Uroboros 9236
Artist:Mabinogi
ArtistUnicode:Mabinogi
Creator:ZHSteven
Version:CWC memories
Source:
Tags:Mabinogi 2012 G11 boss Firce777 blah
BeatmapID:1280035
BeatmapSetID:141759

[Difficulty]
HPDrainRate:6
CircleSize:4
OverallDifficulty:8
ApproachRate:9
SliderMultiplier:1.9
SliderTickRate:1

[Events]
//Background and Video events
0,0,"485623.jpg",0,0
//Break Periods
//Storyboard Layer 0 (Background)
//Storyboard Layer 1 (Fail)
//Storyboard Layer 2 (Pass)
//Storyboard Layer 3 (Foreground)
//Storyboard Sound Samples

[TimingPoints]
2317,400,4,2,0,60,1,0
15117,272.727272727273,4,1,0,60,1,0
27867,-66.6666666666667,4,1,0,60,0,0
28207,-100,4,1,0,60,0,0
29980,-66.6666666666667,4,1,0,60,0,0
30389,-100,4,1,0,60,0,0
34753,-100,4,1,0,60,0,0
52207,-100,4,1,0,60,0,1
87117,-100,4,1,0,60,0,0
121957,-100,4,2,0,60,0,0
130753,-100,4,1,0,60,0,0
165662,-100,4,1,0,60,0,1
200571,-100,4,1,0,60,0,0
347776,-100,4,1,0,60,0,0

[HitObjects]
256,192,1517,12,0,2117,0:0:0:0:
184,96,2317,5,0,0:0:0:0:
328,96,2717,1,0,0:0:0:0:
40,96,3117,1,4,0:0:0:0:
280,180,3517,6,0,B|192:180,3,63.3333333333333,2|2|0|8,0:0|0:0|0:0|0:0,0:0:0:0:
404,104,4317,1,0,0:0:0:0:
96,96,4717,1,4,0:0:0:0:
204,104,5117,5,0,0:0:0:0:
96,160,5250,1,0,0:0:0:0:
0,232,5383,1,0,0:0:0:0:
112,272,5517,1,0,0:0:0:0:
288,268,5917,1,0,0:0:0:0:
468,180,6317,1,0,0:0:0:0:
328,192,6717,1,0,0:0:0:0:
220,160,6850,5,0,0:0:0:0:
280,120,6983,1,2,0:0:0:0:
180,64,7117,1,8,0:0:0:0:
388,76,7517,1,0,0:0:0:0:
212,160,7917,1,4,0:0:0:0:
144,272,8217,1,0,0:0:0:0:
320,232,8517,1,0,0:0:0:0:
56,192,8717,1,0,0:0:0:0:
245,175,9117,1,0,0:0:0:0:
112,184,9517,1,0,0:0:0:0:
380,112,9917,1,2,0:0:0:0:
312,160,10050,1,0,0:0:0:0:
176,192,10183,1,0,0:0:0:0:
24,96,10317,1,0,0:0:0:0:
192,192,10717,1,0,0:0:0:0:
344,96,11117,1,0,0:0:0:0:
48,112,11517,1,2,0:0:0:0:
200,188,11650,1,0,0:0:0:0:
288,224,11783,1,0,0:0:0:0:
204,92,11917,1,0,0:0:0:0:
388,168,12317,1,0,0:0:0:0:
264,216,12717,1,0,0:0:0:0:
384,240,13117,2,0,B|320:240,2,63.3333333333333,2|0|2,0:0|0:0|0:0,0:0:0:0:
180,228,13517,1,0,0:0:0:0:
336,144,13917,1,0,0:0:0:0:
104,144,14317,2,0,B|100:220,1,63.3333333333333,4|0,0:0|0:0,0:0:0:0:
208,132,14583,2,2,B|140:132,1,63.3333333333333
172,200,14850,2,0,B|264:200,1,63.3333333333333
48,224,15117,1,0,0:0:0:0:
184,240,17298,5,4,0:0:0:0:
16,236,17570,1,0,0:0:0:0:
256,240,17844,1,8,0:0:0:0:
88,240,18116,1,0,0:0:0:0:
324,240,18388,5,0,0:0:0:0:
156,240,18661,1,0,0:0:0:0:
396,240,18934,1,8,0:0:0:0:
256,240,19207,1,0,0:0:0:0:
356,204,19343,1,0,0:0:0:0:
444,144,19479,5,4,0:0:0:0:
200,136,19752,1,0,0:0:0:0:
368,144,20025,1,8,0:0:0:0:
132,140,20297,1,0,0:0:0:0:
296,144,20570,5,0,0:0:0:0:
60,140,20843,1,0,0:0:0:0:
224,144,21116,1,8,0:0:0:0:
28,240,21388,1,0,0:0:0:0:
136,240,21525,1,0,0:0:0:0:
236,236,21662,6,0,B|32:236,1,190,4|0,0:0|0:0,0:0:0:0:
280,312,22207,2,0,B|76:312,1,190,8|0,0:0|0:0,0:0:0:0:
224,156,22753,2,0,B|414:156,1,190
168,96,23298,2,0,B|364:96,1,190,8|0,0:0|0:0,0:0:0:0:
296,192,23707,1,0,0:0:0:0:
424,284,23844,2,0,B|348:224,2,95,4|0|0,0:0|0:0|0:0,0:0:0:0:
188,208,24388,1,8,0:0:0:0:
280,168,24525,1,0,0:0:0:0:
368,128,24661,1,0,0:0:0:0:
128,284,24934,6,0,B|192:212,1,95
316,228,25207,2,0,B|240:164,1,95,8|0,0:0|0:0,0:0:0:0:
352,228,25480,2,0,B|288:228,3,47.5
356,308,25753,2,0,B|420:308,3,47.5,8|0|0|0,0:0|0:0|0:0|0:0,0:0:0:0:
468,308,26025,6,0,B|268:308,1,190
80,108,26571,2,0,B|156:188,2,95,8|0|0,0:0|0:0|0:0,0:0:0:0:
364,104,27116,6,0,B|364:220,1,95
236,192,27389,2,0,B|320:96,1,95
208,180,27662,2,0,B|104:180,1,95,8|0,0:0|0:0,0:0:0:0:
24,176,27934,2,0,B|324:176,1,285.000010871888
196,104,28479,5,0,0:0:0:0:
432,108,28753,2,0,B|352:32,2,95,8|0|0,0:0|0:0|0:0,0:0:0:0:
141,194,29298,6,0,B|144:100,1,95
272,116,29570,2,0,B|214:191,1,95
296,112,29844,2,0,B|400:112,1,95,8|0,0:0|0:0,0:0:0:0:
304,244,30117,1,0,0:0:0:0:
48,232,30389,1,0,0:0:0:0:
300,128,30662,6,0,B|420:128,1,95
264,188,30934,2,0,B|164:100,2,95,8|0|0,0:0|0:0|0:0,0:0:0:0:
376,304,31344,2,0,B|216:148,1,190
120,304,31753,2,0,B|196:236,2,95,0|0|8,0:0|0:0|0:0,0:0:0:0:
248,196,32161,1,0,0:0:0:0:
132,156,32298,1,0,0:0:0:0:
296,80,32434,1,0,0:0:0:0:
204,72,32571,6,0,B|412:136,1,190,4|0,0:0|0:0,0:0:0:0:
504,192,32979,1,0,0:0:0:0:
404,272,33116,2,0,B|332:192,2,95,8|0|0,0:0|0:0|0:0,0:0:0:0:
248,276,33525,1,0,0:0:0:0:
344,276,33661,2,0,B|280:196,1,95,8|0,0:0|0:0,0:0:0:0:
152,196,33934,6,0,B|216:112,1,95,0|0,0:0|0:0,0:0:0:0:
328,120,34207,2,0,B|264:120,3,47.5,8|0|0|0,0:0|0:0|0:0|0:0,0:0:0:0:
376,120,34480,2,0,B|312:120,3,47.5
424,196,34753,6,0,B|236:196,1,190,4|0,0:0|0:0,0:0:0:0:
328,260,35161,1,0,0:0:0:0:
428,320,35298,2,0,B|364:320,3,47.5,8|0|0|0,0:0|0:0|0:0|0:0,0:0:0:0:
424,256,35571,2,0,B|208:256,1,190
284,184,35979,5,0,0:0:0:0:
164,156,36116,1,0,0:0:0:0:
284,116,36252,1,0,0:0:0:0:
144,96,36389,2,0,B|168:136,3,47.5,8|0|0|0,0:0|0:0|0:0|0:0,0:0:0:0:
96,96,36662,2,0,B|144:96,3,47.5,8|0|0|0,0:0|0:0|0:0|0:0,0:0:0:0:
88,196,36934,6,0,B|276:196,1,190
184,260,37343,1,0,0:0:0:0:
84,320,37480,2,0,B|148:320,3,47.5,8|0|0|0,0:0|0:0|0:0|0:0,0:0:0:0:
88,256,37753,2,0,B|304:256,1,190
228,184,38161,5,0,0:0:0:0:
348,156,38298,1,0,0:0:0:0:
216,112,38434,1,0,0:0:0:0:
368,96,38571,2,0,B|344:136,3,47.5,8|0|0|0,0:0|0:0|0:0|0:0,0:0:0:0:
416,96,38843,2,0,B|368:96,3,47.5,8|0|0|0,0:0|0:0|0:0|0:0,0:0:0:0:
468,96,39116,6,0,B|252:96,1,190
144,120,39525,1,0,0:0:0:0:
68,232,39661,1,8,0:0:0:0:
224,276,39798,1,0,0:0:0:0:
116,296,39934,1,0,0:0:0:0:
200,296,40070,1,0,0:0:0:0:
28,296,40207,5,8,0:0:0:0:
152,184,40343,1,0,0:0:0:0:
248,144,40479,1,0,0:0:0:0:
404,304,40616,2,0,B|212:284,1,190,8|0,0:0|0:0,0:0:0:0:
136,232,41025,1,0,0:0:0:0:
60,176,41161,1,0,0:0:0:0:
172,112,41298,6,0,B|172:212,1,95,8|0,0:0|0:0,0:0:0:0:
308,152,41570,2,0,B|218:120,1,95
376,192,41843,2,0,B|466:161,1,95,8|0,0:0|0:0,0:0:0:0:
320,232,42116,2,0,B|248:144,1,95
176,232,42389,6,0,B|120:232,3,47.5,8|0|0|0,0:0|0:0|0:0|0:0,0:0:0:0:
232,236,42662,2,0,B|168:232,3,47.5
276,236,42934,1,8,0:0:0:0:
324,240,43002,1,0,0:0:0:0:
376,244,43070,1,0,0:0:0:0:
432,248,43138,1,0,0:0:0:0:
484,248,43207,1,8,0:0:0:0:
452,192,43275,1,0,0:0:0:0:
396,172,43343,1,0,0:0:0:0:
344,160,43411,1,0,0:0:0:0:
312,160,43480,6,0,B|188:156,2,95
400,160,44025,2,0,B|480:84,3,95,8|0|0|0,0:0|0:0|0:0|0:0,0:0:0:0:
296,244,44570,2,0,B|200:156,1,95
104,184,44844,2,0,B|44:257,1,95
144,120,45117,1,0,0:0:0:0:
64,64,45253,2,0,B|256:63,1,190
384,160,45662,6,0,B|168:200,1,190
296,136,46070,2,0,B|400:136,1,95,0|8,0:0|0:0,0:0:0:0:
336,64,46344,2,0,B|148:112,1,190
28,132,46752,2,0,B|24:252,1,95
160,168,47025,2,0,B|80:236,1,95
256,224,47298,2,0,B|136:240,1,95,8|0,0:0|0:0,0:0:0:0:
344,308,47570,1,8,0:0:0:0:
108,320,47707,1,8,0:0:0:0:
216,272,47844,6,0,B|56:100,1,190
288,160,48389,2,0,B|392:160,2,95,8|0|0,0:0|0:0|0:0,0:0:0:0:
132,208,48934,2,0,B|256:152,1,95
308,216,49207,2,0,B|212:160,1,95
336,232,49480,2,0,B|436:280,1,95,8|0,0:0|0:0,0:0:0:0:
304,308,49753,2,0,B|156:180,1,190
24,264,50161,5,0,0:0:0:0:
104,204,50298,1,0,0:0:0:0:
180,148,50434,1,0,0:0:0:0:
368,144,50570,2,0,B|456:208,1,95,8|0,0:0|0:0,0:0:0:0:
280,144,50843,2,0,B|188:192,1,95
60,208,51116,6,0,B|120:208,3,47.5
152,208,51389,2,0,B|212:208,3,47.5
256,212,51661,5,8,0:0:0:0:
312,212,51729,1,0,0:0:0:0:
380,212,51798,1,0,0:0:0:0:
436,212,51866,1,0,0:0:0:0:
360,156,51934,1,8,0:0:0:0:
292,156,52002,1,0,0:0:0:0:
212,156,52070,1,0,0:0:0:0:
128,152,52207,6,0,B|128:44,1,95,6|0,0:0|0:0,0:0:0:0:
272,80,52480,6,0,B|205:148,1,95
408,156,52752,2,0,B|305:168,1,95,8|0,0:0|0:0,0:0:0:0:
484,204,53025,1,8,0:0:0:0:
268,248,53161,2,2,B|384:244,1,95,8|0,0:0|0:0,0:0:0:0:
200,240,53434,6,0,B|280:172,1,95,8|0,0:0|0:0,0:0:0:0:
136,184,53707,1,8,0:0:0:0:
356,136,53843,1,8,0:0:0:0:
260,132,53979,1,0,0:0:0:0:
192,136,54048,1,0,0:0:0:0:
120,128,54116,1,0,0:0:0:0:
164,92,54184,1,0,0:0:0:0:
224,56,54252,1,0,0:0:0:0:
160,40,54320,1,0,0:0:0:0:
120,152,54389,6,0,B|120:44,1,95,2|0,0:0|0:0,0:0:0:0:
272,80,54662,6,0,B|205:148,1,95
408,156,54935,2,0,B|305:168,1,95,8|0,0:0|0:0,0:0:0:0:
484,204,55207,1,8,0:0:0:0:
268,248,55344,2,0,B|384:244,1,95,8|0,0:0|0:0,0:0:0:0:
200,240,55617,6,0,B|280:172,1,95,8|0,0:0|0:0,0:0:0:0:
136,184,55889,1,8,0:0:0:0:
356,136,56026,1,8,0:0:0:0:
216,144,56162,1,0,0:0:0:0:
160,136,56230,1,0,0:0:0:0:
96,128,56298,1,0,0:0:0:0:
160,92,56367,1,0,0:0:0:0:
224,56,56435,1,0,0:0:0:0:
292,48,56503,1,0,0:0:0:0:
336,88,56571,6,0,B|452:136,2,95
96,84,57117,1,2,0:0:0:0:
92,184,57253,1,0,0:0:0:0:
96,84,57389,1,0,0:0:0:0:
452,224,57662,2,0,B|348:196,1,95
200,228,57935,2,0,B|304:192,1,95
128,232,58207,2,8,B|20:152,3,95,8|0|8|0,0:0|0:0|0:0|0:0,0:0:0:0:
208,300,58753,6,0,B|96:300,1,95,2|0,0:0|0:0,0:0:0:0:
268,240,59026,2,0,B|173:240,1,95
344,240,59298,2,0,B|444:240,1,95,8|0,0:0|0:0,0:0:0:0:
312,184,59571,1,0,0:0:0:0:
180,144,59707,1,0,0:0:0:0:
64,80,59844,6,0,B|12:84,3,47.5
116,76,60117,6,0,B|64:80,3,47.5
164,76,60389,5,2,0:0:0:0:
220,92,60457,1,0,0:0:0:0:
284,120,60526,1,0,0:0:0:0:
352,160,60594,1,0,0:0:0:0:
276,212,60662,1,8,0:0:0:0:
188,256,60730,1,0,0:0:0:0:
112,300,60798,1,8,0:0:0:0:
164,320,60867,1,0,0:0:0:0:
224,328,60935,6,0,B|356:328,2,95
448,332,61480,2,0,B|316:332,2,95,8|0|0,0:0|0:0|0:0,0:0:0:0:
348,272,61889,1,0,0:0:0:0:
208,332,62026,2,0,B|340:332,1,95
208,264,62298,2,0,B|-4:264,1,190,0|2,0:0|0:0,0:0:0:0:
116,184,62707,1,0,0:0:0:0:
288,140,62844,1,0,0:0:0:0:
180,116,62980,1,0,0:0:0:0:
360,328,63117,6,0,B|228:328,2,95,8|0|0,0:0|0:0|0:0,0:0:0:0:
64,332,63662,2,0,B|196:332,2,95,2|0|0,0:0|0:0|0:0,0:0:0:0:
164,272,64071,1,0,0:0:0:0:
304,332,64207,2,0,B|172:332,1,95,8|0,0:0|0:0,0:0:0:0:
272,264,64480,2,0,B|484:264,1,190
336,180,64889,1,0,0:0:0:0:
244,136,65026,1,0,0:0:0:0:
160,104,65162,1,0,0:0:0:0:
104,184,65298,6,0,B|216:184,2,95,2|0|0,0:0|0:0|0:0,0:0:0:0:
160,248,65707,1,8,0:0:0:0:
288,176,65844,2,0,B|176:176,2,95
248,252,66253,1,8,0:0:0:0:
352,268,66389,6,0,B|257:264,1,95,2|0,0:0|0:0,0:0:0:0:
400,188,66662,2,0,B|488:256,1,95,0|8,0:0|0:0,0:0:0:0:
396,124,66935,1,2,0:0:0:0:
296,84,67071,1,0,0:0:0:0:
168,80,67207,1,0,0:0:0:0:
0,120,67344,1,8,0:0:0:0:
240,196,67480,2,0,L|240:92,4,95,0|0|0|0|0,0:0|0:0|0:0|0:0|0:0,0:0:0:0:
96,288,68298,1,0,0:0:0:0:
204,280,68435,1,8,0:0:0:0:
392,216,68571,2,0,B|268:216,1,95
220,296,68844,2,0,B|316:208,1,95,0|8,0:0|0:0,0:0:0:0:
124,300,69117,2,0,B|40:200,1,95
112,172,69389,5,8,0:0:0:0:
176,168,69457,1,0,0:0:0:0:
252,180,69526,1,0,0:0:0:0:
328,188,69594,1,0,0:0:0:0:
400,152,69662,6,0,B|520:152,1,95,2|0,0:0|0:0,0:0:0:0:
248,64,69935,2,0,B|336:152,1,95,8|0,0:0|0:0,0:0:0:0:
128,128,70207,2,0,B|160:224,1,95,8|0,0:0|0:0,0:0:0:0:
28,204,70480,1,8,0:0:0:0:
164,296,70617,2,0,B|108:204,1,95,8|0,0:0|0:0,0:0:0:0:
272,248,70889,6,0,B|172:208,1,95,8|0,0:0|0:0,0:0:0:0:
328,188,71162,1,8,0:0:0:0:
152,152,71298,1,8,0:0:0:0:
232,100,71435,1,0,0:0:0:0:
304,84,71504,1,0,0:0:0:0:
372,68,71572,1,0,0:0:0:0:
436,64,71640,1,0,0:0:0:0:
496,84,71708,1,0,0:0:0:0:
432,64,71776,1,0,0:0:0:0:
372,64,71844,6,0,B|436:156,1,95,2|0,0:0|0:0,0:0:0:0:
248,64,72117,2,0,B|336:152,1,95,8|0,0:0|0:0,0:0:0:0:
128,128,72389,2,0,B|240:128,1,95,8|0,0:0|0:0,0:0:0:0:
28,204,72662,1,8,0:0:0:0:
184,296,72798,2,0,B|64:296,1,95,8|0,0:0|0:0,0:0:0:0:
268,252,73071,6,0,B|168:212,1,95,8|0,0:0|0:0,0:0:0:0:
328,188,73344,1,8,0:0:0:0:
224,140,73480,1,8,0:0:0:0:
300,96,73617,1,0,0:0:0:0:
356,84,73685,1,0,0:0:0:0:
300,96,73753,1,0,0:0:0:0:
248,100,73821,1,0,0:0:0:0:
184,100,73889,1,0,0:0:0:0:
136,88,73957,1,0,0:0:0:0:
96,52,74026,2,0,B|-44:52,2,95
344,96,74571,1,2,0:0:0:0:
344,96,74707,1,0,0:0:0:0:
344,96,74844,1,0,0:0:0:0:
112,224,75117,2,0,B|180:140,1,95
288,228,75390,2,0,B|220:152,1,95
356,232,75663,2,0,B|436:136,2,95,2|0|0,0:0|0:0|0:0,0:0:0:0:
192,300,76207,6,0,B|108:216,1,95
244,216,76480,2,0,B|316:144,1,95,8|0,0:0|0:0,0:0:0:0:
124,220,76753,2,0,B|44:152,1,95
264,192,77026,1,8,0:0:0:0:
336,108,77162,1,0,0:0:0:0:
448,80,77298,6,0,B|500:84,3,47.5
396,76,77571,6,0,B|448:80,3,47.5
348,76,77844,5,2,0:0:0:0:
292,88,77912,1,0,0:0:0:0:
228,120,77980,1,0,0:0:0:0:
160,160,78048,1,0,0:0:0:0:
232,212,78117,1,8,0:0:0:0:
312,252,78185,1,0,0:0:0:0:
404,280,78253,1,8,0:0:0:0:
332,324,78321,1,0,0:0:0:0:
256,324,78389,6,0,B|184:232,2,95
48,320,78935,2,0,B|128:232,2,95,8|0|0,0:0|0:0|0:0,0:0:0:0:
156,324,79344,1,0,0:0:0:0:
264,324,79480,2,0,B|180:212,1,95
288,244,79753,2,0,B|500:244,1,190,0|8,0:0|0:0,0:0:0:0:
396,184,80162,1,0,0:0:0:0:
224,140,80298,1,0,0:0:0:0:
332,116,80435,1,0,0:0:0:0:
152,328,80571,6,0,B|72:256,2,95
340,324,81117,2,0,B|208:324,2,95,8|0|0,0:0|0:0|0:0,0:0:0:0:
132,160,81662,2,0,B|264:160,1,95
288,264,81935,2,0,B|76:264,1,190,0|8,0:0|0:0,0:0:0:0:
192,140,82344,1,0,0:0:0:0:
304,96,82480,1,0,0:0:0:0:
392,120,82617,1,0,0:0:0:0:
464,180,82753,6,0,B|376:128,2,95
420,244,83162,1,8,0:0:0:0:
272,192,83298,2,0,B|352:128,2,95
328,252,83707,1,8,0:0:0:0:
164,268,83844,6,0,B|256:208,1,95
104,188,84117,2,0,B|188:120,1,95,0|8,0:0|0:0,0:0:0:0:
40,136,84389,1,0,0:0:0:0:
208,72,84526,1,0,0:0:0:0:
140,224,84662,1,0,0:0:0:0:
280,192,84798,1,8,0:0:0:0:
476,252,84935,5,0,0:0:0:0:
376,256,85071,1,0,0:0:0:0:
276,256,85207,1,0,0:0:0:0:
176,252,85344,1,8,0:0:0:0:
76,252,85480,5,0,0:0:0:0:
104,200,85548,1,0,0:0:0:0:
152,200,85617,1,8,0:0:0:0:
196,200,85685,1,0,0:0:0:0:
248,200,85753,5,0,0:0:0:0:
204,152,85821,1,0,0:0:0:0:
148,128,85889,1,8,0:0:0:0:
92,156,85957,1,0,0:0:0:0:
48,296,86026,6,0,B|136:220,1,95
240,296,86298,2,0,B|160:220,1,95
328,296,86571,2,0,B|324:168,1,95
200,196,86844,1,8,0:0:0:0:
276,192,86912,1,0,0:0:0:0:
352,196,86980,1,8,0:0:0:0:
424,200,87048,1,0,0:0:0:0:
492,132,87117,6,0,B|380:132,1,95,0|0,0:0|0:0,0:0:0:0:
264,132,87389,2,0,B|376:132,2,95,8|0|0,0:0|0:0|0:0,0:0:0:0:
380,80,87798,1,0,0:0:0:0:
232,84,87934,1,8,0:0:0:0:
208,32,88002,1,0,0:0:0:0:
188,84,88070,1,0,0:0:0:0:
372,248,88207,6,0,B|260:248,1,95,0|0,0:0|0:0,0:0:0:0:
144,248,88480,2,0,B|256:248,2,95,8|0|0,0:0|0:0|0:0,0:0:0:0:
260,196,88889,1,0,0:0:0:0:
112,200,89025,1,8,0:0:0:0:
88,148,89093,1,0,0:0:0:0:
68,200,89161,1,0,0:0:0:0:
256,312,89298,6,2,B|48:308,1,190,2|2,0:0|0:0,0:0:0:0:
204,256,89707,2,2,B|412:252,1,190
256,196,90116,2,2,B|260:92,1,95
436,180,90389,2,0,B|336:180,2,95,8|0|0,0:0|0:0|0:0,0:0:0:0:
144,180,90934,6,0,B|264:180,1,95,8|0,0:0|0:0,0:0:0:0:
104,116,91207,2,8,B|0:116,1,95
256,312,91480,6,0,B|464:308,1,190
296,256,91889,1,0,0:0:0:0:
116,216,92162,1,0,0:0:0:0:
116,272,92298,1,0,0:0:0:0:
200,184,92434,1,0,0:0:0:0:
320,180,92571,6,0,B|515:180,2,190,8|0|8,0:0|0:0|0:0,0:0:0:0:
200,124,93252,1,0,0:0:0:0:
272,268,93388,1,0,0:0:0:0:
28,272,93662,6,0,B|148:232,3,95
276,276,94207,2,0,B|156:236,2,95,8|0|0,0:0|0:0|0:0,0:0:0:0:
356,220,94616,1,0,0:0:0:0:
400,220,94684,1,0,0:0:0:0:
448,224,94753,1,0,0:0:0:0:
160,224,95026,1,0,0:0:0:0:
160,224,95162,1,0,0:0:0:0:
272,208,95298,2,0,B|76:240,1,190
108,136,95707,1,0,0:0:0:0:
20,132,95843,2,0,B|132:132,1,95,0|0,0:0|0:0,0:0:0:0:
248,132,96116,2,0,B|136:132,2,95,8|0|0,0:0|0:0|0:0,0:0:0:0:
132,80,96525,1,0,0:0:0:0:
280,84,96661,1,8,0:0:0:0:
304,32,96729,1,0,0:0:0:0:
324,84,96797,1,0,0:0:0:0:
140,248,96934,6,0,B|252:248,1,95,0|0,0:0|0:0,0:0:0:0:
368,248,97207,2,0,B|256:248,2,95,8|0|0,0:0|0:0|0:0,0:0:0:0:
252,196,97616,1,0,0:0:0:0:
400,200,97752,1,8,0:0:0:0:
424,148,97820,1,0,0:0:0:0:
444,200,97888,1,0,0:0:0:0:
256,312,98025,6,2,B|464:308,1,190
308,256,98434,2,2,B|100:252,1,190
256,196,98843,2,2,B|252:92,1,95
76,180,99117,2,0,B|176:180,2,95
368,180,99662,6,0,B|248:180,1,95,8|0,0:0|0:0,0:0:0:0:
408,116,99935,2,0,B|512:116,1,95,0|8,0:0|0:0,0:0:0:0:
256,312,100207,6,0,B|48:308,1,190
144,260,100617,1,0,0:0:0:0:
288,248,100889,1,0,0:0:0:0:
372,248,101026,1,0,0:0:0:0:
368,176,101162,1,0,0:0:0:0:
232,180,101298,6,0,B|37:180,2,190,0|0|8,0:0|0:0|0:0,0:0:0:0:
320,180,101980,1,0,0:0:0:0:
184,264,102117,1,0,0:0:0:0:
436,272,102389,6,0,B|352:184,3,95
232,276,102935,2,0,B|296:196,2,95,8|0|0,0:0|0:0|0:0,0:0:0:0:
156,220,103344,1,0,0:0:0:0:
112,220,103412,1,0,0:0:0:0:
72,220,103480,1,0,0:0:0:0:
296,220,103753,1,0,0:0:0:0:
92,296,104026,1,0,0:0:0:0:
260,268,104162,1,0,0:0:0:0:
144,208,104298,1,0,0:0:0:0:
272,160,104435,1,0,0:0:0:0:
272,160,104503,1,0,0:0:0:0:
328,96,104571,5,0,0:0:0:0:
208,112,104707,1,0,0:0:0:0:
352,256,104844,1,8,0:0:0:0:
356,192,104912,1,0,0:0:0:0:
364,132,104980,1,0,0:0:0:0:
196,248,105117,5,0,0:0:0:0:
312,248,105253,1,0,0:0:0:0:
196,248,105389,1,8,0:0:0:0:
168,192,105458,1,0,0:0:0:0:
204,140,105526,1,0,0:0:0:0:
312,248,105662,5,0,0:0:0:0:
196,248,105798,1,0,0:0:0:0:
268,248,105867,1,8,0:0:0:0:
268,248,105935,1,8,0:0:0:0:
144,252,106071,1,0,0:0:0:0:
268,248,106207,5,8,0:0:0:0:
228,248,106276,1,8,0:0:0:0:
172,248,106344,1,0,0:0:0:0:
120,248,106412,1,0,0:0:0:0:
72,248,106480,1,8,0:0:0:0:
204,316,106616,1,0,0:0:0:0:
48,112,106753,6,0,B|276:112,1,190
356,136,107162,2,0,B|397:240|397:240|360:328,1,190,8|8,0:0|0:0,0:0:0:0:
236,200,107571,2,0,B|340:200,2,95
396,116,107980,6,0,B|196:116,1,190,8|0,0:0|0:0,0:0:0:0:
56,120,108389,2,0,B|164:120,1,95
296,128,108661,2,0,B|176:128,1,95,8|0,0:0|0:0,0:0:0:0:
392,140,108934,5,0,0:0:0:0:
392,140,109002,1,0,0:0:0:0:
392,140,109070,1,0,0:0:0:0:
216,224,109207,2,0,B|336:224,1,95,8|0,0:0|0:0,0:0:0:0:
136,220,109479,5,0,0:0:0:0:
136,220,109548,1,0,0:0:0:0:
136,220,109617,1,0,0:0:0:0:
312,296,109752,2,0,B|180:296,1,95,8|0,0:0|0:0,0:0:0:0:
60,296,110025,5,0,0:0:0:0:
60,296,110093,1,0,0:0:0:0:
60,296,110161,1,8,0:0:0:0:
220,296,110298,1,0,0:0:0:0:
128,212,110434,2,0,B|328:212,1,190,8|0,0:0|0:0,0:0:0:0:
408,216,110843,2,0,B|312:164,1,95
220,164,111116,5,8,0:0:0:0:
112,160,111252,1,0,0:0:0:0:
220,164,111388,1,0,0:0:0:0:
72,160,111525,1,0,0:0:0:0:
220,164,111661,5,8,0:0:0:0:
112,160,111798,1,0,0:0:0:0:
260,164,111934,1,0,0:0:0:0:
392,168,112070,1,0,0:0:0:0:
260,164,112207,5,8,0:0:0:0:
220,164,112275,1,0,0:0:0:0:
176,168,112343,1,0,0:0:0:0:
332,88,112479,1,8,0:0:0:0:
180,80,112616,1,0,0:0:0:0:
352,248,112752,5,8,0:0:0:0:
292,248,112820,1,0,0:0:0:0:
232,248,112888,1,0,0:0:0:0:
168,248,112957,1,0,0:0:0:0:
108,244,113025,1,8,0:0:0:0:
232,248,113161,1,0,0:0:0:0:
48,88,113298,5,0,0:0:0:0:
224,116,113435,1,0,0:0:0:0:
80,240,113571,1,8,0:0:0:0:
136,220,113639,1,0,0:0:0:0:
184,204,113707,1,0,0:0:0:0:
316,248,113844,5,0,0:0:0:0:
200,248,113980,1,0,0:0:0:0:
316,248,114116,1,8,0:0:0:0:
344,192,114185,1,0,0:0:0:0:
368,136,114253,1,0,0:0:0:0:
200,248,114388,5,0,0:0:0:0:
316,248,114526,1,0,0:0:0:0:
244,248,114594,1,8,0:0:0:0:
244,248,114662,1,8,0:0:0:0:
372,248,114798,1,0,0:0:0:0:
244,248,114934,5,8,0:0:0:0:
284,248,115004,1,8,0:0:0:0:
340,248,115071,1,0,0:0:0:0:
392,248,115139,1,0,0:0:0:0:
440,248,115208,5,8,0:0:0:0:
308,316,115344,1,0,0:0:0:0:
464,112,115480,6,0,B|236:112,1,190
160,132,115889,2,8,B|332:256,1,190
424,228,116298,1,0,0:0:0:0:
320,216,116434,1,0,0:0:0:0:
472,132,116570,5,0,0:0:0:0:
8,128,116843,1,8,0:0:0:0:
416,132,117116,2,0,B|308:132,1,95
168,132,117389,2,8,B|288:132,1,95
120,140,117662,5,0,0:0:0:0:
120,140,117730,1,0,0:0:0:0:
120,140,117798,1,0,0:0:0:0:
296,224,117935,2,0,B|80:224,1,190,8|0,0:0|0:0,0:0:0:0:
256,296,118480,2,0,B|388:296,1,95
184,296,118753,5,8,0:0:0:0:
184,296,118821,1,0,0:0:0:0:
184,296,118889,1,0,0:0:0:0:
328,296,119026,1,0,0:0:0:0:
488,228,119162,2,0,B|288:228,1,190,8|0,0:0|0:0,0:0:0:0:
136,232,119571,2,0,B|268:232,1,95
292,164,119844,5,8,0:0:0:0:
400,160,119980,1,0,0:0:0:0:
292,164,120116,1,0,0:0:0:0:
440,160,120253,1,0,0:0:0:0:
292,164,120389,1,8,0:0:0:0:
400,160,120526,1,0,0:0:0:0:
252,164,120662,1,0,0:0:0:0:
120,168,120798,1,0,0:0:0:0:
252,164,120935,5,8,0:0:0:0:
292,164,121003,1,0,0:0:0:0:
336,168,121071,1,0,0:0:0:0:
180,88,121207,1,8,0:0:0:0:
332,80,121344,1,0,0:0:0:0:
160,248,121480,5,8,0:0:0:0:
220,248,121548,1,0,0:0:0:0:
280,248,121616,1,8,0:0:0:0:
344,248,121685,1,0,0:0:0:0:
404,244,121753,1,8,0:0:0:0:
220,248,121889,1,8,0:0:0:0:
512,248,122025,5,4,0:0:0:0:
376,192,122434,1,0,0:0:0:0:
248,160,122843,1,0,0:0:0:0:
360,116,123116,2,0,B|428:112,1,47.5
316,192,123253,2,8,B|180:40,1,190
64,208,123662,1,0,0:0:0:0:
256,248,123934,1,10,0:0:0:0:
348,164,124207,5,0,0:0:0:0:
440,72,124479,1,0,0:0:0:0:
264,120,124752,1,8,0:0:0:0:
132,92,125025,1,0,0:0:0:0:
96,176,125161,1,0,0:0:0:0:
64,272,125298,6,0,B|168:160,1,142.5,0|8,0:0|0:0,0:0:0:0:
364,288,125707,2,0,B|192:196,1,190,0|8,0:0|0:0,0:0:0:0:
96,320,126116,1,0,0:0:0:0:
208,168,126388,5,12,0:0:0:0:
360,256,126797,1,0,0:0:0:0:
484,168,127206,1,0,0:0:0:0:
376,188,127480,6,0,B|308:184,1,47.5
380,188,127617,2,0,B|244:36,1,190,8|0,0:0|0:0,0:0:0:0:
188,280,128026,1,0,0:0:0:0:
32,248,128298,1,8,0:0:0:0:
104,212,128435,1,0,0:0:0:0:
196,184,128571,5,4,0:0:0:0:
72,72,128844,1,0,0:0:0:0:
180,104,128980,1,0,0:0:0:0:
288,120,129117,1,0,0:0:0:0:
376,128,129253,1,0,0:0:0:0:
480,112,129389,1,8,0:0:0:0:
280,224,129662,5,4,0:0:0:0:
152,248,129798,1,0,0:0:0:0:
40,240,129935,1,8,0:0:0:0:
156,176,130071,1,0,0:0:0:0:
4,332,130207,5,12,0:0:0:0:
56,336,130276,1,0,0:0:0:0:
108,344,130343,1,0,0:0:0:0:
160,348,130411,1,0,0:0:0:0:
196,352,130480,1,8,0:0:0:0:
248,356,130547,1,0,0:0:0:0:
300,364,130617,1,8,0:0:0:0:
348,360,130684,1,0,0:0:0:0:
404,356,130753,6,0,B|520:340,2,95
144,144,131298,2,0,B|260:296,1,190,8|0,0:0|0:0,0:0:0:0:
328,244,131707,2,0,B|147:304,1,190
249,175,132116,2,0,L|344:176,1,95,8|0,0:0|0:0,0:0:0:0:
248,96,132389,1,0,0:0:0:0:
52,116,132662,1,0,0:0:0:0:
64,184,132798,1,0,0:0:0:0:
160,284,132934,6,0,B|44:268,2,95
320,136,133480,2,0,B|201:284,1,190,8|0,0:0|0:0,0:0:0:0:
44,208,133889,2,0,B|240:208,1,190
160,128,134298,2,0,B|60:128,1,95
160,68,134570,1,8,0:0:0:0:
368,96,135116,1,0,0:0:0:0:
152,180,135388,1,0,0:0:0:0:
260,200,135662,2,0,B|108:316,1,190,8|0,0:0|0:0,0:0:0:0:
92,192,136070,1,0,0:0:0:0:
356,180,136343,1,0,0:0:0:0:
408,284,136480,2,0,B|232:208,1,190,8|0,0:0|0:0,0:0:0:0:
412,84,137025,1,0,0:0:0:0:
208,68,137298,6,0,B|320:68,1,95
144,72,137570,2,0,B|144:188,1,95,0|8,0:0|0:0,0:0:0:0:
316,160,137843,1,0,0:0:0:0:
144,168,138116,1,8,0:0:0:0:
304,68,138389,6,0,B|192:68,1,95
364,68,138661,1,8,0:0:0:0:
212,164,138798,2,0,B|428:164,1,190
472,164,139207,1,8,0:0:0:0:
264,324,139480,6,0,B|380:308,2,95
144,276,139888,1,0,0:0:0:0:
72,124,140025,2,0,B|180:292,1,190,8|0,0:0|0:0,0:0:0:0:
308,232,140434,2,0,B|127:292,1,190
268,144,140843,2,0,B|368:144,1,95,8|0,0:0|0:0,0:0:0:0:
264,96,141117,2,0,B|64:88,1,190,8|0,0:0|0:0,0:0:0:0:
0,192,141525,1,0,0:0:0:0:
124,264,141662,6,0,B|218:276,2,95
16,160,142070,1,0,0:0:0:0:
164,140,142207,2,0,B|68:312,1,190,8|0,0:0|0:0,0:0:0:0:
160,196,142616,2,0,B|340:256,1,190
232,128,143026,2,0,B|132:128,1,95,8|0,0:0|0:0,0:0:0:0:
272,64,143297,1,8,0:0:0:0:
148,64,143434,1,0,0:0:0:0:
52,140,143570,6,0,B|152:136,1,95
16,220,143843,1,0,0:0:0:0:
264,192,144117,1,0,0:0:0:0:
88,272,144389,2,0,B|264:196,1,190,8|0,0:0|0:0,0:0:0:0:
176,168,144798,1,0,0:0:0:0:
336,164,145070,1,0,0:0:0:0:
384,256,145207,2,0,B|208:180,1,190,0|8,0:0|0:0,0:0:0:0:
468,84,145752,1,0,0:0:0:0:
208,68,146025,6,0,B|320:68,1,95
132,68,146298,2,0,B|132:184,1,95,8|0,0:0|0:0,0:0:0:0:
316,160,146570,1,0,0:0:0:0:
208,160,146707,1,0,0:0:0:0:
72,156,146844,1,8,0:0:0:0:
209,68,146979,1,0,0:0:0:0:
304,68,147117,6,0,B|192:68,1,95
380,68,147388,1,8,0:0:0:0:
360,160,147525,1,0,0:0:0:0:
208,68,147661,2,0,B|320:68,1,95
132,68,147934,1,8,0:0:0:0:
80,84,148003,1,0,0:0:0:0:
32,112,148071,1,0,0:0:0:0:
20,176,148139,1,0,0:0:0:0:
88,196,148207,6,0,B|276:196,1,190,4|0,0:0|0:0,0:0:0:0:
184,260,148617,1,0,0:0:0:0:
84,320,148752,2,0,B|148:320,3,47.5,8|0|0|0,0:0|0:0|0:0|0:0,0:0:0:0:
88,256,149026,2,0,B|304:256,1,190
228,184,149435,5,0,0:0:0:0:
348,156,149570,1,0,0:0:0:0:
228,116,149706,1,0,0:0:0:0:
368,96,149844,2,0,B|344:136,3,47.5,8|0|0|0,0:0|0:0|0:0|0:0,0:0:0:0:
416,96,150117,2,0,B|368:96,3,47.5,8|0|0|0,0:0|0:0|0:0|0:0,0:0:0:0:
424,196,150389,6,0,B|236:196,1,190
328,260,150797,1,0,0:0:0:0:
428,320,150934,2,0,B|364:320,3,47.5,8|0|0|0,0:0|0:0|0:0|0:0,0:0:0:0:
424,256,151207,2,0,B|208:256,1,190
284,184,151617,5,0,0:0:0:0:
164,156,151752,1,0,0:0:0:0:
296,112,151888,1,0,0:0:0:0:
144,96,152026,2,0,B|168:136,3,47.5,8|0|0|0,0:0|0:0|0:0|0:0,0:0:0:0:
96,96,152298,2,0,B|144:96,3,47.5,8|0|0|0,0:0|0:0|0:0|0:0,0:0:0:0:
44,96,152571,6,0,B|260:96,1,190
368,120,152979,1,0,0:0:0:0:
444,232,153117,1,8,0:0:0:0:
288,276,153252,1,0,0:0:0:0:
396,296,153388,1,0,0:0:0:0:
312,296,153526,1,0,0:0:0:0:
484,296,153661,5,8,0:0:0:0:
360,184,153797,1,0,0:0:0:0:
264,144,153935,1,0,0:0:0:0:
108,304,154071,2,0,B|300:284,1,190,8|0,0:0|0:0,0:0:0:0:
376,232,154479,1,0,0:0:0:0:
452,176,154617,1,0,0:0:0:0:
340,112,154752,6,0,B|340:212,1,95,8|0,0:0|0:0,0:0:0:0:
204,152,155026,2,0,B|294:120,1,95
136,192,155298,2,0,B|46:161,1,95,8|0,0:0|0:0,0:0:0:0:
192,232,155570,2,0,B|264:144,1,95
336,232,155844,6,0,B|392:232,3,47.5,8|0|0|0,0:0|0:0|0:0|0:0,0:0:0:0:
280,236,156117,2,0,B|344:232,3,47.5
236,236,156389,1,8,0:0:0:0:
188,240,156456,1,0,0:0:0:0:
136,244,156526,1,0,0:0:0:0:
80,248,156594,1,0,0:0:0:0:
28,248,156662,1,8,0:0:0:0:
60,192,156729,1,0,0:0:0:0:
116,172,156797,1,0,0:0:0:0:
168,160,156867,1,0,0:0:0:0:
200,160,156935,6,0,B|324:156,2,95
112,160,157480,2,0,B|32:84,3,95,8|0|0|0,0:0|0:0|0:0|0:0,0:0:0:0:
216,244,158025,2,0,B|312:156,1,95
408,184,158299,2,0,B|468:257,1,95
368,120,158572,1,0,0:0:0:0:
448,64,158708,2,0,B|256:63,1,190
128,160,159116,6,0,B|344:200,1,190
216,136,159525,2,0,B|112:136,1,95,0|8,0:0|0:0,0:0:0:0:
176,64,159798,2,0,B|364:112,1,190,0|0,0:0|0:0,0:0:0:0:
484,132,160207,2,0,B|488:252,1,95
352,168,160480,2,0,B|432:236,1,95
256,224,160753,2,0,B|376:240,1,95,8|0,0:0|0:0,0:0:0:0:
168,308,161025,1,8,0:0:0:0:
404,320,161162,1,8,0:0:0:0:
296,272,161298,6,0,B|456:100,1,190
224,160,161844,2,0,B|120:160,2,95,8|0|0,0:0|0:0|0:0,0:0:0:0:
380,208,162389,2,0,B|256:152,1,95
204,216,162662,2,0,B|300:160,1,95
176,232,162934,2,0,B|76:280,1,95,8|0,0:0|0:0,0:0:0:0:
208,308,163207,2,0,B|356:180,1,190
488,264,163616,5,0,0:0:0:0:
408,204,163753,1,0,0:0:0:0:
332,148,163889,1,0,0:0:0:0:
144,144,164025,2,0,B|56:208,1,95,8|0,0:0|0:0,0:0:0:0:
232,144,164298,2,0,B|324:192,1,95
452,208,164572,6,0,B|392:208,3,47.5
360,208,164844,2,0,B|300:208,3,47.5
256,212,165117,5,8,0:0:0:0:
200,212,165185,1,0,0:0:0:0:
132,212,165254,1,0,0:0:0:0:
76,212,165322,1,0,0:0:0:0:
152,156,165390,1,8,0:0:0:0:
220,156,165458,1,0,0:0:0:0:
300,156,165526,1,0,0:0:0:0:
384,152,165663,6,0,B|384:44,1,95,6|0,0:0|0:0,0:0:0:0:
240,80,165935,6,0,B|307:148,1,95
104,156,166208,2,0,B|207:168,1,95,8|0,0:0|0:0,0:0:0:0:
28,204,166481,1,8,0:0:0:0:
244,248,166617,2,2,B|128:244,1,95,8|0,0:0|0:0,0:0:0:0:
312,240,166890,6,0,B|232:172,1,95,8|0,0:0|0:0,0:0:0:0:
376,184,167163,1,8,0:0:0:0:
156,136,167299,1,8,0:0:0:0:
252,132,167435,1,0,0:0:0:0:
320,136,167504,1,0,0:0:0:0:
392,128,167572,1,0,0:0:0:0:
348,92,167640,1,0,0:0:0:0:
288,56,167708,1,0,0:0:0:0:
352,40,167776,1,0,0:0:0:0:
392,152,167844,6,0,B|392:44,1,95,2|0,0:0|0:0,0:0:0:0:
240,80,168118,6,0,B|307:148,1,95
104,156,168389,2,0,B|207:168,1,95,8|0,0:0|0:0,0:0:0:0:
28,204,168663,1,8,0:0:0:0:
244,248,168798,2,0,B|128:244,1,95,8|0,0:0|0:0,0:0:0:0:
312,240,169071,6,0,B|232:172,1,95,8|0,0:0|0:0,0:0:0:0:
376,184,169343,1,8,0:0:0:0:
156,136,169480,1,8,0:0:0:0:
296,144,169616,1,0,0:0:0:0:
352,136,169684,1,0,0:0:0:0:
416,128,169752,1,0,0:0:0:0:
352,92,169821,1,0,0:0:0:0:
288,56,169889,1,0,0:0:0:0:
220,48,169957,1,0,0:0:0:0:
176,88,170025,6,0,B|60:136,2,95
416,84,170571,1,2,0:0:0:0:
420,184,170707,1,0,0:0:0:0:
416,84,170843,1,0,0:0:0:0:
60,224,171116,2,0,B|164:196,1,95
312,228,171389,2,0,B|208:192,1,95
384,232,171661,2,8,B|492:152,3,95,8|0|8|0,0:0|0:0|0:0|0:0,0:0:0:0:
304,300,172207,6,0,B|416:300,1,95,2|0,0:0|0:0,0:0:0:0:
244,240,172480,2,0,B|339:240,1,95
168,240,172752,2,0,B|68:240,1,95,8|0,0:0|0:0,0:0:0:0:
200,184,173025,1,0,0:0:0:0:
332,144,173161,1,0,0:0:0:0:
448,80,173298,6,0,B|500:84,3,47.5
396,76,173571,6,0,B|448:80,3,47.5
348,76,173843,5,2,0:0:0:0:
292,92,173911,1,0,0:0:0:0:
228,120,173980,1,0,0:0:0:0:
160,160,174048,1,0,0:0:0:0:
236,212,174116,1,8,0:0:0:0:
324,256,174184,1,0,0:0:0:0:
400,300,174252,1,8,0:0:0:0:
348,320,174321,1,0,0:0:0:0:
288,328,174389,6,0,B|156:328,2,95
64,332,174934,2,0,B|148:260,2,95,8|0|0,0:0|0:0|0:0,0:0:0:0:
72,236,175343,1,0,0:0:0:0:
304,332,175480,2,0,B|236:256,1,95
304,264,175753,2,0,B|516:264,1,190,0|2,0:0|0:0,0:0:0:0:
396,184,176161,1,0,0:0:0:0:
224,140,176298,1,0,0:0:0:0:
332,116,176434,1,0,0:0:0:0:
152,328,176571,6,0,B|232:248,2,95,8|0|0,0:0|0:0|0:0,0:0:0:0:
448,332,177116,2,0,B|356:248,2,95,2|0|0,0:0|0:0|0:0,0:0:0:0:
348,272,177525,1,0,0:0:0:0:
208,332,177661,2,0,B|340:332,1,95,8|0,0:0|0:0,0:0:0:0:
260,256,177934,2,0,B|48:256,1,190
176,180,178343,1,0,0:0:0:0:
268,136,178480,1,0,0:0:0:0:
352,104,178616,1,0,0:0:0:0:
408,184,178753,6,0,B|296:184,2,95,2|0|0,0:0|0:0|0:0,0:0:0:0:
352,248,179161,1,8,0:0:0:0:
224,176,179298,2,0,B|336:176,2,95
264,252,179707,1,8,0:0:0:0:
160,268,179843,6,0,B|255:264,1,95,2|0,0:0|0:0,0:0:0:0:
112,188,180116,2,0,B|24:256,1,95,0|8,0:0|0:0,0:0:0:0:
116,124,180389,1,2,0:0:0:0:
216,84,180525,1,0,0:0:0:0:
344,80,180661,1,0,0:0:0:0:
512,120,180798,1,8,0:0:0:0:
272,196,180934,2,0,L|272:92,4,95,0|0|0|0|0,0:0|0:0|0:0|0:0|0:0,0:0:0:0:
416,288,181752,1,0,0:0:0:0:
308,280,181889,1,8,0:0:0:0:
120,216,182025,2,0,B|244:216,1,95
292,296,182298,2,0,B|196:208,1,95,0|8,0:0|0:0,0:0:0:0:
388,300,182571,2,0,B|472:200,1,95
400,172,182843,5,8,0:0:0:0:
336,168,182911,1,0,0:0:0:0:
260,180,182980,1,0,0:0:0:0:
184,188,183048,1,0,0:0:0:0:
112,152,183116,6,0,B|-8:152,1,95,2|0,0:0|0:0,0:0:0:0:
264,64,183389,2,0,B|176:152,1,95,8|0,0:0|0:0,0:0:0:0:
384,128,183661,2,0,B|352:224,1,95,8|0,0:0|0:0,0:0:0:0:
484,204,183934,1,8,0:0:0:0:
348,296,184071,2,0,B|404:204,1,95,8|0,0:0|0:0,0:0:0:0:
240,248,184343,6,0,B|340:208,1,95,8|0,0:0|0:0,0:0:0:0:
184,188,184616,1,8,0:0:0:0:
360,152,184752,1,8,0:0:0:0:
280,100,184889,1,0,0:0:0:0:
208,84,184958,1,0,0:0:0:0:
140,68,185026,1,0,0:0:0:0:
76,64,185094,1,0,0:0:0:0:
16,84,185162,1,0,0:0:0:0:
80,64,185230,1,0,0:0:0:0:
140,64,185298,6,0,B|76:156,1,95,2|0,0:0|0:0,0:0:0:0:
264,64,185571,2,0,B|176:152,1,95,8|0,0:0|0:0,0:0:0:0:
384,128,185843,2,0,B|272:128,1,95,8|0,0:0|0:0,0:0:0:0:
484,204,186116,1,8,0:0:0:0:
328,296,186252,2,0,B|448:296,1,95,8|0,0:0|0:0,0:0:0:0:
244,252,186525,6,0,B|344:212,1,95,8|0,0:0|0:0,0:0:0:0:
184,188,186798,1,8,0:0:0:0:
288,140,186934,1,8,0:0:0:0:
212,96,187071,1,0,0:0:0:0:
156,84,187139,1,0,0:0:0:0:
212,96,187207,1,0,0:0:0:0:
264,100,187275,1,0,0:0:0:0:
328,100,187343,1,0,0:0:0:0:
376,88,187411,1,0,0:0:0:0:
416,52,187480,2,0,B|556:52,2,95
168,96,188025,1,2,0:0:0:0:
168,96,188161,1,0,0:0:0:0:
168,96,188298,1,0,0:0:0:0:
400,224,188571,2,0,B|332:140,1,95
224,228,188844,2,0,B|292:152,1,95
156,232,189117,2,0,B|76:136,2,95,2|0|0,0:0|0:0|0:0,0:0:0:0:
320,300,189661,6,0,B|404:216,1,95
268,216,189934,2,0,B|196:144,1,95,8|0,0:0|0:0,0:0:0:0:
388,220,190207,2,0,B|468:152,1,95
248,192,190480,1,8,0:0:0:0:
176,108,190616,1,0,0:0:0:0:
64,80,190752,6,0,B|12:84,3,47.5
116,76,191025,6,0,B|64:80,3,47.5
164,76,191298,5,2,0:0:0:0:
220,88,191366,1,0,0:0:0:0:
284,120,191434,1,0,0:0:0:0:
352,160,191502,1,0,0:0:0:0:
280,212,191571,1,8,0:0:0:0:
200,252,191639,1,0,0:0:0:0:
108,280,191707,1,8,0:0:0:0:
180,324,191775,1,0,0:0:0:0:
256,324,191844,6,0,B|328:232,2,95
464,320,192389,2,0,B|384:232,2,95,8|0|0,0:0|0:0|0:0,0:0:0:0:
356,324,192798,1,0,0:0:0:0:
248,324,192934,2,0,B|332:212,1,95
224,244,193207,2,0,B|12:244,1,190,0|8,0:0|0:0,0:0:0:0:
116,184,193616,1,0,0:0:0:0:
288,140,193752,1,0,0:0:0:0:
180,116,193889,1,0,0:0:0:0:
360,328,194025,6,0,B|440:256,2,95
172,324,194571,2,0,B|304:324,2,95,8|0|0,0:0|0:0|0:0,0:0:0:0:
380,160,195116,2,0,B|248:160,1,95
224,264,195389,2,0,B|436:264,1,190,0|8,0:0|0:0,0:0:0:0:
320,140,195798,1,0,0:0:0:0:
208,96,195934,1,0,0:0:0:0:
120,120,196071,1,0,0:0:0:0:
48,180,196207,6,0,B|136:128,2,95
92,244,196616,1,8,0:0:0:0:
240,192,196753,2,0,B|160:128,2,95
184,252,197161,1,8,0:0:0:0:
348,268,197298,6,0,B|256:208,1,95
408,188,197571,2,0,B|324:120,1,95,0|8,0:0|0:0,0:0:0:0:
472,136,197843,5,0,0:0:0:0:
304,72,197980,1,0,0:0:0:0:
372,224,198116,1,0,0:0:0:0:
232,192,198252,1,8,0:0:0:0:
36,252,198389,5,0,0:0:0:0:
136,256,198525,1,0,0:0:0:0:
236,256,198662,1,0,0:0:0:0:
336,252,198798,1,8,0:0:0:0:
436,252,198934,5,0,0:0:0:0:
408,200,199003,1,0,0:0:0:0:
360,200,199071,1,8,0:0:0:0:
316,200,199139,1,0,0:0:0:0:
264,200,199207,5,0,0:0:0:0:
308,152,199275,1,0,0:0:0:0:
364,128,199343,1,8,0:0:0:0:
420,156,199412,1,0,0:0:0:0:
464,296,199480,6,0,B|340:296,1,95
220,296,199752,2,0,B|336:292,1,95,8|0,0:0|0:0,0:0:0:0:
132,300,200025,2,0,B|136:172,1,95
312,196,200298,5,8,0:0:0:0:
236,192,200366,1,0,0:0:0:0:
160,196,200434,1,8,0:0:0:0:
88,200,200503,1,0,0:0:0:0:
256,192,200571,12,0,201253,0:0:0:0:
232,104,201389,6,0,B|96:128,1,95,0|8,0:0|0:0,0:0:0:0:
236,104,201661,5,0,0:0:0:0:
136,128,201798,2,0,B|364:172,1,190,8|0,0:0|0:0,0:0:0:0:
188,232,202207,2,0,B|304:252,1,95
392,232,202480,2,8,B|288:260,1,95
256,192,202752,12,0,203161,0:0:0:0:
280,104,203298,6,0,B|416:128,1,95
236,100,203571,5,0,0:0:0:0:
388,128,203707,1,8,0:0:0:0:
244,188,203843,5,0,0:0:0:0:
120,148,203979,1,0,0:0:0:0:
264,256,204116,1,0,0:0:0:0:
52,172,204252,1,8,0:0:0:0:
268,188,204388,5,0,0:0:0:0:
392,148,204526,1,0,0:0:0:0:
248,256,204661,1,8,0:0:0:0:
316,228,204729,1,0,0:0:0:0:
384,196,204797,1,0,0:0:0:0:
320,152,204866,1,0,0:0:0:0:
252,120,204934,1,8,0:0:0:0:
256,192,205138,12,0,205547,0:0:0:0:
288,36,205752,6,0,B|416:36,1,95
484,112,206025,2,0,B|360:112,1,95,0|8,0:0|0:0,0:0:0:0:
212,116,206298,2,0,B|336:116,1,95
124,120,206570,2,0,B|0:120,1,95
356,184,206843,2,0,B|356:312,1,95,0|8,0:0|0:0,0:0:0:0:
100,212,207116,1,6,0:0:0:0:
