osu file format v9

[General]
AudioFilename: Majikoi Yuuoumaishin.mp3
AudioLeadIn: 3000
PreviewTime: 36357
Countdown: 0
SampleSet: Soft
StackLeniency: 0.3
Mode: 0
LetterboxInBreaks: 0
StoryFireInFront: 0

[Editor]
DistanceSpacing: 1
BeatDivisor: 4
GridSize: 4

[Metadata]
Title:Yuuoumaishin
Artist:Maayan
Creator:Astom
Version:Insane
Source:Maji de Watashi ni Koishinasai!
Tags:Majikoi Alace Minato Soft

[Difficulty]
HPDrainRate:6
CircleSize:5
OverallDifficulty:6
ApproachRate:7
SliderMultiplier:1.9
SliderTickRate:1

[Events]
//Background and Video events
0,0,"BG.jpg"
//Break Periods
2,84118,96676
//Storyboard Layer 0 (Background)
//Storyboard Layer 1 (Fail)
//Storyboard Layer 2 (Pass)
//Storyboard Layer 3 (Foreground)
//Storyboard Sound Samples
//Background Colour Transformations
3,100,163,162,255

[TimingPoints]
15,487.80487804878,4,2,1,70,1,0
15258,-100,4,2,1,60,0,0
15746,-100,4,2,1,70,0,0
16234,-100,4,2,1,80,0,0
16722,-100,4,2,1,90,0,0
17697,-100,4,2,1,70,0,0
35502,-100,4,2,1,15,0,0
35990,-100,4,2,1,30,0,0
36478,-100,4,2,1,50,0,0
37088,-80,4,2,1,70,0,1
68185,-100,4,2,1,70,0,0
68307,-100,4,2,1,70,0,1
68429,-100,4,2,1,70,0,0
117454,-100,4,2,1,15,0,0
117941,-100,4,2,1,30,0,0
118429,-100,4,2,1,50,0,0
119039,-80,4,2,1,70,0,1
150136,-80,4,2,0,50,0,0
150258,-80,4,2,0,50,0,1
150380,-80,4,2,1,70,0,0

[Colours]
Combo1 : 0,78,155
Combo2 : 164,0,0
Combo3 : 79,0,157
Combo4 : 157,0,157
SliderBorder : 0,0,0

[HitObjects]
256,192,1966,1,4
180,192,2210,1,8
140,192,2332,1,8
104,192,2454,1,2
104,192,2698,1,2
256,192,2942,5,8
256,116,3186,1,8
256,80,3308,1,8
256,40,3430,1,2
256,40,3674,1,2
256,192,3918,5,4
256,268,4162,1,8
256,304,4284,1,8
256,344,4406,1,2
256,344,4649,1,2
256,192,4893,5,4
332,192,5137,1,8
368,192,5259,1,8
408,192,5381,1,2
408,192,5625,1,2
372,88,5869,6,0,B|328:128|284:84,1,95,4|8
287,87,6235,1,8
287,87,6357,1,2
287,87,6601,1,2
136,88,6845,6,0,B|180:128|224:84,1,95,4|8
220,87,7211,1,8
220,87,7333,1,2
220,87,7575,1,2
256,192,7820,5,4
212,244,8064,1,8
188,276,8186,1,8
164,304,8308,1,2
300,244,8552,1,2
324,276,8674,1,8
348,304,8796,1,4
256,280,9040,1,8
256,320,9162,1,8
256,356,9284,1,2
52,192,9771,6,0,B|68:132|140:132,1,95,4|8
156,132,10137,1,8
196,132,10259,2,0,B|256:120|260:44,2,95,8|2|2
256,64,10991,1,8
256,60,11113,1,8
256,56,11235,1,8
460,192,11723,6,0,B|444:252|372:252,1,95,4|8
356,252,12089,1,8
316,252,12211,2,0,B|256:264|252:340,2,95,8|2|2
256,316,12941,1,8
256,320,13063,1,8
256,324,13185,1,8
256,192,13430,5,8
173,109,13674,1,8
256,192,13918,5,8
339,109,14162,1,2
256,192,14406,5,8
339,275,14650,1,8
256,192,14893,5,8
173,275,15137,1,2
192,128,15381,5,8
188,92,15503,1,8
216,64,15625,1,8
320,128,15869,5,8
356,124,15991,1,8
384,152,16113,1,8
320,256,16357,5,8
324,292,16479,1,8
296,320,16601,1,8
192,256,16845,5,8
156,260,16967,1,8
128,232,17089,1,8
256,192,17332,5,2
256,192,17576,1,4
156,308,18064,5,2
88,272,18308,1,2
88,196,18552,1,8
156,228,18796,1,8
156,228,18918,1,8
156,228,19040,2,0,B|156:128,2,95,2|2|4
356,76,20015,5,2
424,112,20259,1,2
424,188,20503,1,8
356,156,20747,1,8
356,156,20869,1,8
356,156,20991,2,0,B|356:256,2,95,2|2|4
256,356,21966,5,2
372,356,22210,1,8
364,320,22332,1,8
336,292,22454,1,8
256,172,22698,5,10
256,172,22942,1,10
176,292,23186,5,8
148,320,23308,1,8
140,356,23430,1,8
256,356,23674,6,0,B|256:248,1,95,8|2
116,228,24162,2,0,B|200:144,1,95,2|8
396,228,24649,2,0,B|312:144,1,95,8|2
256,36,25137,1,2
256,36,25381,1,4
476,192,25869,5,2
496,264,26113,1,8
472,296,26235,1,8
432,296,26357,2,0,B|388:256|348:296,1,95,8|8
348,372,26845,1,2
280,336,27088,2,0,B|180:336,1,95,2|8
36,192,27820,5,2
16,120,28064,1,8
40,88,28186,1,8
80,88,28308,2,0,B|124:128|164:88,1,95,8|8
164,12,28796,1,2
232,48,29039,2,0,B|332:48,1,95,2|8
372,128,29527,5,8
292,156,29771,1,8
320,308,30015,5,2
292,228,30259,1,8
140,256,30503,5,8
220,228,30747,1,8
192,76,30991,5,2
220,156,31235,1,8
396,192,31479,5,2
396,192,31723,1,2
348,252,31966,1,2
324,280,32088,1,2
300,308,32210,1,2
348,132,32454,1,2
324,104,32576,1,2
300,76,32698,1,2
396,192,32942,1,2
396,192,33186,5,2
296,220,33430,1,2
260,236,33552,1,2
228,252,33674,1,2
296,164,33918,1,2
260,148,34040,1,2
228,132,34162,1,2
180,192,34406,5,8
144,192,34527,1,8
104,192,34649,1,8
104,192,34893,1,8
140,192,35015,1,8
180,192,35137,1,4
32,32,35625,5,8
480,32,36113,5,8
480,352,36601,5,8
36,348,37088,5,4
121,288,37332,1,8
163,258,37454,1,8
206,228,37576,1,2
291,169,37820,1,2
476,348,38064,5,4
391,288,38308,1,8
349,258,38430,1,8
306,228,38552,1,2
221,169,38796,1,2
476,36,39040,5,4
391,96,39284,1,8
349,126,39406,1,8
306,156,39528,1,2
221,215,39772,1,2
36,36,40015,5,4
121,96,40259,1,8
163,126,40381,1,8
206,156,40503,1,2
291,215,40747,1,2
256,364,40991,5,4
112,360,41235,2,0,B|-12:360,1,118.749998230487,2|2
136,280,41723,2,0,B|32:212,1,118.749998230487,8|8
200,224,42210,2,0,B|200:76,2,118.749998230487,2|2|2
256,20,42942,5,4
400,24,43186,2,0,B|524:24,1,118.749998230487,2|2
376,104,43674,2,0,B|480:172,1,118.749998230487,8|8
312,160,44161,2,0,B|312:308,2,118.749998230487,2|2|2
196,104,44893,6,0,B|196:172|120:196,1,118.749998230487,4|8
80,192,45259,1,8
128,192,45381,2,0,B|195:209|195:281,1,118.749998230487,2|2
316,280,45869,6,0,B|316:212|392:188,1,118.749998230487,4|8
432,192,46235,1,8
384,192,46357,2,0,B|316:174|316:102,1,118.749998230487,2|2
256,192,46845,5,4
160,192,47088,1,8
120,168,47210,1,8
100,124,47332,1,2
256,96,47576,1,2
280,56,47698,1,8
324,36,47820,1,4
352,192,48064,1,8
392,216,48186,1,8
412,260,48308,1,2
256,288,48552,1,2
232,328,48674,1,8
188,348,48796,1,4
100,124,49284,5,2
324,36,49771,1,4
412,260,50259,1,2
188,348,50747,1,4
356,192,50991,5,2
156,192,51235,1,2
327,262,51479,5,2
186,121,51723,1,4
256,292,51966,5,2
256,92,52210,1,2
186,262,52454,5,2
327,121,52698,1,4
256,192,52942,5,2
256,192,53064,1,8
256,192,53186,2,0,B|312:152|312:248|380:176,1,118.749998230487,2|8
363,191,53674,1,8
363,191,54162,1,8
185,263,54649,5,4
256,192,54893,1,2
256,192,55015,1,8
256,192,55137,2,0,B|200:152|200:248|132:176,1,118.749998230487,2|8
148,191,55625,1,8
148,191,56113,1,8
312,264,56600,6,0,B|256:304|200:264,2,118.749998230487,4|2|2
256,192,57332,1,2
200,120,57575,2,0,B|256:80|312:120,2,118.749998230487,4|2|2
256,192,58307,1,2
327,228,58552,6,0,B|354:308|445:288,1,118.749998230487,4|2
292,119,59040,2,0,B|372:92|352:1,1,118.749998230487,2|8
183,154,59527,2,0,B|156:74|65:94,1,118.749998230487,4|2
218,263,60015,2,0,B|138:290|158:381,1,118.749998230487,2|8
256,192,60503,5,4
188,124,60747,1,8
154,90,60869,1,8
120,56,60991,1,2
120,56,61235,1,2
256,192,61479,5,4
323,259,61723,1,8
357,293,61845,1,8
391,327,61966,1,2
391,327,62210,1,2
256,192,62454,5,4
323,124,62698,1,8
357,90,62820,1,8
391,56,62942,1,2
391,56,63186,1,2
256,192,63430,5,4
188,259,63674,1,8
154,293,63796,1,8
120,327,63918,1,2
120,327,64162,1,2
256,192,64406,5,4
92,192,64649,1,2
140,192,64771,1,2
188,192,64893,1,2
256,28,65137,1,2
256,76,65259,1,2
256,124,65381,1,2
420,192,65625,5,8
372,192,65747,1,8
324,192,65869,1,8
256,356,66113,1,8
256,308,66235,1,8
256,260,66357,1,8
140,76,66601,5,2
173,109,66723,1,2
207,143,66845,1,2
371,76,67089,1,2
338,109,67211,1,2
304,143,67333,1,2
371,307,67575,5,8
338,274,67697,1,8
304,240,67819,1,8
140,307,68063,1,8
173,274,68185,1,8
207,240,68307,1,4
256,40,68796,5,8
408,192,69284,1,8
256,344,69771,1,8
104,192,70259,1,8
363,84,70747,5,8
363,299,71235,1,8
148,299,71723,1,0
148,84,72210,1,8
364,192,72698,5,8
360,268,72942,1,8
292,304,73186,1,8
148,192,73674,5,8
152,116,73918,1,8
220,80,74162,1,4
296,152,74406,5,10
344,152,74527,1,8
392,152,74649,1,2
296,232,74893,5,2
296,280,75014,1,8
296,328,75136,1,4
216,232,75381,5,8
168,232,75502,1,8
120,232,75624,1,2
216,152,75869,5,2
216,104,75990,1,8
216,56,76112,1,4
312,236,76601,5,8
452,292,77088,1,8
212,248,77576,5,8
148,380,78063,1,8
200,148,78552,5,8
64,84,79039,1,8
300,136,79527,5,0
364,0,80014,1,8
256,192,80503,5,8
256,268,80747,1,8
256,344,80991,1,8
256,344,81479,1,8
176,104,81966,5,8
176,104,82454,2,0,B|212:148|172:196,1,95,2|2
177,190,82820,1,2
177,190,82942,1,2
336,192,83186,2,0,B|300:236|340:284,1,95,2|2
335,278,83552,1,8
335,278,83674,1,8
336,278,83796,1,8
335,278,83918,1,4
256,340,97576,5,4
216,276,97820,2,0,B|240:248|288:248|308:292,1,95,2|2
172,212,98308,5,2
150,179,98430,1,2
127,146,98552,1,4
256,180,98796,1,2
256,144,98918,1,2
256,104,99040,1,2
340,212,99284,1,8
362,179,99406,1,8
385,146,99528,1,4
476,348,100015,5,8
400,348,100259,1,8
364,332,100381,1,8
356,296,100503,1,8
280,296,100747,2,0,B|180:296,1,95,2|2
280,296,101479,1,4
36,36,101966,5,8
112,36,102210,1,8
148,52,102332,1,8
156,88,102454,1,8
232,88,102698,2,0,B|332:88,1,95,2|2
232,88,103430,1,4
128,300,103918,5,8
188,348,104162,1,8
224,340,104284,1,8
236,304,104406,1,8
256,184,104649,5,2
256,184,104893,1,2
276,304,105137,5,8
288,340,105259,1,8
324,348,105381,1,4
384,300,105625,1,8
372,192,105869,6,0,B|456:108,1,95,2|8
256,140,106357,2,0,B|256:20,1,95,8|2
140,192,106845,2,0,B|56:108,2,95,2|8|4
256,192,107820,5,8
202,138,108064,1,2
176,112,108186,1,8
148,84,108308,1,8
148,84,108552,1,2
148,84,108796,1,8
256,192,109284,5,4
256,192,109771,1,8
309,245,110015,1,2
335,271,110137,1,8
363,299,110259,1,8
363,299,110503,1,2
363,299,110747,1,8
256,80,111235,5,4
362,157,111479,1,8
321,282,111722,1,8
190,282,111966,1,8
149,157,112210,5,4
291,85,112454,1,8
363,227,112698,1,8
221,299,112942,1,8
149,157,113186,5,4
339,116,113430,1,2
279,302,113674,1,2
256,192,113918,5,2
256,192,114040,1,2
256,192,114162,1,2
160,192,114406,5,8
124,192,114527,1,8
84,192,114649,1,8
208,108,114893,1,8
190,77,115014,1,8
170,43,115136,1,8
304,108,115381,5,2
322,77,115502,1,2
342,43,115624,1,2
352,192,115869,1,2
388,192,115990,1,2
428,192,116112,1,2
304,275,116357,5,8
322,306,116478,1,8
342,340,116600,1,8
208,275,116845,1,8
189,306,116966,1,8
170,340,117088,1,4
256,8,117576,5,8
440,192,118064,5,8
256,376,118552,5,8
72,192,119040,5,4
180,192,119284,1,8
224,160,119406,1,8
256,116,119527,1,2
256,116,119771,1,2
256,8,120015,5,4
256,116,120259,1,8
288,160,120381,1,8
332,192,120502,1,2
332,192,120746,1,2
440,192,120991,5,4
332,192,121235,1,8
288,224,121357,1,8
256,268,121478,1,2
256,268,121722,1,2
256,376,121966,5,4
256,268,122210,1,8
224,224,122332,1,8
180,192,122453,1,2
180,192,122697,1,2
256,192,122942,5,4
165,101,123186,2,0,B|72:8,1,118.749998230487,2|2
128,192,123674,2,0,B|-4:192,1,118.749998230487,8|8
165,282,124162,2,0,B|72:375,2,118.749998230487,2|2|2
256,192,124893,5,4
346,282,125137,2,0,B|439:375,1,118.749998230487,2|2
384,192,125625,2,0,B|516:192,1,118.749998230487,8|8
346,101,126113,2,0,B|439:8,2,118.749998230487,2|2|2
148,116,126845,6,0,B|204:164|268:108,1,118.749998230487,4|8
256,64,127210,1,8
256,116,127332,2,0,B|312:68|376:124,1,118.749998230487,2|2
364,268,127820,6,0,B|308:316|244:260,1,118.749998230487,4|8
256,320,128185,1,8
256,268,128307,2,0,B|200:220|136:276,1,118.749998230487,2|2
256,192,128796,5,4
256,64,129040,1,8
303,74,129161,1,8
344,100,129283,1,2
384,192,129527,1,2
374,239,129649,1,8
348,280,129771,1,8
256,320,130015,1,8
208,310,130137,1,8
167,284,130259,1,2
128,192,130503,1,2
137,144,130625,1,8
163,103,130747,5,4
344,99,131235,1,8
348,280,131723,1,4
167,284,132210,1,8
256,16,132698,6,0,B|256:152,1,118.749998230487,4|2
423,137,133186,6,0,B|294:179,1,118.749998230487,2|2
359,334,133674,6,0,B|279:224,1,118.749998230487,4|2
152,334,134162,6,0,B|232:224,1,118.749998230487,2|2
88,137,134649,5,4
88,244,134893,1,2
88,244,135015,1,8
88,244,135137,2,0,B|164:244|192:156,1,118.749998230487,2|8
88,137,135625,1,8
88,137,136113,1,8
424,247,136601,5,4
424,140,136845,1,2
424,140,136967,1,8
424,140,137089,2,0,B|348:140|320:228,1,118.749998230487,2|8
424,247,137575,1,8
424,247,138063,1,8
184,248,138551,6,0,B|144:192|184:136,2,118.749998230487,4|2|2
256,192,139283,1,2
328,136,139526,2,0,B|368:192|328:248,2,118.749998230487,4|2|2
256,192,140258,1,2
202,134,140503,6,0,B|202:7,1,118.749998230487,8|2
313,138,140991,2,0,B|440:138,1,118.749998230487,2|8
309,249,141479,2,0,B|309:376,1,118.749998230487,8|2
198,245,141966,2,0,B|71:245,1,118.749998230487,2|8
256,192,142454,5,4
360,76,142698,1,8
395,112,142820,1,8
408,160,142942,1,2
408,160,143186,1,2
256,192,143430,5,4
372,292,143674,1,8
337,327,143796,1,8
289,340,143918,1,2
289,340,144162,1,2
256,192,144406,5,4
160,312,144649,1,8
124,276,144771,1,8
112,229,144893,1,2
112,229,145137,1,2
256,192,145381,5,4
136,96,145625,1,8
172,60,145747,1,8
219,48,145869,1,2
219,48,146113,1,2
256,192,146357,5,4
323,124,146601,1,2
357,90,146723,1,2
391,56,146845,1,2
323,259,147088,1,2
357,293,147210,1,2
391,327,147332,1,2
188,259,147576,5,8
154,293,147698,1,8
120,327,147820,1,8
188,124,148064,1,8
154,90,148186,1,8
120,56,148308,1,8
256,192,148430,12,4,150259
