osu file format v9

[General]
AudioFilename: Majikoi Yuuoumaishin.mp3
AudioLeadIn: 3000
PreviewTime: 36357
Countdown: 0
SampleSet: Soft
StackLeniency: 0.3
Mode: 0
LetterboxInBreaks: 0
StoryFireInFront: 0

[Editor]
DistanceSpacing: 0.9
BeatDivisor: 4
GridSize: 4

[Metadata]
Title:Yuuoumaishin
Artist:Maayan
Creator:Astom
Version:Hard
Source:Maji de Watashi ni Koishinasai!
Tags:Majikoi Alace Minato Soft

[Difficulty]
HPDrainRate:5
CircleSize:4
OverallDifficulty:5
ApproachRate:5
SliderMultiplier:1.6
SliderTickRate:1

[Events]
//Background and Video events
0,0,"BG.jpg"
//Break Periods
2,84117,96376
//Storyboard Layer 0 (Background)
//Storyboard Layer 1 (Fail)
//Storyboard Layer 2 (Pass)
//Storyboard Layer 3 (Foreground)
//Storyboard Sound Samples
//Background Colour Transformations
3,100,163,162,255

[TimingPoints]
15,487.80487804878,4,2,1,70,1,0
35502,-100,4,2,1,15,0,0
35990,-100,4,2,1,30,0,0
36478,-100,4,2,1,50,0,0
37088,-80,4,2,1,70,0,1
68185,-100,4,2,1,70,0,0
68307,-100,4,2,1,70,0,1
68429,-100,4,2,1,70,0,0
117454,-100,4,2,1,15,0,0
117941,-100,4,2,1,30,0,0
118429,-100,4,2,1,50,0,0
119039,-80,4,2,1,70,0,1
150136,-80,4,2,0,50,0,0
150258,-80,4,2,0,50,0,1
150380,-80,4,2,1,70,0,0

[Colours]
Combo1 : 0,78,155
Combo2 : 164,0,0
Combo3 : 79,0,157
Combo4 : 157,0,157
SliderBorder : 0,0,0

[HitObjects]
256,192,1965,5,4
224,316,2454,1,2
166,283,2698,1,2
132,226,2942,1,8
132,226,3430,1,2
256,192,3918,5,4
164,102,4405,1,2
221,68,4649,1,2
288,68,4893,1,8
288,68,5381,1,2
256,192,5869,5,4
379,157,6356,1,2
380,224,6600,1,2
347,281,6844,1,8
347,281,7332,1,2
256,192,7820,6,0,B|208:120|188:276|116:184,1,160,4|2
208,96,8796,1,2
256,52,9040,1,2
304,96,9284,1,8
256,192,9771,6,0,B|304:120|324:276|396:184,1,160,4|2
304,288,10747,1,8
256,332,10991,1,8
208,288,11235,1,2
80,288,11723,6,0,B|84:196|180:164,1,160,4|2
256,72,12698,1,8
342,167,13186,2,0,B|440:208|428:304,1,160,2|4
320,352,14162,5,2
192,352,14649,1,8
192,352,14893,1,8
192,352,15137,1,2
156,228,15625,5,4
172,168,15869,1,2
224,128,16113,1,2
288,128,16357,5,2
288,128,16479,1,2
288,128,16601,1,2
340,168,16845,5,2
340,168,16966,1,2
340,168,17088,1,2
356,228,17332,5,8
356,228,17454,1,8
356,228,17576,1,4
256,308,18064,5,2
128,308,18552,1,8
128,308,18796,1,8
128,308,19040,2,0,B|220:284|224:180,1,160,2|4
256,76,20015,5,2
384,76,20503,1,8
384,76,20747,1,8
384,76,20991,2,0,B|292:100|288:204,1,160,2|4
400,304,21966,5,2
256,376,22454,1,8
112,304,22942,1,2
228,192,23430,5,4
256,116,23674,1,8
256,36,23918,1,2
256,36,24406,5,2
256,116,24649,1,2
284,192,24893,1,8
284,192,25381,1,4
396,128,25869,5,2
488,216,26357,1,8
452,272,26601,1,8
388,264,26845,2,0,B|284:248|252:348,1,160,2|4
116,256,27820,5,2
24,168,28308,1,8
60,112,28552,1,8
124,120,28796,2,0,B|228:136|260:36,1,160,2|4
256,304,29771,5,2
144,192,30259,1,8
256,80,30747,1,2
368,192,31235,5,4
312,252,31479,1,2
256,304,31723,1,2
200,252,31966,5,2
172,224,32088,1,2
144,192,32210,1,2
196,136,32454,5,2
224,108,32576,1,2
256,80,32698,1,2
312,132,32942,5,8
340,160,33064,1,8
368,192,33186,1,4
256,192,33430,5,2
256,192,33674,1,2
199,135,33918,2,0,B|151:87,2,40,2|2|2
333,171,34406,6,0,B|398:153,2,40,8|8|8
235,269,34893,6,0,B|217:334,2,40,8|8|4
256,192,35625,5,8
256,192,36113,1,8
256,192,36601,1,8
256,192,37088,6,0,B|288:140|384:140|368:284|452:164,1,199.999997019768,4|2
508,192,37820,1,8
468,124,38064,1,8
468,284,38552,1,2
256,192,39040,6,0,B|224:140|128:140|144:284|60:164,1,199.999997019768,4|2
4,192,39772,1,8
44,124,40014,1,8
44,284,40502,1,2
164,364,40991,6,0,B|256:292|348:364,1,199.999997019768,4|2
184,260,41966,1,8
256,224,42210,1,8
328,260,42454,1,2
188,184,42942,6,0,B|116:112,1,99.9999985098839,4|8
256,148,43430,2,0,B|256:36,1,99.9999985098839,2|8
324,184,43918,2,0,B|404:104,2,99.9999985098839,8|2|2
324,184,44649,1,8
324,184,44893,1,4
256,344,45381,5,2
256,192,45868,1,8
256,40,46357,1,2
172,92,46601,5,8
172,92,46723,1,8
172,92,46845,2,0,B|260:192|348:84,1,199.999997019768,4|2
340,192,47576,5,2
340,192,47698,1,8
340,192,47820,2,0,B|252:92|164:200,1,199.999997019768,4|2
256,244,48552,1,2
256,344,48796,5,4
408,192,49284,1,2
256,40,49771,1,4
104,192,50259,1,2
348,192,50747,5,4
304,272,50991,1,2
208,272,51235,1,2
164,192,51479,1,2
208,112,51723,5,8
304,112,51966,1,2
304,112,52088,1,8
304,112,52210,1,2
256,192,52454,1,2
256,192,52576,1,8
256,192,52698,1,4
310,342,53186,5,2
388,300,53430,1,2
413,219,53674,1,8
413,219,54162,1,2
256,192,54649,5,4
201,41,55137,1,2
124,84,55381,1,2
98,164,55625,1,8
98,164,56113,1,2
112,304,56601,6,0,B|244:304|264:156,1,199.999997019768,4|2
256,112,57332,1,2
256,32,57576,1,8
256,112,57820,1,8
256,192,58064,2,0,B|288:312|412:304,1,199.999997019768,2|4
256,376,59040,5,2
256,192,59527,1,8
256,192,59771,1,8
256,192,60015,1,2
256,8,60503,1,4
160,136,60991,5,2
160,136,61235,1,2
160,136,61479,2,0,B|264:196|372:124,1,199.999997019768,8|2
352,216,62210,5,2
352,216,62454,2,0,B|256:260|144:212,2,199.999997019768,4|2|8
256,344,63918,5,2
132,248,64406,1,4
176,96,64893,1,2
336,96,65381,1,4
380,248,65869,1,2
256,344,66357,5,4
256,344,66601,1,2
256,344,66845,1,2
204,284,67088,5,8
180,252,67210,1,8
156,220,67332,1,8
256,224,67576,5,2
256,184,67698,1,2
256,144,67820,1,2
308,284,68064,5,8
332,252,68186,1,8
356,220,68308,1,4
256,68,68796,5,2
144,128,69284,1,8
144,256,69771,1,2
256,316,70259,1,8
368,256,70747,1,2
372,128,71235,1,8
256,192,71723,6,0,B|192:128|192:272|104:180,1,160,0|8
196,296,72698,1,2
256,316,72942,1,8
316,296,73186,1,8
316,296,73674,1,2
224,160,74162,6,0,B|144:80,1,80,4|2
288,160,74649,2,0,B|368:80,1,80,2|8
288,224,75137,2,0,B|368:304,1,80,8|2
224,224,75625,2,0,B|144:304,1,80,2|8
256,192,76113,1,4
196,88,76601,5,2
256,68,76845,1,8
316,88,77089,1,8
316,88,77575,1,2
256,192,78064,6,0,B|320:128|320:272|408:180,1,160,4|2
394,192,79040,1,8
332,304,79527,6,0,B|256:360|184:304,1,160,0|8
184,304,80503,1,2
184,176,80991,6,0,B|260:232|332:176,1,160,8|2
331,176,81967,1,4
256,72,82454,5,2
212,116,82698,2,0,B|168:160,2,40,2|2|2
256,72,83186,1,2
300,116,83430,2,0,B|328:144,4,40,2|8|8|8|4
256,192,97576,5,4
256,192,97820,1,2
256,192,98064,1,2
256,112,98308,6,0,B|256:48,2,40,2|2|8
325,232,98796,6,0,B|380:264,2,40,2|2|8
186,232,99284,6,0,B|131:264,2,40,2|2|4
256,340,100015,5,2
256,340,100503,1,8
316,324,100747,1,8
356,272,100991,1,2
256,192,101479,1,4
256,44,101966,5,2
256,44,102454,1,8
196,60,102698,1,8
156,112,102942,1,2
256,192,103430,1,4
324,300,103918,6,0,B|372:224|320:144,1,160,2|8
323,149,104649,1,8
323,149,104893,1,2
188,236,105381,6,0,B|140:160|192:80,2,160,4|2|8
188,236,106601,1,8
188,236,106845,1,2
256,344,107332,1,4
128,344,107820,5,2
128,344,108308,1,8
144,284,108552,1,8
200,256,108796,1,2
256,128,109284,1,4
384,40,109771,5,2
384,40,110259,1,8
368,100,110503,1,8
312,128,110747,1,2
256,256,111235,5,4
312,224,111479,1,8
312,160,111723,1,8
256,128,111966,1,8
256,128,112210,5,4
196,160,112454,1,8
196,224,112698,1,8
256,256,112941,1,8
256,192,113186,5,4
256,128,113430,2,0,B|256:72,2,40,2|2|2
312,160,113918,2,0,B|352:120,2,40,2|2|2
312,224,114406,2,0,B|352:264,2,40,8|8|8
256,192,114893,1,8
256,192,115015,1,8
256,192,115137,1,4
256,256,115381,6,0,B|256:312,2,40,2|2|2
200,224,115869,2,0,B|160:264,2,40,2|2|2
200,160,116357,2,0,B|160:120,2,40,8|8|8
256,192,116845,1,8
256,192,116966,1,8
256,192,117088,1,4
256,368,117576,5,8
80,192,118064,5,8
256,16,118552,5,8
432,192,119040,6,0,B|312:220|304:340,1,199.999997019768,4|2
208,328,119771,1,2
208,328,120015,1,8
256,156,120503,1,2
80,192,120991,6,0,B|200:164|208:44,1,199.999997019768,4|2
304,56,121722,1,2
304,56,121966,1,8
256,228,122454,1,2
112,192,122942,5,4
112,192,123430,1,2
180,152,123674,1,2
216,80,123918,1,8
296,80,124162,1,8
332,152,124406,1,2
400,192,124649,1,2
336,240,124893,6,0,B|420:324|416:324,1,99.9999985098839,4|2
256,268,125381,2,0,B|256:372,1,99.9999985098839,2|8
176,240,125869,2,0,B|92:324|96:324,2,99.9999985098839,8|2|2
176,240,126601,1,8
176,240,126845,1,4
128,68,127332,5,2
256,192,127820,1,8
384,68,128308,1,2
416,156,128552,5,2
416,156,128674,1,2
416,156,128795,2,0,B|344:172|280:120|292:40,1,199.999997019768,4|2
96,228,129527,5,2
96,228,129649,1,2
96,228,129770,2,0,B|168:212|232:264|220:344,1,199.999997019768,4|2
220,341,130502,1,2
128,316,130747,5,4
384,316,131235,1,2
172,252,131723,1,4
340,252,132210,1,2
256,92,132698,5,4
256,92,132942,1,2
256,92,133186,1,2
200,160,133430,5,2
168,191,133552,1,2
137,222,133674,1,2
256,192,133918,5,8
255,236,134040,1,8
255,280,134162,1,8
312,160,134406,5,2
344,191,134528,1,2
375,222,134650,1,4
160,104,135137,5,2
160,104,135381,1,2
160,104,135625,2,0,B|260:44|352:108,1,199.999997019768,8|2
352,280,136601,6,0,B|252:340|160:276,2,199.999997019768,4|2|8
352,280,138064,1,2
128,192,138552,5,4
128,192,139040,1,2
152,116,139284,1,2
216,70,139527,1,8
295,70,139771,1,8
359,116,140015,1,2
384,192,140259,1,2
384,192,140503,6,0,B|304:272,1,99.9999985098839,4|2
256,320,140991,2,0,B|176:240,1,99.9999985098839,2|8
128,192,141479,2,0,B|208:112,1,99.9999985098839,8|2
256,64,141966,2,0,B|336:144,2,99.9999985098839,2|8|4
68,64,142942,5,2
68,64,143186,1,2
68,64,143430,2,0,B|168:124|264:60,1,199.999997019768,8|2
256,148,144162,5,2
256,148,144406,2,0,B|356:88|452:152,1,199.999997019768,4|2
444,147,145137,1,2
444,147,145381,1,8
256,192,145869,5,2
176,144,146113,1,2
176,144,146235,1,2
176,144,146357,2,0,B|208:96|256:72|320:100|340:156,1,199.999997019768,4|2
336,236,147088,5,2
336,236,147210,1,2
336,236,147332,2,0,B|304:284|256:308|192:280|172:224,1,199.999997019768,4|2
256,192,148064,1,2
256,192,148186,1,2
256,192,148308,1,4
256,192,148430,12,4,150259
