osu file format v9

[General]
AudioFilename: Majikoi Yuuoumaishin.mp3
AudioLeadIn: 3000
PreviewTime: 36357
Countdown: 0
SampleSet: Soft
StackLeniency: 0.3
Mode: 0
LetterboxInBreaks: 0
StoryFireInFront: 0

[Editor]
DistanceSpacing: 0.8
BeatDivisor: 4
GridSize: 4

[Metadata]
Title:Yuuoumaishin
Artist:Maayan
Creator:Astom
Version:Easy
Source:Maji de Watashi ni Koishinasai!
Tags:Majikoi Alace Minato Soft

[Difficulty]
HPDrainRate:1
CircleSize:3
OverallDifficulty:1
ApproachRate:1
SliderMultiplier:0.999999999999999
SliderTickRate:1

[Events]
//Background and Video events
0,0,"BG.jpg"
//Break Periods
2,84118,95896
//Storyboard Layer 0 (Background)
//Storyboard Layer 1 (Fail)
//Storyboard Layer 2 (Pass)
//Storyboard Layer 3 (Foreground)
//Storyboard Sound Samples
//Background Colour Transformations
3,100,163,162,255

[TimingPoints]
15,487.80487804878,4,2,1,70,1,0
35502,-100,4,2,1,15,0,0
35990,-100,4,2,1,30,0,0
36478,-100,4,2,1,50,0,0
37088,-100,4,2,1,70,0,1
68185,-100,4,2,1,70,0,0
68307,-100,4,2,1,70,0,1
68429,-100,4,2,1,70,0,0
117454,-100,4,2,1,15,0,0
117941,-100,4,2,1,30,0,0
118429,-100,4,2,1,50,0,0
119039,-100,4,2,1,70,0,1
150136,-80,4,2,0,50,0,0
150258,-80,4,2,0,50,0,1
150380,-80,4,2,1,70,0,0

[Colours]
Combo1 : 0,78,155
Combo2 : 164,0,0
Combo3 : 79,0,157
Combo4 : 157,0,157
SliderBorder : 0,0,0

[HitObjects]
256,192,1966,1,4
142,78,2942,1,8
256,192,3918,5,4
369,78,4893,1,8
256,192,5869,5,4
369,305,6845,1,8
256,192,7820,5,4
142,305,8796,1,8
184,152,9771,6,0,B|208:72|312:76|328:156,1,200,4|8
256,192,11235,1,2
328,232,11723,6,0,B|304:312|200:308|184:228,1,200,4|8
256,192,13186,1,2
184,152,13674,6,0,B|236:120|212:44,1,99.9999999999999,4|2
294,64,14649,2,0,B|280:128|344:164,1,99.9999999999999,4|2
364,224,15625,6,0,B|332:344|188:344|148:220,1,300,4|2
216,176,17576,1,4
256,108,18064,5,2
296,176,18552,2,0,B|348:148|332:80,1,99.9999999999999,8|2
256,108,19527,1,4
216,176,20015,5,2
256,240,20503,2,0,B|200:248|188:316,2,99.9999999999999,8|2|4
272,320,21966,6,0,B|364:368|472:316,1,200,2|2
416,256,23430,1,4
464,192,23918,6,0,B|372:144|264:196,1,200,2|2
324,256,25381,1,4
324,336,25869,6,0,B|392:336|404:264,1,99.9999999999999,2|8
480,284,26845,2,0,B|480:176,1,99.9999999999999,2|4
480,104,27820,6,0,B|412:104|400:176,1,99.9999999999999,2|8
324,156,28796,2,0,B|324:264,1,99.9999999999999,2|4
192,348,30259,5,4
192,188,31235,1,4
96,316,32210,5,8
96,236,32698,2,0,B|96:132,1,99.9999999999999,2|4
176,152,33674,2,0,B|176:32,2,99.9999999999999,2|8|2
176,232,35137,1,4
256,232,35625,5,8
256,152,36113,1,8
256,232,36601,1,8
256,152,37088,5,4
324,192,37576,2,0,B|400:116,2,99.9999999999999,2|8|2
256,236,39040,5,4
192,188,39527,2,0,B|120:260,2,99.9999999999999,2|8|2
164,112,40991,6,0,B|260:44|352:116,1,200,4|8
392,48,42454,1,2
432,116,42942,6,0,B|432:220,1,99.9999999999999,4|2
352,216,43918,2,0,B|352:320,2,99.9999999999999,4|2|4
352,136,45381,5,2
272,136,45869,1,8
312,68,46357,1,2
232,68,46845,6,0,B|212:180|88:196,1,200,4|8
16,192,48308,1,2
52,264,48796,6,0,B|128:340,1,99.9999999999999,4|2
184,284,49771,2,0,B|108:208,1,99.9999999999999,4|2
176,164,50747,6,0,B|252:240,1,99.9999999999999,8|2
304,180,51723,2,0,B|228:104,2,99.9999999999999,8|2|4
384,180,53186,5,2
384,100,53674,2,0,B|460:100|496:200|424:252,1,200,8|4
348,244,55137,5,2
348,164,55625,2,0,B|272:164|236:264|308:316,1,200,8|4
240,360,57088,5,2
160,360,57576,2,0,B|60:360,2,99.9999999999999,8|2|4
200,292,59040,2,0,B|116:208,2,99.9999999999999,2|8|2
280,296,60503,6,0,B|380:364|476:288,1,200,4|8
416,232,61966,1,2
468,168,62454,6,0,B|368:100|272:176,1,200,4|8
228,232,63918,1,2
180,168,64406,6,0,B|112:96,2,99.9999999999999,4|2|8
132,232,65869,6,0,B|60:304,2,99.9999999999999,2|4|2
180,296,67332,6,0,B|252:368,2,99.9999999999999,8|2|4
60,192,69284,1,8
216,228,70259,5,4
60,192,71235,1,8
216,156,72210,5,4
60,192,73186,1,8
180,88,74162,5,4
216,156,74649,1,2
296,156,75137,1,2
332,88,75625,1,8
256,60,76113,6,0,B|256:272,2,200,4|8|4
348,192,79040,5,8
428,192,79527,2,0,B|504:116,2,99.9999999999999,2|4|2
388,260,80991,2,0,B|464:336,2,99.9999999999999,8|2|8
308,260,82454,5,2
256,200,82942,1,2
204,260,83430,1,8
204,260,83918,1,4
192,236,97576,6,0,B|248:300|348:260|332:168,1,200,4|8
256,192,99040,1,2
256,192,99527,1,4
292,120,100015,5,2
372,120,100503,2,0,B|448:44,2,99.9999999999999,8|2|4
332,192,101966,5,2
412,192,102454,2,0,B|492:272,2,99.9999999999999,8|2|4
372,264,103918,5,2
332,332,104406,1,8
256,360,104893,1,2
180,332,105381,5,4
140,264,105869,1,2
140,264,106357,2,0,B|64:188,2,99.9999999999999,8|2|4
200,208,107820,5,2
256,264,108308,2,0,B|332:340,2,99.9999999999999,8|2|4
312,208,109771,5,2
256,148,110259,2,0,B|172:64,1,99.9999999999999,8|2
256,36,111235,5,4
256,192,112210,1,4
256,348,113186,1,4
396,272,114162,6,0,B|332:272|308:200,1,99.9999999999999,8|2
392,192,115137,1,4
384,112,115625,2,0,B|448:112|472:184,1,99.9999999999999,2|8
392,192,116601,1,2
312,192,117088,5,4
256,136,117576,1,8
200,192,118064,1,8
256,252,118552,1,8
208,316,119040,6,0,B|264:348|316:308,1,99.9999999999999,4|2
348,252,120015,2,0,B|252:324|160:248,2,200,8|4|8
296,192,122454,1,2
348,132,122942,6,0,B|252:60|160:136,1,200,4|8
216,192,124406,1,2
148,232,124893,6,0,B|172:316|256:360|360:312|368:212,1,300,4|2
364,152,126845,6,0,B|340:68|256:24|152:72|144:172,1,300,4|2
100,216,128796,6,0,B|156:248|208:208,1,99.9999999999999,4|2
256,168,129771,1,8
320,216,130259,2,0,B|376:248|428:208,1,99.9999999999999,2|4
368,152,131235,5,2
304,104,131723,2,0,B|248:72|196:112,1,99.9999999999999,8|2
144,152,132698,5,2
180,224,133186,1,2
256,248,133674,1,8
332,224,134162,1,8
368,152,134649,6,0,B|488:152,2,99.9999999999999,4|2|8
332,224,136113,1,2
256,248,136601,6,0,B|256:352,2,99.9999999999999,4|2|8
180,224,138064,1,2
256,192,138552,5,8
188,148,139040,1,2
256,192,139527,1,8
256,112,140015,1,2
324,148,140503,6,0,B|352:200|316:252,1,99.9999999999999,8|2
256,192,141479,1,8
188,148,141966,2,0,B|160:200|196:252,1,99.9999999999999,2|4
40,192,143430,5,8
100,340,144406,1,4
256,376,145381,1,8
412,340,146357,1,4
472,192,147332,1,8
256,192,148308,12,4,150259
