osu file format v5

[General]
AudioFilename: Yubiwa.mp3
AudioLeadIn: 0
PreviewTime: -1
Countdown: 2
SampleSet: Soft
StackLeniency: 0.7
Mode: 0
LetterboxInBreaks: 1
EditorDistanceSpacing: 1

[Metadata]
Title:Yubiwa
Artist:Maaya Sakamoto
Creator:Senbon
Version:Hard
Source:
Tags:

[Difficulty]
HPDrainRate:7
CircleSize:5
OverallDifficulty:6
SliderMultiplier:1.3
SliderTickRate:1

[Events]
//Background and Video events
0,0,"vision-of-escaflowne_000.jpg"
//Break Periods
2,41952,48644
2,78129,84820
2,105041,105556
2,125776,126622
2,136364,137100
2,173864,174379
2,189305,190262
2,194710,195225
//Storyboard Layer 0 (Background)
//Storyboard Layer 1 (Failing)
//Storyboard Layer 2 (Passing)
//Storyboard Layer 3 (Foreground)
//Storyboard Sound Samples
//Background Colour Transformations
3,100,0,128,192

[TimingPoints]
1165,441.176470588235,4,2,0,50,1,0
49694,-100,4,2,0,100,0,0
77709,-100,4,2,0,50,0,0
78150,-100,4,2,0,100,0,0
120944,-50,4,2,0,70,0,0
121330,-100,4,2,0,100,0,0
127231,-50,4,2,0,100,0,0
128389,-100,4,2,0,100,0,0
128995,-50,4,2,0,100,0,0
142782,-100,4,2,0,100,0,0
196275,-100,4,2,0,30,0,0
196937,-200,4,2,0,30,0,0
199914,-100,4,2,0,100,0,0
203003,-100,4,2,0,70,0,0
203664,-100,4,2,0,50,0,0
203885,-100,4,2,0,30,0,0
205870,-100,4,2,0,10,0,0
206863,-200,4,2,0,10,0,0

[Colours]
Combo1 : 83,169,255
Combo2 : 0,0,128
Combo3 : 5,5,240
Combo4 : 0,128,192

[HitObjects]
80,80,15062,1,0
144,80,15282,1,0
272,80,15723,1,0
272,144,15943,1,0
464,144,16606,1,0
464,208,16827,1,0
272,208,17488,1,0
208,208,17709,1,0
352,72,18370,5,0
416,72,18591,2,0,B|416:280,1,195
376,320,19473,1,0
248,320,19914,1,0
248,256,20135,2,0,B|88:256,1,130,0|2
120,160,22120,5,0
120,96,22341,1,0
248,96,22782,1,0
312,96,23003,2,0,B|408:96,1,65,0|2
448,200,23664,1,0
448,264,23885,2,0,B|448:344,1,65,0|2
320,336,24547,1,0
256,336,24767,1,2
256,136,25429,5,0
256,72,25650,1,2
440,136,26312,1,0
440,200,26533,1,2
352,296,26973,1,0
288,296,27194,2,0,B|160:232,1,130,2|0
56,184,28076,1,0
168,120,28517,1,2
232,120,28738,1,2
472,48,29841,5,0
504,104,30062,1,0
472,160,30282,1,2
408,160,30503,1,0
376,104,30723,2,0,B|312:128|240:104,1,130,2|0
248,232,31606,5,0
184,248,31827,1,0
160,312,32047,1,2
192,368,32268,1,0
256,368,32488,2,0,B|320:328|392:368,1,130,2|0
376,232,33371,5,0
424,184,33591,1,0
400,120,33812,1,2
336,120,34032,1,0
304,176,34253,2,0,B|240:200|168:176,1,130,2|0
176,48,35135,5,0
80,128,35576,1,2
208,128,36017,2,0,C|208:288,1,130
336,256,36900,1,0
336,128,37341,5,2
448,184,37782,1,0
448,248,38003,2,0,B|368:248,1,65,0|2
320,224,38444,1,0
256,200,38665,2,0,B|192:152,1,65,0|0
136,160,39106,1,2
136,96,39326,1,0
200,96,39547,1,0
264,96,39767,2,0,B|352:96,1,65,0|2
456,232,40870,6,8,C|456:344|312:328,1,260,0|2
384,96,49694,5,8
464,272,50356,5,0
424,328,50576,2,0,B|384:360|352:312,1,65
328,272,51017,1,0
264,288,51237,2,0,B|184:288,1,65,0|8
64,288,51900,1,0
64,224,52121,1,0
64,224,52231,1,0
64,224,52342,1,0
120,112,52782,1,0
184,120,53002,2,0,B|248:168|184:184,1,65,0|8
96,200,53664,5,0
96,264,53885,1,0
96,264,53996,1,0
96,264,54106,2,0,B|240:264,1,130
288,264,54767,1,0
288,200,54988,2,0,B|288:120,1,65,8|0
288,72,55429,2,0,B|144:72,1,130
96,96,56091,5,0
96,96,56201,1,0
96,96,56311,1,0
80,160,56532,1,0
96,224,56753,1,8
120,240,56863,1,0
144,224,56973,1,0
256,160,57414,5,0
304,120,57635,2,0,B|352:152|288:184,3,65
311,236,58517,1,8
176,232,58959,1,0
112,232,59179,1,0
112,32,59841,1,0
48,32,60061,1,0
48,32,60282,1,8
176,32,60723,5,0
304,32,61164,2,0,B|384:32,1,65,0|0
336,88,61606,1,0
312,152,61826,2,0,B|232:152,1,65,0|8
184,152,62267,1,0
160,216,62488,1,0
208,336,62929,2,0,B|273:336,1,65,0|8
368,240,63591,1,0
416,192,63812,1,0
408,160,63922,1,0
376,160,64032,1,8
184,112,64694,6,0,B|145:98|129:178|193:210,1,130
200,272,65356,1,0
256,304,65577,1,8
312,272,65797,2,0,B|344:192,1,65
88,128,66900,5,0
88,192,67121,1,0
152,192,67341,2,0,B|232:192,1,65,10|0
280,192,67782,1,0
424,32,68665,5,0
424,96,68885,1,0
424,160,69106,2,8,B|344:160,1,65,10|0
360,224,69547,2,0,B|360:304,1,65
360,320,69877,1,0
360,320,69988,1,4
232,320,70429,6,0,B|136:320,1,65
168,256,70871,2,0,B|168:176,1,65,10|0
168,128,71312,2,0,B|72:128,1,65
64,72,71753,1,0
256,72,72414,5,0
320,72,72635,2,0,B|368:88|352:136,2,65,8|0|0
264,104,73297,2,0,B|208:160,1,65,0|8
168,192,73738,1,0
232,192,73959,1,0
232,256,74179,2,0,B|328:256,1,65,0|8
360,256,74620,1,0
360,192,74841,2,0,B|360:96,1,65,0|0
256,192,75282,12,12,77929
400,80,85870,5,2
400,288,86753,1,6
160,288,87635,1,2
160,80,88517,5,2
400,80,89400,1,4
400,288,90282,1,2
160,288,91164,2,0,B|112:272|96:192|144:144|176:128,1,195
240,128,92047,1,4
368,128,92488,1,0
336,184,92709,1,0
296,240,92929,2,0,B|248:288,1,65,2|0
184,288,93370,2,0,B|56:280|16:240|-16:104|200:104,1,390,0|8
152,56,94914,5,8
192,104,95135,1,0
232,56,95356,1,0
296,56,95576,1,8
344,104,95797,1,0
296,144,96017,5,8
296,208,96237,1,0
360,208,96459,2,0,B|400:248|328:272,1,65,2|0
296,296,96900,1,0
168,296,97341,1,6
232,304,97562,2,0,B|216:336|152:352|40:336,1,195,0|0
40,80,99105,5,0
88,120,99326,1,0
152,120,99547,2,0,B|264:216,1,130,0|10
456,48,100870,2,0,B|504:80|504:128|456:176|440:160,1,130,0|8
392,160,101532,2,0,B|312:160,1,65
200,120,102194,2,0,B|120:120|88:72|120:24,1,130,0|6
240,48,103076,5,0
368,48,103517,1,0
496,16,103959,1,0
456,64,104179,1,0
416,112,104400,1,0
368,160,104620,1,0
368,160,104731,1,0
368,160,104841,1,0
48,32,106606,5,0
112,32,106826,1,0
176,32,107047,2,0,C|288:112,1,130,4|0
328,232,107929,1,4
200,240,108370,1,0
168,256,108481,1,0
144,240,108591,1,0
80,240,108812,2,0,C|80:144,1,65,0|0
112,120,109253,1,8
80,64,109473,1,0
144,64,109694,6,0,C|288:64,2,130,0|0|4
16,200,111459,5,0
56,248,111679,1,0
120,248,111900,1,8
184,248,112120,1,0
224,200,112341,2,0,C|288:152,4,65,0|0|0|0|4
96,200,113664,1,0
96,136,113885,1,0
160,136,114106,1,0
224,136,114327,1,0
224,200,114547,2,0,C|224:344,1,130,0|2
480,320,115870,5,8
400,216,116312,1,0
400,88,116753,1,4
272,88,117194,5,0
208,88,117414,1,0
216,152,117635,2,0,C|344:248,1,130
384,232,118297,1,0
384,296,118517,1,4
264,344,118959,1,0
232,288,119179,1,0
176,320,119399,1,0
112,320,119620,1,0
112,256,119841,1,10
112,128,120282,2,0,C|192:48|272:80,1,195
264,80,121053,5,2
264,80,121109,1,2
264,80,121164,1,2
504,128,122047,5,0
504,192,122267,1,0
440,192,122488,2,0,C|280:192,1,130,8|0
176,192,123370,2,0,C|88:192,2,65,0|0|4
400,56,124694,5,0
504,136,125136,1,0
504,136,125246,1,0
504,136,125356,1,0
504,200,125576,1,4
384,64,127561,5,0
384,168,127782,1,0
384,272,128002,1,0
280,272,128223,1,0
280,216,128444,2,0,C|280:72,1,130
176,88,129106,1,4
176,296,129547,5,2
288,120,129988,1,2
184,120,130209,1,2
184,224,130429,1,2
80,224,130650,1,2
48,48,131753,5,8
152,48,131973,2,0,C|72:168,1,130
48,232,132414,1,0
144,280,132635,1,0
248,280,132856,2,0,C|408:280,1,130,0|8
488,280,133517,1,0
480,32,134400,5,4
64,32,135282,1,2
96,128,135503,1,2
200,128,135723,1,2
368,248,136164,1,0
384,64,138150,5,0
384,168,138371,1,0
384,272,138591,1,0
280,272,138812,1,8
200,200,139032,1,8
304,200,139253,1,0
304,96,139473,1,0
208,48,139694,1,4
136,120,139914,1,0
136,224,140134,1,0
216,288,140355,1,0
320,264,140576,1,0
416,216,140797,6,0,C|464:168|416:104,5,130,0|0|0|0|0|8
224,128,142341,1,8
224,256,142562,1,8
360,160,143223,5,0
424,160,143444,2,0,C|456:176|440:224,1,65,0|0
360,304,144106,1,0
240,256,144547,1,0
176,256,144767,2,0,C|176:176,1,65,0|4
176,128,145209,1,0
176,96,145319,1,0
144,96,145429,1,0
144,32,145650,1,0
208,32,145870,1,0
272,32,146091,1,0
272,96,146312,1,0
400,96,146753,5,0
392,160,146974,1,0
368,224,147194,1,0
312,256,147415,1,0
256,224,147635,1,10
232,160,147856,1,0
216,96,148076,2,0,B|86:96,1,130,10|10
216,96,148959,1,0
280,96,149179,1,0
344,96,149400,6,0,B|392:112|360:160,1,65,10|0
432,152,149841,2,0,B|432:248,1,65
432,280,150282,1,8
384,320,150503,2,0,B|288:336|192:272,1,195,10|10
144,240,151385,1,0
184,184,151606,1,0
144,128,151826,1,0
144,64,152047,1,0
208,64,152268,1,0
264,88,152488,1,0
320,64,152709,1,0
384,64,152929,5,2
384,128,153150,1,0
384,192,153370,1,2
384,256,153591,1,2
336,304,153812,1,2
304,304,153922,1,2
272,304,154032,1,2
264,240,154253,1,10
256,208,154363,1,10
232,184,154473,1,10
168,184,154694,2,0,B|296:40|72:24,1,260,8|4
80,72,155797,1,0
80,136,156017,2,0,B|48:200|64:296,1,130,0|10
320,264,157341,6,0,B|384:264|400:216|368:152,1,130
256,128,158223,1,8
128,168,158664,2,0,B|128:312,1,130,0|8
192,296,159326,1,8
256,304,159547,1,8
256,304,159767,1,0
320,296,159988,6,0,B|400:280|384:120,1,195,8|0
344,80,160870,1,4
216,80,161312,1,0
152,80,161533,1,0
152,144,161753,1,0
152,208,161974,1,0
256,192,162194,12,0,163517
368,64,163959,5,0
400,120,164179,1,0
384,184,164400,1,8
320,208,164620,2,0,B|224:224,1,65,0|10
200,176,165062,1,8
160,232,165282,6,8,B|0:248,1,130,8|0
32,112,166164,1,0
216,48,166826,1,0
280,48,167047,2,0,B|360:96|296:160,1,130
432,152,167929,5,0
376,112,168150,1,0
312,112,168370,2,0,C|216:112,1,65,0|0
184,112,168812,2,8,C|184:256,1,130,8|0
184,304,169473,1,0
248,304,169694,2,0,C|392:304,1,130,8|0
376,176,170577,5,0
376,112,170797,1,0
312,112,171018,2,0,C|216:112,1,65
184,112,171459,1,4
120,112,171679,2,0,C|88:144|104:192,3,65,0|0|0|0
24,168,172562,1,0
24,232,172782,2,0,C|104:232,4,65,0|0|0|0|4
344,40,175429,5,0
400,72,175649,2,0,C|464:120,3,65
456,176,176532,1,0
456,240,176753,1,6
392,240,176974,1,0
328,240,177194,1,0
288,184,177415,2,0,C|192:184,3,65,0|0|0|8
160,184,178297,1,0
96,184,178517,5,8
96,120,178738,2,0,C|96:24,1,65,0|0
160,56,179179,2,8,C|160:152,1,65,0|8
88,328,180282,5,0
152,328,180502,2,0,C|296:328,1,130
280,264,181164,5,0
280,200,181385,2,0,C|280:88,1,97.5
280,72,181826,1,0
216,72,182047,1,4
104,136,182488,5,0
104,200,182708,1,0
104,264,182929,2,0,C|200:264,2,65,0|0|0
40,264,183591,1,0
40,328,183812,1,4
104,328,184032,2,0,C|248:328,1,130
288,296,184694,5,8
288,168,185135,1,0
288,40,185576,1,6
168,88,186017,6,2,C|168:168,2,65
224,56,186679,1,0
288,56,186900,1,0
288,120,187120,1,0
288,56,187341,1,4
400,120,187782,1,8
400,183,188003,2,8,C|462:246|334:310|318:230,1,325,8|10
416,48,191312,5,2
416,112,191532,1,2
416,176,191753,1,2
352,176,191973,2,0,C|208:176,1,130
224,112,192634,1,8
96,112,193076,5,0
96,176,193297,1,0
96,112,193517,1,0
160,112,193738,2,0,C|144:160|128:224|208:208|208:176,1,227.5,0|4
96,80,196275,5,0
40,160,196606,1,0
144,160,197157,2,0,C|160:184|392:136|384:168,1,325
64,288,201164,5,0
16,256,201458,1,0
16,176,201790,1,0
32,192,201900,1,0
48,176,202011,1,0
48,176,202341,2,0,C|160:176,1,97.5,0|0
304,176,203278,5,0
368,200,203554,2,0,B|464:232|448:56,1,195
384,64,204437,2,0,C|176:64,1,195
112,120,205539,1,0
112,328,206422,5,0
176,328,206642,1,0
240,328,206863,2,0,C|304:328|288:296|400:296,1,211.25
256,192,208517,12,0,211385
