osu file format v14

[General]
AudioFilename: waiting for the rain TV.mp3
AudioLeadIn: 0
PreviewTime: 69460
Countdown: 0
SampleSet: Soft
StackLeniency: 0.7
Mode: 0
LetterboxInBreaks: 0
WidescreenStoryboard: 0

[Editor]
DistanceSpacing: 1.4
BeatDivisor: 8
GridSize: 4
TimelineZoom: 1

[Metadata]
Title:Waiting for the rain
TitleUnicode:Waiting for the rain
Artist:Maaya Sakamoto
ArtistUnicode:坂本真綾
Creator:Rizia
Version:Easy
Source:学戦都市アスタリスク
Tags:gakusen toshi asterisk ending tv size kawaiwkyik
BeatmapID:799908
BeatmapSetID:364282

[Difficulty]
HPDrainRate:2
CircleSize:3
OverallDifficulty:2
ApproachRate:3
SliderMultiplier:0.8
SliderTickRate:1

[Events]
//Background and Video events
0,0,"k204504.png",0,0
Video,24020,"Video.avi"
//Break Periods
//Storyboard Layer 0 (Background)
//Storyboard Layer 1 (Fail)
//Storyboard Layer 2 (Pass)
//Storyboard Layer 3 (Foreground)
//Storyboard Sound Samples

[TimingPoints]
748,727.272727272727,4,2,1,30,1,0
24020,-100,4,2,1,30,0,0
47293,-100,4,2,1,30,0,0
61111,-100,4,2,1,40,0,0
64020,-100,4,2,1,60,0,0
65657,-100,4,2,1,80,0,0
69838,-66.6666666666667,4,2,1,90,0,0
70566,-50,4,2,1,100,0,1
70747,-50,4,2,1,80,0,1
71293,-50,4,2,1,80,0,1
96838,-50,4,2,1,40,0,0
103838,-100,4,2,1,40,0,0
104929,-100,4,2,1,30,0,0
108384,-100,4,2,1,25,0,0
109111,-100,4,2,1,20,0,0
109838,-100,4,2,1,15,0,0
110566,-100,4,2,1,10,0,0
111293,-100,4,2,1,5,0,0

[Colours]
Combo1 : 255,128,192
Combo2 : 0,128,255
Combo3 : 255,255,0

[HitObjects]
83,231,748,6,0,P|158:108|283:181,1,320,2|2,0:0|0:0,0:0:0:0:
408,304,5111,2,0,P|444:260|448:232,2,80,2|2|2,0:0|0:0|0:0,0:0:0:0:
236,340,8020,2,0,B|188:328|136:376|76:356,2,160,2|2|2,0:0|0:0|0:0,0:0:0:0:
392,255,12384,6,0,P|391:116|254:145,1,320,2|2,0:0|0:0,0:0:0:0:
112,252,16747,1,2,0:0:0:0:
56,84,18202,2,0,B|140:36|248:216|360:136,1,320,2|2,0:0|0:0,0:0:0:0:
364,268,24020,5,2,0:0:0:0:
364,268,25475,2,0,L|284:256,2,80,2|2|0,0:0|0:0|0:0,0:0:0:0:
440,108,28384,2,0,L|360:96,1,80,0|0,0:0|0:0,0:0:0:0:
276,80,29838,5,2,0:0:0:0:
100,68,31293,2,0,P|108:112|112:156,2,80,2|2|0,0:0|0:0|0:0,0:0:0:0:
176,20,33475,2,0,P|192:76|200:184,1,160,2|2,0:0|0:0,0:0:0:0:
188,264,35657,5,2,0:0:0:0:
344,348,37111,2,0,P|384:352|424:340,1,80,2|2,0:0|0:0,0:0:0:0:
484,276,38566,2,0,P|488:232|344:236,1,240,2|0,0:0|0:0,0:0:0:0:
256,232,41475,2,0,L|240:64,1,160,0|0,0:0|0:0,0:0:0:0:
256,192,44384,12,6,47293,0:0:0:0:
76,112,48747,6,0,L|240:100,2,160,0|2|2,0:0|0:0|0:0,0:0:0:0:
56,288,53111,2,0,L|138:282,1,80,2|2,0:0|0:0,0:0:0:0:
220,252,54566,2,0,L|299:257,1,80,2|2,0:0|0:0,0:0:0:0:
376,304,56020,6,0,P|408:272|376:96,1,240,2|2,0:0|0:0,0:0:0:0:
292,112,58929,2,0,P|256:120|212:108,1,80,0|2,0:0|0:0,0:0:0:0:
64,200,61111,6,0,L|72:248,2,40,2|0|2,0:0|0:0|0:0,0:0:0:0:
296,324,64020,2,0,L|302:284,2,40,2|0|2,0:0|0:0|0:0,0:0:0:0:
256,192,64838,12,0,69111,0:0:0:0:
228,84,70566,6,0,L|68:68,1,160,4|8,0:1|0:0,0:0:0:0:
0,124,71657,1,6,0:0:0:0:
244,224,72747,2,0,P|252:184|248:132,1,80,8|0,0:0|0:0,0:0:0:0:
168,176,73475,6,0,P|160:216|164:268,1,80,2|0,0:1|0:0,0:0:0:0:
228,312,74202,1,8,0:0:0:0:
312,288,74566,2,0,L|472:280,1,160,2|0,0:1|0:0,0:0:0:0:
428,204,75657,2,0,L|348:207,1,80,8|0,0:0|0:0,0:0:0:0:
260,212,76384,6,0,P|236:192|264:68,2,160,2|12|0,0:1|0:0|0:0,0:0:0:0:
144,344,78566,1,8,0:0:0:0:
32,208,79293,6,0,P|12:160|68:68,1,160,2|8,0:1|0:0,0:0:0:0:
136,112,80384,2,0,B|168:128|168:128|268:116,2,120,2|8|12,0:1|0:3|0:0,0:0:0:0:
104,284,82202,6,0,B|262:264|262:264,1,160,2|8,0:1|0:0,0:0:0:0:
352,252,83293,1,6,0:0:0:0:
488,24,84384,2,0,P|448:12|400:16,1,80,8|0,0:0|0:0,0:0:0:0:
336,64,85111,6,0,P|296:65|258:53,2,80,2|0|8,0:1|0:0|0:0,0:0:0:0:
416,100,86202,2,0,P|440:132|416:248,1,160,2|0,0:1|0:0,0:0:0:0:
340,276,87293,2,0,L|348:364,1,80,8|0,0:0|0:0,0:0:0:0:
260,348,88020,6,0,L|245:189,2,160,6|8|0,0:1|0:0|0:0,0:0:0:0:
84,356,90202,1,8,0:0:0:0:
44,280,90566,1,0,0:0:0:0:
84,204,90929,6,0,P|128:188|232:244,1,160,6|8,0:1|0:0,0:0:0:0:
380,320,92384,2,0,L|464:312,1,80,2|0,0:1|0:0,0:0:0:0:
488,228,93111,2,0,L|404:236,1,80,8|0,0:0|0:0,0:0:0:0:
320,224,93838,6,0,P|292:192|316:72,1,160,6|8,0:1|0:0,0:0:0:0:
378,39,94929,2,0,P|391:96|364:147,1,120,8|4,0:3|0:3,0:0:0:0:
236,160,96020,2,0,L|144:152,2,80,8|0|4,0:0|0:0|0:0,0:0:0:0:
256,192,96838,12,0,102566,0:0:0:0:
152,216,104020,6,0,B|192:216|228:204|228:204|272:220|272:220|308:212|357:219,1,210,0|0,0:0|0:0,0:0:0:0:
256,192,106020,12,0,111293,0:0:0:0:
