osu file format v14

[General]
AudioFilename: amanchu.mp3
AudioLeadIn: 0
PreviewTime: 54122
Countdown: 0
SampleSet: Soft
StackLeniency: 0.4
Mode: 0
LetterboxInBreaks: 0
WidescreenStoryboard: 0

[Editor]
DistanceSpacing: 1
BeatDivisor: 4
GridSize: 4
TimelineZoom: 1.9

[Metadata]
Title:Million Clouds
TitleUnicode:Million Clouds
Artist:Maaya Sakamoto
ArtistUnicode:坂本真綾
Creator:Yamicchi
Version:Easy
Source:あまんちゅ!
Tags:opening op amanchu! depzdai LMT Kocari
BeatmapID:1321437
BeatmapSetID:627050

[Difficulty]
HPDrainRate:2.8
CircleSize:2.7
OverallDifficulty:2.5
ApproachRate:2.6
SliderMultiplier:0.999999999999999
SliderTickRate:1

[Events]
//Background and Video events
0,0,"background.jpg",0,0
Video,1888,"Million Clouds.avi"
//Break Periods
//Storyboard Layer 0 (Background)
//Storyboard Layer 1 (Fail)
//Storyboard Layer 2 (Pass)
//Storyboard Layer 3 (Foreground)
//Storyboard Sound Samples

[TimingPoints]
835,419.58041958042,4,2,1,5,1,0
2513,-100,4,2,1,30,0,0
12583,418.994413407821,4,2,1,30,1,0
19286,419.58041958042,4,2,1,30,1,0
22642,422.535211267606,4,2,1,30,1,0
24332,419.58041958042,4,2,1,30,1,0
24332,-100,4,2,1,30,0,0
26009,-100,4,2,1,30,0,0
37758,-100,4,2,1,30,0,0
54541,-100,4,2,23,50,0,1
81394,-100,4,2,1,30,0,0
94821,-100,4,2,1,10,0,0
95660,-100,4,2,1,30,0,0
97339,-100,4,2,1,5,0,0

[Colours]
Combo1 : 255,159,64
Combo2 : 255,128,192
Combo3 : 1,235,78
Combo4 : 98,157,255

[HitObjects]
40,216,2513,6,0,B|56:168|32:120|32:120|8:64|40:8,2,200,4|0|2,0:0|0:0|0:0,0:0:0:0:
40,216,5450,1,0,0:0:0:0:
110,287,5869,6,0,B|158:303|206:279|206:279|262:255|318:287,2,200,4|0|2,0:0|0:0|0:0,0:0:0:0:
27,104,8387,2,0,P|79:90|135:105,1,99.9999999999999,0|0,0:0|0:0,0:0:0:0:
216,136,9226,5,0,0:0:0:0:
311,18,9855,2,0,P|362:102|352:200,1,200,0|0,0:0|0:0,0:0:0:0:
352,199,12163,1,0,0:0:0:0:
264,248,12583,6,0,B|204:240|204:240|124:260|124:260|64:252,2,200,4|0|2,0:0|0:0|0:0,0:0:0:0:
264,248,15515,1,0,0:0:0:0:
352,199,15934,6,0,B|400:171|392:111|392:111|348:64|284:83,2,200,4|0|2,0:0|0:0|0:0,0:0:0:0:
164,248,18448,2,0,P|180:192|216:160,1,99.9999999999999,0|0,0:0|0:0,0:0:0:0:
264,248,19286,5,0,0:0:0:0:
152,348,19915,2,0,P|72:292|88:180,1,200,0|0,0:0|0:0,0:0:0:0:
75,197,22642,6,0,P|97:152|92:92,1,99.9999999999999,4|0,0:0|0:0,0:0:0:0:
190,70,23487,2,0,P|162:28|107:2,1,99.9999999999999,0|0,0:0|0:0,0:0:0:0:
22,32,24332,1,2,0:0:0:0:
288,328,26009,6,0,B|272:280|296:232|296:232|264:180|288:128,1,200,4|0,0:0|0:0,0:0:0:0:
377,173,27268,1,0,0:0:0:0:
448,244,27688,2,0,P|476:184|436:92,2,150,2|0|0,0:0|0:0|0:0,0:0:0:0:
352,270,29366,6,0,B|292:260|292:260|228:276|228:276|168:240|92:272,1,250,4|0,0:0|0:0,0:0:0:0:
4,376,31044,2,0,L|0:276,1,99.9999999999999,2|0,0:0|0:0,0:0:0:0:
55,194,31884,2,0,L|59:94,1,99.9999999999999,0|0,0:0|0:0,0:0:0:0:
140,36,32723,6,0,B|188:53|240:33|240:33|272:45|272:45|336:21|388:45,1,250,4|0,0:0|0:0,0:0:0:0:
468,164,34401,2,0,L|464:272,1,99.9999999999999,2|0,0:0|0:0,0:0:0:0:
396,336,35240,2,0,L|288:332,1,99.9999999999999,2|0,0:0|0:0,0:0:0:0:
204,368,36079,6,0,P|216:276|308:236,1,200,6|0,0:0|0:0,0:0:0:0:
408,232,37338,1,0,0:0:0:0:
424,132,37758,5,4,0:0:0:0:
256,24,38597,1,0,0:0:0:0:
88,132,39437,6,0,B|96:164|80:196|80:196|92:228|80:264|80:264|68:300|84:336,1,200,6|0,0:0|0:0,0:0:0:0:
176,296,40695,1,0,0:0:0:0:
256,236,41115,2,0,P|274:305|234:377,2,150,0|0|0,0:0|0:0|0:0,0:0:0:0:
164,196,42793,6,0,P|288:200|363:90,1,250,2|0,0:0|0:0,0:0:0:0:
232,32,44471,2,0,P|180:24|128:40,1,99.9999999999999,4|0,0:0|0:0,0:0:0:0:
48,84,45311,2,0,P|15:125|2:178,1,99.9999999999999,0|0,0:0|0:0,0:0:0:0:
44,260,46150,6,0,B|88:244|136:264|136:264|196:384|328:328,1,300,2|0,0:0|0:0,0:0:0:0:
396,292,47828,2,0,P|400:212|400:184,1,99.9999999999999,4|0,0:0|0:0,0:0:0:0:
312,144,48667,2,0,P|308:64|308:36,1,99.9999999999999,0|0,0:0|0:0,0:0:0:0:
208,48,49506,6,0,P|108:40|52:128,1,200,2|0,0:0|0:0,0:0:0:0:
151,130,50765,1,0,0:0:0:0:
256,192,51185,12,0,52863,0:0:0:0:
364,212,54541,6,0,B|424:208|424:208|472:224|516:216,2,150,4|8|8,0:0|0:0|0:0,0:0:0:0:
276,260,56220,2,0,P|263:210|286:149,1,99.9999999999999,4|8,0:0|0:0,0:0:0:0:
276,64,57059,2,0,P|325:77|367:128,1,99.9999999999999,0|8,0:0|0:0,0:0:0:0:
364,212,57898,6,0,B|369:273|369:273|353:321|361:369,2,150,4|8|8,0:0|0:0|0:0,0:0:0:0:
275,164,59576,2,0,B|192:196|120:156,1,150,4|8,0:0|0:0,0:0:0:0:
168,68,60625,1,2,0:0:0:0:
320,72,61255,6,0,P|372:136|361:218,2,150,4|8|8,0:0|0:0|0:0,0:0:0:0:
275,164,62933,2,0,P|280:224|281:268,1,99.9999999999999,4|8,0:0|0:0,0:0:0:0:
216,340,63772,2,0,P|156:345|112:346,1,99.9999999999999,2|8,0:0|0:0,0:0:0:0:
32,288,64611,6,0,B|20:244|36:200|36:200|56:152|40:96|40:96|92:132|144:108,1,300,4|8,0:0|0:0,0:0:0:0:
240,108,66290,2,0,B|284:72|338:93|338:93|322:149|342:197|342:197|358:241|346:285,1,300,4|8,0:0|0:0,0:0:0:0:
259,335,67968,6,0,P|187:319|99:347,2,150,4|8|8,0:0|0:0|0:0,0:0:0:0:
353,369,69646,2,0,L|461:361,1,99.9999999999999,4|8,0:0|0:0,0:0:0:0:
505,276,70485,2,0,L|497:176,1,99.9999999999999,0|8,0:0|0:0,0:0:0:0:
399,154,71325,6,0,P|440:93|520:79,2,150,4|8|8,0:0|0:0|0:0,0:0:0:0:
312,204,73003,2,0,P|238:198|186:136,2,150,4|8|8,0:0|0:0|0:0,0:0:0:0:
398,254,74681,6,0,B|424:320|376:368|376:368|336:352|292:360,1,200,4|0,0:0|0:0,0:0:0:0:
216,308,75940,1,8,0:0:0:0:
136,368,76360,2,0,P|124:268|204:208,1,200,4|0,0:0|0:0,0:0:0:0:
392,244,78038,6,0,B|406:209|395:170|395:170|430:95|384:32,1,200,4|6,0:0|0:0,0:0:0:0:
208,112,79716,2,0,P|72:136|4:136,1,200,4|6,0:0|0:0,0:0:0:0:
0,236,80975,1,2,0:0:0:0:
52,320,81395,6,0,B|104:328|148:300|148:300|196:328|248:320,2,200,4|0|2,0:0|0:0|0:0,0:0:0:0:
52,320,84332,1,0,0:0:0:0:
0,236,84751,6,0,B|-8:168|-8:168|12:104|12:104|4:36,2,200,4|0|2,0:0|0:0|0:0,0:0:0:0:
184,316,87269,2,0,P|200:280|200:216,1,99.9999999999999,0|0,0:0|0:0,0:0:0:0:
132,148,88108,6,0,P|104:76|132:4,2,150,0|0|0,0:0|0:0|0:0,0:0:0:0:
200,220,89786,1,2,0:0:0:0:
200,220,91464,6,0,B|260:196|328:224|328:224|368:204|408:212,1,200,4|0,0:0|0:0,0:0:0:0:
468,280,92723,1,0,0:0:0:0:
408,360,93143,6,0,B|338:292|396:210|396:210|424:196|458:196|458:196|536:124|476:28,1,400,6|0,0:0|0:0,0:0:0:0:
256,192,95031,12,0,97339,0:0:0:0:
