osu file format v14

[General]
AudioFilename: amanchu.mp3
AudioLeadIn: 0
PreviewTime: 54122
Countdown: 0
SampleSet: Soft
StackLeniency: 0.4
Mode: 0
LetterboxInBreaks: 0
WidescreenStoryboard: 0

[Editor]
DistanceSpacing: 1.3
BeatDivisor: 4
GridSize: 4
TimelineZoom: 1.9

[Metadata]
Title:Million Clouds
TitleUnicode:Million Clouds
Artist:Maaya Sakamoto
ArtistUnicode:坂本真綾
Creator:Yamicchi
Version:Advanced
Source:あまんちゅ!
Tags:opening op amanchu! depzdai LMT Kocari
BeatmapID:1321476
BeatmapSetID:627050

[Difficulty]
HPDrainRate:4.5
CircleSize:3.5
OverallDifficulty:5
ApproachRate:6
SliderMultiplier:1.3
SliderTickRate:1

[Events]
//Background and Video events
0,0,"background.jpg",0,0
Video,1888,"Million Clouds.avi"
//Break Periods
//Storyboard Layer 0 (Background)
//Storyboard Layer 1 (Fail)
//Storyboard Layer 2 (Pass)
//Storyboard Layer 3 (Foreground)
//Storyboard Sound Samples

[TimingPoints]
835,419.58041958042,4,2,1,5,1,0
2513,-100,4,2,1,30,0,0
12583,418.994413407821,4,2,1,30,1,0
19286,419.58041958042,4,2,1,30,1,0
22642,422.535211267606,4,2,1,30,1,0
24332,419.58041958042,4,2,1,30,1,0
24332,-100,4,2,1,30,0,0
26009,-100,4,2,1,30,0,0
37758,-100,4,2,1,30,0,0
54541,-100,4,2,23,50,0,1
81394,-100,4,2,1,30,0,0
94821,-100,4,2,1,10,0,0
95660,-100,4,2,1,30,0,0
97339,-100,4,2,1,5,0,0

[Colours]
Combo1 : 255,159,64
Combo2 : 255,128,192
Combo3 : 1,235,78
Combo4 : 98,157,255

[HitObjects]
92,284,2093,6,0,P|124:288|160:284,1,65,0|0,0:0|0:0,0:0:0:0:
216,224,2513,2,0,P|216:320|372:320,1,260,4|0,0:0|0:0,0:0:0:0:
456,204,3772,2,0,P|454:171|447:139,1,65,0|0,0:0|0:0,0:0:0:0:
428,56,4191,5,2,0:0:0:0:
428,56,5450,2,0,P|388:64|356:64,1,65,0|0,0:0|0:0,0:0:0:0:
292,16,5869,6,0,B|268:48|276:108|312:132|312:132|400:144|400:236,1,260,4|0,0:0|0:0,0:0:0:0:
304,356,7128,2,0,P|264:364|232:364,1,65,0|0,0:0|0:0,0:0:0:0:
156,356,7548,5,2,0:0:0:0:
156,356,8387,2,0,P|123:357|91:364,2,65,0|0|0,0:0|0:0|0:0,0:0:0:0:
239,364,9016,1,4,0:0:0:0:
312,320,9226,6,0,P|343:265|308:184,1,130,0|0,0:0|0:0,0:0:0:0:
335,118,9855,2,0,P|253:161|260:252,1,195,0|0,0:0|0:0,0:0:0:0:
312,320,10695,1,0,0:0:0:0:
312,320,12163,2,0,L|384:316,1,65,0|0,0:0|0:0,0:0:0:0:
444,264,12583,6,0,B|496:216|496:128|444:80|444:80|400:80|368:108,1,260,4|0,0:0|0:0,0:0:0:0:
312,240,13839,2,0,P|272:248|240:240,1,65,0|0,0:0|0:0,0:0:0:0:
176,200,14258,5,2,0:0:0:0:
176,200,15515,2,0,L|180:276,1,65,0|0,0:0|0:0,0:0:0:0:
100,296,15934,6,0,B|95:169|95:169|132:96|212:120,1,260,4|0,0:0|0:0,0:0:0:0:
371,88,17191,2,0,B|407:96|443:84,1,65,0|0,0:0|0:0,0:0:0:0:
488,152,17610,5,2,0:0:0:0:
488,152,18448,2,0,L|492:84,2,65,0|0|0,0:0|0:0|0:0,0:0:0:0:
432,216,19077,1,4,0:0:0:0:
352,188,19286,6,0,P|284:168|226:208,1,130,0|0,0:0|0:0,0:0:0:0:
187,125,19915,2,0,P|152:210|217:276,1,195,0|0,0:0|0:0,0:0:0:0:
298,251,20754,1,0,0:0:0:0:
298,251,22432,1,0,0:0:0:0:
244,316,22642,6,0,B|184:324|184:324|108:308|108:308|24:320,1,195,4|0,0:0|0:0,0:0:0:0:
4,248,23487,2,0,P|0:208|8:176,1,65,0|0,0:0|0:0,0:0:0:0:
36,104,23909,1,0,0:0:0:0:
204,92,24332,5,2,0:0:0:0:
204,92,26009,6,0,B|240:76|284:92|284:92|312:84|312:84|352:104|400:88,1,195,4|0,0:0|0:0,0:0:0:0:
468,128,26849,2,0,L|472:204,1,65,0|0,0:0|0:0,0:0:0:0:
440,272,27269,1,0,0:0:0:0:
360,240,27478,1,0,0:0:0:0:
376,328,27688,6,0,L|228:316,1,130,2|0,0:0|0:0,0:0:0:0:
176,364,28317,2,0,L|28:376,1,130,0|0,0:0|0:0,0:0:0:0:
12,296,28947,2,0,L|96:288,1,65,0|0,0:0|0:0,0:0:0:0:
156,260,29366,6,0,P|172:232|172:180,2,65,4|0|0,0:0|0:0|0:0,0:0:0:0:
89,205,29995,2,0,L|76:68,2,130,0|0|0,0:0|0:0|0:0,0:0:0:0:
156,260,31044,6,0,P|220:240|284:260,1,130,2|0,0:0|0:0,0:0:0:0:
352,304,31674,2,0,P|380:308|420:304,1,65,0|0,0:0|0:0,0:0:0:0:
492,264,32093,1,2,0:0:0:0:
492,264,32303,1,0,0:0:0:0:
464,96,32723,6,0,P|456:60|464:28,2,65,4|0|0,0:0|0:0|0:0,0:0:0:0:
386,129,33352,2,0,P|372:68|390:-15,2,130,0|0|0,0:0|0:0|0:0,0:0:0:0:
308,162,34401,6,0,P|272:168|244:168,1,65,2|0,0:0|0:0,0:0:0:0:
196,240,34821,2,0,P|160:234|132:234,1,65,0|0,0:0|0:0,0:0:0:0:
48,216,35240,1,2,0:0:0:0:
73,297,35450,1,0,0:0:0:0:
98,378,35660,2,0,P|148:368|176:368,1,65,0|0,0:0|0:0,0:0:0:0:
232,320,36079,6,0,P|336:340|424:312,1,195,6|0,0:0|0:0,0:0:0:0:
496,284,36919,2,0,P|479:257|436:232,1,65,0|0,0:0|0:0,0:0:0:0:
368,244,37338,1,0,0:0:0:0:
416,80,37758,5,4,0:0:0:0:
416,80,38597,1,0,0:0:0:0:
416,80,39436,6,0,B|364:72|364:72|328:100|284:104|284:104|228:96,1,195,6|0,0:0|0:0,0:0:0:0:
152,60,40275,1,0,0:0:0:0:
81,109,40484,1,0,0:0:0:0:
88,195,40695,2,0,L|84:264,1,65,0|4,0:0|0:0,0:0:0:0:
144,320,41114,6,0,P|192:296|292:304,1,130,0|0,0:0|0:0,0:0:0:0:
328,356,41743,2,0,P|352:276|264:208,1,195,0|0,0:0|0:0,0:0:0:0:
192,212,42582,1,0,0:0:0:0:
120,168,42793,6,0,P|108:212|120:256,2,65,2|0|0,0:0|0:0|0:0,0:0:0:0:
192,128,43422,2,0,L|56:112,2,130,0|0|0,0:0|0:0|0:0,0:0:0:0:
268,168,44470,5,4,0:0:0:0:
320,104,44681,2,0,P|344:136|316:236,1,130,0|0,0:0|0:0,0:0:0:0:
252,252,45310,1,0,0:0:0:0:
260,336,45519,1,0,0:0:0:0:
344,356,45730,2,0,P|380:348|420:348,1,65,0|0,0:0|0:0,0:0:0:0:
488,324,46149,6,0,L|492:260,1,65,2|0,0:0|0:0,0:0:0:0:
435,198,46568,1,0,0:0:0:0:
501,146,46779,2,0,L|509:6,2,130,0|0|0,0:0|0:0|0:0,0:0:0:0:
435,198,47828,5,4,0:0:0:0:
360,156,48038,2,0,P|350:193|363:246,1,65,0|0,0:0|0:0,0:0:0:0:
412,280,48457,1,0,0:0:0:0:
344,332,48667,2,0,L|272:336,1,65,0|0,0:0|0:0,0:0:0:0:
212,284,49087,2,0,L|140:280,1,65,0|0,0:0|0:0,0:0:0:0:
84,224,49506,6,0,P|64:160|100:96,1,130,2|0,0:0|0:0,0:0:0:0:
172,86,50136,1,0,0:0:0:0:
152,168,50346,2,0,L|220:164,1,65,0|0,0:0|0:0,0:0:0:0:
288,116,50765,2,0,L|352:119,1,65,0|0,0:0|0:0,0:0:0:0:
256,192,51185,12,0,53702,0:0:0:0:
216,120,54541,6,0,B|260:108|260:108|344:116,1,130,4|8,0:0|0:0,0:0:0:0:
408,172,55171,1,8,0:0:0:0:
452,243,55380,2,0,P|422:255|390:255,1,65,0|2,0:0|0:0,0:0:0:0:
328,198,55800,2,0,P|308:240|312:280,1,65,8|2,0:0|0:0,0:0:0:0:
276,336,56220,6,0,L|128:324,1,130,4|8,0:0|0:0,0:0:0:0:
92,260,56849,1,8,0:0:0:0:
56,182,57059,2,0,P|87:174|120:179,1,65,0|2,0:0|0:0,0:0:0:0:
205,163,57478,1,8,0:0:0:0:
233,82,57688,1,2,0:0:0:0:
150,98,57898,6,0,L|160:256,1,130,4|8,0:0|0:0,0:0:0:0:
241,243,58527,1,8,0:0:0:0:
329,251,58737,2,0,P|360:226|375:200,1,65,0|2,0:0|0:0,0:0:0:0:
292,171,59157,1,8,0:0:0:0:
205,163,59367,1,2,0:0:0:0:
153,235,59576,6,0,P|132:304|156:376,1,130,4|8,0:0|0:0,0:0:0:0:
228,380,60206,2,0,L|296:372,1,65,8|0,0:0|0:0,0:0:0:0:
348,308,60625,2,0,L|416:316,1,65,2|8,0:0|0:0,0:0:0:0:
484,364,61045,1,2,0:0:0:0:
484,364,61255,6,0,P|472:296|472:228,1,130,4|8,0:0|0:0,0:0:0:0:
424,164,61884,2,0,P|428:128|428:96,2,65,8|0|2,0:0|0:0|0:0,0:0:0:0:
384,240,62513,2,0,P|356:218|341:188,1,65,8|2,0:0|0:0,0:0:0:0:
260,170,62933,6,0,P|236:192|224:222,1,65,4|2,0:0|0:0,0:0:0:0:
228,308,63353,2,0,L|164:304,1,65,8|8,0:0|0:0,0:0:0:0:
100,248,63772,1,2,0:0:0:0:
80,164,63982,1,2,0:0:0:0:
164,144,64192,1,8,0:0:0:0:
184,228,64402,6,0,L|200:272,2,32.5,2|0|4,0:0|0:0|0:0,0:0:0:0:
268,208,64821,1,2,0:0:0:0:
248,124,65031,2,0,L|256:44,1,65,8|8,0:0|0:0,0:0:0:0:
332,24,65450,2,0,L|340:104,1,65,0|2,0:0|0:0,0:0:0:0:
404,140,65870,1,8,0:0:0:0:
480,104,66080,1,2,0:0:0:0:
480,104,66290,6,0,L|472:244,1,130,4|8,0:0|0:0,0:0:0:0:
416,300,66919,2,0,P|356:280|280:304,1,130,8|2,0:0|0:0,0:0:0:0:
232,352,67548,2,0,P|212:316|212:284,1,65,8|2,0:0|0:0,0:0:0:0:
252,220,67968,6,0,L|116:208,1,130,4|8,0:0|0:0,0:0:0:0:
72,140,68597,1,8,0:0:0:0:
0,175,68807,2,0,P|11:201|39:218,1,65,0|2,0:0|0:0,0:0:0:0:
122,208,69227,2,0,L|136:300,1,65,8|2,0:0|0:0,0:0:0:0:
88,344,69646,6,0,P|136:324|228:320,1,130,4|8,0:0|0:0,0:0:0:0:
292,348,70276,1,8,0:0:0:0:
352,288,70485,2,0,P|394:294|425:293,1,65
496,264,70905,1,8,0:0:0:0:
487,179,71115,1,2,0:0:0:0:
415,133,71325,6,0,P|349:119|279:154,1,130,4|8,0:0|0:0,0:0:0:0:
220,185,71954,1,8,0:0:0:0:
197,266,72164,2,0,L|120:277,1,65
48,277,72583,1,8,0:0:0:0:
7,203,72793,1,2,0:0:0:0:
92,203,73003,6,0,L|230:184,1,130,4|8,0:0|0:0,0:0:0:0:
294,222,73632,2,0,P|333:211|357:191,2,65,8|0|2,0:0|0:0|0:0,0:0:0:0:
288,136,74262,2,0,P|280:96|280:64,1,65,8|2,0:0|0:0,0:0:0:0:
212,20,74681,6,0,L|64:16,1,130,4|8,0:0|0:0,0:0:0:0:
8,60,75311,2,0,P|12:108|12:132,1,65,10|0,0:0|0:0,0:0:0:0:
60,196,75730,1,2,0:0:0:0:
136,164,75940,1,8,0:0:0:0:
212,196,76150,6,0,L|216:232,2,32.5,2|8|4,0:0|0:0|0:0,0:0:0:0:
288,164,76569,1,0,0:0:0:0:
368,192,76779,2,0,P|376:224|368:280,1,65,8|8,0:0|0:0,0:0:0:0:
316,316,77199,2,0,L|248:312,1,65,0|2,0:0|0:0,0:0:0:0:
180,360,77618,1,8,0:0:0:0:
100,332,77828,6,0,L|96:376,2,32.5,2|8|4,0:0|0:0|0:0,0:0:0:0:
36,276,78248,1,0,0:0:0:0:
60,196,78457,2,0,L|72:120,1,65,8|8,0:0|0:0,0:0:0:0:
132,72,78877,5,6,0:0:0:0:
216,64,79087,1,0,0:0:0:0:
300,56,79297,2,0,L|368:64,1,65,8|2,0:0|0:0,0:0:0:0:
424,124,79716,5,4,0:0:0:0:
360,180,79926,2,0,L|364:224,2,32.5,0|0|8,0:0|0:0|0:0,0:0:0:0:
284,140,80346,1,8,0:0:0:0:
220,196,80555,2,0,L|224:240,2,32.5,6|0|8,0:0|0:0|0:0,0:0:0:0:
140,169,80975,2,0,L|96:173,2,32.5,2|8|8,0:0|0:0|0:0,0:0:0:0:
116,88,81395,6,0,L|380:72,1,260,4|0,0:0|0:0,0:0:0:0:
452,224,82653,2,0,L|388:220,1,65,0|0,0:0|0:0,0:0:0:0:
324,160,83073,6,0,B|340:212|320:256|320:256|360:308|340:364,1,195,2|0,0:0|0:0,0:0:0:0:
344,346,84332,2,0,L|276:352,1,65,0|0,0:0|0:0,0:0:0:0:
230,282,84751,6,0,B|191:310|192:361|192:361|92:349|106:240,1,260,4|0,0:0|0:0,0:0:0:0:
120,72,86010,2,0,P|84:56|48:60,1,65
72,140,86430,5,2,0:0:0:0:
72,140,87269,2,0,P|39:139|10:124,2,65,0|0|0,0:0|0:0|0:0,0:0:0:0:
120,72,87898,1,4,0:0:0:0:
158,147,88108,6,0,B|178:153|202:147|202:147|252:168|305:134,1,130
356,99,88737,2,0,B|380:147|355:192|355:192|384:249|356:301,1,195
296,337,89576,2,0,L|220:341,1,65,0|2,0:0|0:0,0:0:0:0:
231,340,91255,1,0,0:0:0:0:
312,357,91464,6,0,L|508:345,1,195,4|0,0:0|0:0,0:0:0:0:
476,265,92304,2,0,L|387:270,2,65,0|0|0,0:0|0:0|0:0,0:0:0:0:
324,189,93143,5,6,0:0:0:0:
256,192,93248,12,0,97339,0:0:0:0:
