osu file format v14

[General]
AudioFilename: clear.mp3
AudioLeadIn: 0
PreviewTime: 55111
Countdown: 0
SampleSet: Soft
StackLeniency: 0.7
Mode: 0
LetterboxInBreaks: 0
WidescreenStoryboard: 0

[Editor]
DistanceSpacing: 1
BeatDivisor: 4
GridSize: 8
TimelineZoom: 4.643998

[Metadata]
Title:CLEAR
TitleUnicode:CLEAR
Artist:Maaya Sakamoto
ArtistUnicode:坂本真綾
Creator:Underforest
Version:Normal
Source:カードキャプターさくら クリアカード編
Tags:Cardcaptor Card Captor Sakura Clear Card Hen Kaadokyaputaa Kuria Kaado Arc First Opening TV Size Hazu-
BeatmapID:1515322
BeatmapSetID:717166

[Difficulty]
HPDrainRate:4
CircleSize:3
OverallDifficulty:4
ApproachRate:5
SliderMultiplier:1.2
SliderTickRate:1

[Events]
//Background and Video events
0,0,"bg.jpg",0,0
Video,-227,"video.avi"
//Break Periods
//Storyboard Layer 0 (Background)
//Storyboard Layer 1 (Fail)
//Storyboard Layer 2 (Pass)
//Storyboard Layer 3 (Foreground)
//Storyboard Sound Samples

[TimingPoints]
991,769.230769230769,4,2,1,40,1,0
19452,-100,4,2,2,20,0,0
20361,363.636363636364,4,2,1,50,1,0
20542,363.636363636364,4,2,1,60,1,0
20930,363.636363636364,4,2,1,70,1,0
22729,363.636363636364,4,2,1,70,1,0
23092,363.636363636364,4,2,1,70,1,0
23820,363.636363636364,4,2,1,70,1,0
29638,-100,4,2,1,60,0,0
50001,-100,4,2,1,50,0,0
52930,363.636363636364,4,2,1,70,1,0
55630,363.636363636364,4,2,1,80,1,1
55811,363.636363636364,4,2,1,80,1,1
66901,-100,4,2,1,80,0,0
67265,-100,4,2,1,80,0,1
81629,-100,4,2,1,80,0,0
81993,363.636363636364,4,2,1,80,1,1
84379,363.636363636364,4,2,1,80,1,1
84925,363.636363636364,4,2,1,70,1,0
87426,363.636363636364,5,2,1,70,1,0
87607,-100,4,2,1,60,0,0
87971,-100,4,2,1,50,0,0
88335,-100,4,2,1,40,0,0
88698,-100,4,2,1,30,0,0
88880,-100,4,2,1,20,0,0
89062,-100,4,2,1,10,0,0
89244,-100,4,2,1,5,0,0

[Colours]
Combo1 : 176,15,238
Combo2 : 137,140,243
Combo3 : 242,203,45
Combo4 : 240,0,6
Combo5 : 188,248,7
Combo6 : 255,168,255
SliderTrackOverride : 30,30,30
SliderBorder : 255,0,128

[HitObjects]
73,78,4067,6,0,L|207:65,1,120,2|2,3:2|0:0,0:0:0:0:
252,170,5606,2,0,L|132:181,1,120,2|2,3:2|0:0,0:0:0:0:
21,225,7144,2,0,P|29:278|83:328,1,120,2|2,3:2|0:0,0:0:0:0:
194,325,8683,2,0,P|255:329|320:293,1,120,2|2,3:2|3:2,0:0:0:0:
384,212,10221,6,0,L|401:73,1,120,2|2,3:2|3:2,0:0:0:0:
284,55,11760,2,0,L|269:174,1,120,2|0,3:2|0:0,0:0:0:0:
211,279,13298,2,0,P|161:283|87:232,1,120,2|2,3:2|0:0,0:0:0:0:
129,134,14837,2,0,P|179:130|235:160,1,90,2|2,3:2|3:2,0:0:0:0:
261,183,15798,1,2,3:2:0:0:
320,250,16375,6,0,L|427:240,2,90,2|2|0,3:2|3:2|0:0,0:0:0:0:
289,252,17721,1,2,3:2:0:0:
256,192,17914,12,2,19452,0:0:0:0:
71,98,20542,5,8,1:2:0:0:
71,98,20930,6,0,L|198:87,1,120,14|10,0:0|0:0,0:0:0:0:
245,194,21657,2,0,L|125:204,1,120,10|10,0:0|0:0,0:0:0:0:
91,319,22384,2,0,L|210:308,1,114,10|8,0:0|0:0,0:0:0:0:
323,292,23092,2,0,P|375:280|399:264,1,60,8|2,0:0|0:0,0:0:0:0:
428,241,23455,2,0,P|449:197|451:173,1,60,10|2,0:0|0:0,0:0:0:0:
452,125,23819,6,0,L|327:112,1,120,14|10,1:2|3:2,0:0:0:0:
214,129,24547,2,0,L|94:141,1,120,2|10,1:2|3:2,0:0:0:0:
25,239,25274,2,0,P|80:263|141:255,1,120,2|10,3:2|0:0,0:0:0:0:
198,248,25820,2,0,P|256:241|311:265,1,120,2|0,3:2|1:0,0:0:0:0:
367,285,26365,2,0,P|424:282|443:271,1,60,10|2,3:2|3:2,0:0:0:0:
452,227,26729,6,0,L|468:104,1,120,2|10,1:2|3:2,0:0:0:0:
363,48,27456,2,0,L|347:166,1,120,2|10,1:2|3:2,0:0:0:0:
324,287,28183,2,0,P|268:307|206:289,1,120,2|14,3:2|0:0,0:0:0:0:
151,281,28729,2,0,L|163:150,1,120,2|0,3:2|1:0,0:0:0:0:
194,110,29274,2,0,P|219:83|262:70,1,60,10|2,3:2|3:2,0:0:0:0:
297,55,29638,6,0,B|357:44|357:44|423:56,1,120,6|8,1:0|0:0,0:0:0:0:
455,166,30365,2,0,P|462:208|442:283,1,120,2|8,1:2|0:0,0:0:0:0:
393,316,30910,2,0,L|246:317,1,120,2|2,3:2|0:0,0:0:0:0:
161,274,31638,2,0,P|87:276|36:232,2,120,2|2|2,0:0|1:2|0:0,0:0:0:0:
188,221,32547,6,0,L|205:95,1,120,2|8,3:2|0:0,0:0:0:0:
250,64,33092,2,0,P|307:57|378:82,1,120,2|2,0:0|1:2,0:0:0:0:
427,178,33820,2,0,P|434:228|404:296,1,120,2|2,1:2|0:0,0:0:0:0:
367,334,34365,1,10,0:0:0:0:
252,297,34729,2,0,L|240:369,2,60,2|0|10,1:2|1:2|0:0,0:0:0:0:
153,228,35456,6,0,P|106:227|43:192,1,120,6|8,3:1|0:0,0:0:0:0:
129,109,36183,2,0,L|256:100,1,120,2|10,1:2|0:0,0:0:0:0:
305,120,36729,2,0,L|432:129,1,120,2|2,3:2|0:0,0:0:0:0:
482,234,37456,2,0,P|498:295|456:355,1,120,2|0,0:0|1:2,0:0:0:0:
419,369,38001,1,10,0:0:0:0:
308,321,38365,6,0,L|187:313,1,120,2|8,3:2|0:0,0:0:0:0:
131,293,38910,1,2,0:0:0:0:
131,293,39092,2,0,P|77:271|58:202,1,120,2|8,1:2|0:0,0:0:0:0:
51,156,39638,5,2,0:3:0:0:
167,126,40001,1,2,0:3:0:0:
283,95,40365,1,2,0:3:0:0:
398,62,40729,2,0,L|409:143,1,60,0|4,0:3|0:1,0:0:0:0:
472,221,41274,6,0,P|432:239|347:225,1,120,6|8,3:2|0:0,0:0:0:0:
301,210,41820,2,0,P|242:199|186:219,1,120,6|0,0:0|1:2,0:0:0:0:
136,252,42365,1,14,0:0:0:0:
136,252,42547,1,2,3:2:0:0:
68,351,42910,2,0,P|124:373|203:355,1,120,2|2,1:2|1:2,0:0:0:0:
302,358,43638,2,0,L|312:292,1,60,2|14,1:2|0:1,0:0:0:0:
314,179,44183,6,0,P|255:148|180:161,1,120,6|10,3:2|0:0,0:0:0:0:
90,109,44910,2,0,L|103:167,1,60,0|2,1:2|1:2,0:0:0:0:
114,226,45274,1,8,0:0:0:0:
114,226,45456,2,0,L|99:355,1,120,6|2,3:1|1:2,0:0:0:0:
218,366,46183,2,0,L|231:246,1,120,2|2,1:2|1:2,0:0:0:0:
238,186,46729,1,14,0:1:0:0:
320,98,47092,6,0,P|353:90|404:104,1,60,6|0,3:2|0:0,0:0:0:0:
433,118,47456,1,8,0:0:0:0:
483,150,47638,2,0,L|470:275,1,120,6|2,0:0|1:2,0:0:0:0:
435,318,48183,1,8,0:0:0:0:
435,318,48365,6,0,B|380:326|380:326|315:310,1,120,6|2,3:2|0:0,0:0:0:0:
263,282,48910,1,8,0:0:0:0:
263,282,49092,2,0,P|215:262|137:280,1,120,6|2,0:0|1:2,0:0:0:0:
96,300,49638,1,10,0:0:0:0:
23,210,50001,6,0,L|42:81,1,120,6|0,0:0|1:0,0:0:0:0:
155,56,50729,2,0,L|137:174,1,120,10|0,0:0|1:0,0:0:0:0:
248,220,51456,2,0,L|267:91,1,120,10|0,0:0|1:0,0:0:0:0:
380,66,52183,2,0,L|362:184,1,120,10|0,0:0|1:0,0:0:0:0:
440,283,52930,5,10,0:0:0:0:
440,283,53111,1,10,0:0:0:0:
340,350,53475,1,10,0:0:0:0:
238,286,53839,1,10,0:0:0:0:
134,346,54202,1,10,0:0:0:0:
51,258,54566,6,0,P|41:232|39:197,1,60,10|10,0:0|0:0,0:0:0:0:
18,81,55111,1,10,0:0:0:0:
18,81,55293,1,10,0:0:0:0:
127,60,55630,6,0,P|172:42|249:65,1,120,6|0,3:2|1:2,0:0:0:0:
293,82,56174,1,10,0:0:0:0:
398,23,56538,2,0,L|395:85,1,60,2|2,1:2|1:2,0:0:0:0:
386,143,56901,1,8,0:0:0:0:
377,202,57083,6,0,L|371:336,1,120,6|0,3:1|1:2,0:0:0:0:
369,382,57629,1,10,0:0:0:0:
265,324,57992,2,0,P|221:307|147:324,1,120,2|8,1:2|0:0,0:0:0:0:
99,351,58538,6,0,L|107:228,1,120,6|0,3:1|1:2,0:0:0:0:
110,171,59083,1,10,0:0:0:0:
123,51,59447,2,0,P|158:54|198:82,1,60,2|0,1:2|1:2,0:0:0:0:
225,106,59811,1,10,0:0:0:0:
270,145,59992,6,0,P|314:155|385:130,1,120,6|0,3:1|1:2,0:0:0:0:
423,85,60538,1,10,0:0:0:0:
475,193,60901,2,0,L|463:320,1,120,2|10,1:2|0:0,0:0:0:0:
408,336,61447,6,0,P|341:321|278:340,1,120,6|2,3:2|1:2,0:0:0:0:
173,348,62174,2,0,P|106:363|43:344,1,120,2|0,3:2|1:2,0:0:0:0:
24,300,62720,2,0,P|17:250|23:226,1,60,10|2,0:0|3:2,0:0:0:0:
40,184,63083,2,0,P|47:134|41:110,1,60,2|2,0:0|1:2,0:0:0:0:
154,73,63629,2,0,P|219:55|288:82,1,120,2|2,3:2|1:2,0:0:0:0:
310,112,64174,2,0,L|320:177,1,60,8|2,0:0|0:0,0:0:0:0:
339,228,64538,6,0,B|398:216|398:216|462:231,1,120,2|10,3:2|0:0,0:0:0:0:
454,349,65265,2,0,B|395:361|395:361|331:346,1,120,2|10,1:2|0:0,0:0:0:0:
237,280,65992,5,2,3:2:0:0:
182,306,66174,2,0,P|116:328|53:307,1,120,2|2,0:0|0:0,0:0:0:0:
34,266,66720,1,10,0:0:0:0:
34,266,66901,1,10,0:0:0:0:
83,157,67265,6,0,L|221:143,1,120,6|0,0:0|1:2,0:0:0:0:
262,137,67811,1,10,0:0:0:0:
377,167,68174,2,0,P|403:217|404:235,1,60,2|2,1:2|1:2,0:0:0:0:
393,279,68538,1,8,0:0:0:0:
360,329,68720,6,0,P|305:346|230:332,1,120,6|0,0:1|1:2,0:0:0:0:
188,314,69265,1,10,0:0:0:0:
99,233,69629,2,0,P|86:185|87:152,1,60,2|2,1:2|1:2,0:0:0:0:
110,120,69992,1,8,0:0:0:0:
148,74,70174,6,0,L|279:80,1,120,6|0,0:1|1:2,0:0:0:0:
327,86,70720,1,10,0:0:0:0:
442,52,71083,2,0,P|449:84|439:125,1,60,2|0,1:2|1:2,0:0:0:0:
407,157,71447,1,10,0:0:0:0:
362,197,71629,6,0,L|349:318,1,120,6|0,0:1|1:2,0:0:0:0:
342,375,72174,1,10,0:0:0:0:
223,354,72538,2,0,P|180:358|150:348,1,60,2|2,1:2|1:2,0:0:0:0:
108,331,72901,1,10,0:0:0:0:
67,287,73083,6,0,L|78:154,1,120,6|2,0:0|1:2,0:0:0:0:
117,54,73811,2,0,P|174:36|237:60,1,120,0|0,3:2|1:2,0:0:0:0:
289,57,74356,2,0,P|331:53|361:64,1,60,10|2,0:0|3:2,0:0:0:0:
402,81,74720,2,0,P|408:127|392:159,1,60,2|2,0:0|1:2,0:0:0:0:
295,190,75265,2,0,L|162:174,1,120,2|2,3:2|3:2,0:0:0:0:
115,172,75811,1,8,3:2:0:0:
193,262,76174,6,0,L|187:383,1,120,6|10,3:2|0:0,0:0:0:0:
67,371,76901,2,0,L|72:251,1,120,2|10,1:2|0:0,0:0:0:0:
4,151,77629,2,0,P|60:131|133:150,1,120,2|8,3:2|0:0,0:0:0:0:
174,161,78174,1,2,3:2:0:0:
284,114,78538,1,6,0:0:0:0:
284,114,78720,1,10,0:0:0:0:
385,50,79083,6,0,P|427:80|430:165,1,120,6|8,3:2|0:0,0:0:0:0:
431,204,79629,2,0,P|394:236|304:241,1,120,6|0,0:0|0:0,0:0:0:0:
265,242,80174,1,10,0:0:0:0:
205,237,80356,6,0,L|78:225,1,120,6|0,0:0|0:0,0:0:0:0:
25,224,80901,1,8,0:0:0:0:
91,124,81265,2,0,L|158:130,1,60,8|0,0:3|1:0,0:0:0:0:
210,135,81629,1,8,1:2:0:0:
298,217,81993,6,0,L|287:344,1,120,14|10,0:0|0:0,0:0:0:0:
398,383,82720,2,0,L|408:263,1,120,10|10,0:0|0:0,0:0:0:0:
466,158,83447,2,0,L|477:39,1,120,10|8,0:0|0:0,0:0:0:0:
363,77,84174,2,0,P|336:56|287:49,1,67.8,8|2,0:0|0:0,0:0:0:0:
250,74,84560,2,0,P|238:112|247:146,1,60,2|2,0:0|0:0,0:0:0:0:
248,191,84924,6,0,L|261:316,1,120,6|8,1:2|3:2,0:0:0:0:
140,301,85652,2,0,L|152:182,1,120,2|10,1:2|3:2,0:0:0:0:
80,85,86379,2,0,P|135:61|196:69,1,120,6|8,3:2|0:0,0:0:0:0:
240,105,86925,2,0,P|296:130|360:112,1,120,6|0,3:2|1:2,0:0:0:0:
386,89,87426,1,8,1:2:0:0:
386,89,87607,1,6,3:2:0:0:
256,192,87698,12,0,89244,0:0:0:0:
