osu file format v14

[General]
AudioFilename: clear.mp3
AudioLeadIn: 0
PreviewTime: 55111
Countdown: 0
SampleSet: Soft
StackLeniency: 0.7
Mode: 0
LetterboxInBreaks: 0
WidescreenStoryboard: 0

[Editor]
DistanceSpacing: 1.4
BeatDivisor: 4
GridSize: 4
TimelineZoom: 2.044001

[Metadata]
Title:CLEAR
TitleUnicode:CLEAR
Artist:Maaya Sakamoto
ArtistUnicode:坂本真綾
Creator:Underforest
Version:Hazu's Insane
Source:カードキャプターさくら クリアカード編
Tags:Cardcaptor Card Captor Sakura Clear Card Hen Kaadokyaputaa Kuria Kaado Arc First Opening TV Size Hazu-
BeatmapID:1520296
BeatmapSetID:717166

[Difficulty]
HPDrainRate:6
CircleSize:4
OverallDifficulty:7
ApproachRate:9
SliderMultiplier:1.7
SliderTickRate:1

[Events]
//Background and Video events
0,0,"bg.jpg",0,0
Video,-227,"video.avi"
//Break Periods
//Storyboard Layer 0 (Background)
//Storyboard Layer 1 (Fail)
//Storyboard Layer 2 (Pass)
//Storyboard Layer 3 (Foreground)
//Storyboard Sound Samples

[TimingPoints]
991,769.230769230769,4,2,1,40,1,0
991,-133.333333333333,4,2,1,40,0,0
4067,-111.111111111111,4,2,1,40,0,0
19452,-100,4,2,2,20,0,0
20361,363.636363636364,4,2,1,50,1,0
20542,363.636363636364,4,2,1,60,1,0
20542,-90.9090909090909,4,2,1,60,0,0
20814,-90.9090909090909,4,2,1,5,0,0
20930,363.636363636364,4,2,1,70,1,0
22729,363.636363636364,4,2,1,70,1,0
23092,363.636363636364,4,2,1,70,1,0
23820,363.636363636364,4,2,1,70,1,0
29638,-111.111111111111,4,2,1,60,0,0
44092,-111.111111111111,4,2,1,5,0,0
44183,-111.111111111111,4,2,1,60,0,0
50001,-133.333333333333,4,2,1,50,0,0
52930,363.636363636364,4,2,1,60,1,0
55630,363.636363636364,4,2,1,70,1,1
55811,363.636363636364,4,2,1,70,1,1
66901,-100,4,2,1,70,0,0
67265,-100,4,2,1,70,0,1
81629,-100,4,2,1,70,0,0
81993,363.636363636364,4,2,1,70,1,1
84379,363.636363636364,4,2,1,70,1,1
84925,363.636363636364,4,2,1,70,1,0
87426,363.636363636364,5,2,1,70,1,0
87607,-100,4,2,1,60,0,0
87971,-100,4,2,1,50,0,0
88334,-100,4,2,1,40,0,0
88698,-100,4,2,1,30,0,0
88880,-100,4,2,1,20,0,0
89061,-100,4,2,1,10,0,0
89243,-100,4,2,1,5,0,0

[Colours]
Combo1 : 176,15,238
Combo2 : 137,140,243
Combo3 : 242,203,45
Combo4 : 240,0,6
Combo5 : 188,248,7
Combo6 : 255,168,255
SliderTrackOverride : 30,30,30
SliderBorder : 255,0,128

[HitObjects]
72,104,991,6,0,B|196:48|196:160|316:108,1,255.000009727478,2|2,3:2|0:0,0:0:0:0:
316,107,3298,5,2,0:0:0:0:
256,160,3490,2,0,P|260:196|272:244,1,63.7500024318696,2|0,0:0|0:0,0:0:0:0:
316,300,4067,6,0,P|264:268|160:296,1,152.999995330811,2|2,3:2|0:0,0:0:0:0:
108,336,5029,1,2,0:0:0:0:
136,104,5414,1,0,0:0:0:0:
44,72,5606,6,0,P|52:112|72:244,1,152.999995330811,2|2,3:2|0:0,0:0:0:0:
40,304,6567,1,2,0:0:0:0:
216,160,6952,1,0,0:0:0:0:
296,200,7144,6,0,P|336:196|392:196,1,76.4999976654053,2|0,3:2|0:0,0:0:0:0:
468,248,7721,1,2,0:0:0:0:
440,88,7914,2,0,P|444:116|448:172,1,76.4999976654053,2|0,0:0|0:0,0:0:0:0:
392,272,8490,1,2,0:0:0:0:
308,120,8683,6,0,P|260:104|164:168,1,152.999995330811,2|2,3:2|3:2,0:0:0:0:
140,244,9644,1,0,0:0:0:0:
140,244,9837,2,0,P|144:260|148:308,1,38.2499988327027,2|0,0:0|0:0,0:0:0:0:
56,144,10221,5,2,3:2:0:0:
56,144,10414,2,0,P|60:96|72:36,1,76.4999976654053,0|0,0:0|0:0,0:0:0:0:
156,40,10990,1,2,3:2:0:0:
156,40,11183,2,0,P|152:88|140:148,1,76.4999976654053,0|0,0:0|0:0,0:0:0:0:
196,232,11760,6,0,P|252:204|316:220,1,114.749996498108,2|0,3:2|0:0,0:0:0:0:
368,272,12529,2,0,P|312:300|248:284,1,114.749996498108,0|0,0:0|0:0,0:0:0:0:
196,232,13298,6,0,P|204:280|208:328,1,76.4999976654053,2|0,3:2|0:0,0:0:0:0:
312,100,14067,2,0,P|304:148|300:196,1,76.4999976654053,2|0,0:0|0:0,0:0:0:0:
160,32,14837,2,0,P|168:80|172:128,1,76.4999976654053,2|0,3:2|0:0,0:0:0:0:
108,176,15414,1,2,3:2:0:0:
312,100,15798,2,0,P|368:92|408:96,1,76.4999976654053,2|0,3:2|0:0,0:0:0:0:
496,64,16375,6,0,P|488:108|484:152,1,76.4999976654053,2|0,3:2|0:0,0:0:0:0:
448,216,16952,2,0,P|396:192|332:200,1,114.749996498108,2|0,3:2|0:0,0:0:0:0:
256,252,17721,6,0,B|208:304|264:376|328:364|352:320|352:320|384:328|384:328|428:320|460:332|460:332|440:336|428:344,1,344.249989494324,2|2,3:2|0:0,0:0:0:0:
429,342,20361,5,0,1:0:0:0:
416,336,20451,1,0,1:0:0:0:
404,332,20542,2,0,P|320:324|268:352,1,140.25000428009,8|0,1:2|0:0,0:0:0:0:
236,376,20930,6,0,P|244:320|248:272,1,85,14|0,0:0|0:0,0:0:0:0:
132,136,21293,2,0,P|124:192|120:240,1,85,10|0,0:0|0:0,0:0:0:0:
340,112,21657,2,0,P|280:96|232:108,1,85,10|0,0:0|0:0,0:0:0:0:
416,240,22020,2,0,P|458:241|497:226,1,85,10|0,0:0|0:0,0:0:0:0:
256,208,22384,5,10,0:0:0:0:
344,384,22566,2,0,P|340:336|336:276,1,76.5,2|8,0:0|0:0,0:0:0:0:
152,188,22910,2,0,P|156:236|160:296,1,85,2|8,0:0|0:0,0:0:0:0:
80,324,23182,1,0,1:0:0:0:
68,308,23273,2,0,L|64:252,1,42.5,2|0,0:0|1:0,0:0:0:0:
56,104,23455,1,10,0:0:0:0:
79,68,23546,1,0,1:0:0:0:
115,47,23637,1,2,0:0:0:0:
157,44,23728,1,0,1:0:0:0:
196,61,23820,6,0,P|244:64|292:68,1,85,14|0,1:2|0:0,0:0:0:0:
368,196,24183,2,0,P|320:193|272:189,1,85,10|0,3:2|0:0,0:0:0:0:
480,128,24547,1,2,1:2:0:0:
480,128,24729,1,0,1:0:0:0:
352,24,24910,2,0,P|356:56|360:124,1,85,10|0,3:2|0:0,0:0:0:0:
308,272,25274,6,0,P|240:232|132:272,1,170,2|10,3:2|0:0,0:0:0:0:
24,128,25820,1,2,3:2:0:0:
24,128,26001,2,0,P|32:168|36:220,1,85,0|0,1:0|1:0,0:0:0:0:
184,80,26365,1,10,3:2:0:0:
40,28,26547,1,2,3:2:0:0:
288,24,26729,6,0,P|284:56|280:128,1,85,2|0,1:2|0:0,0:0:0:0:
120,240,27092,2,0,P|122:197|127:155,1,85,10|0,3:2|0:0,0:0:0:0:
276,256,27456,1,2,1:2:0:0:
276,256,27638,1,0,1:0:0:0:
144,336,27820,2,0,P|100:328|44:320,1,85,10|0,3:2|0:0,0:0:0:0:
352,356,28183,6,0,P|396:288|376:192,1,170,2|14,3:2|0:0,0:0:0:0:
256,120,28729,1,2,3:2:0:0:
256,120,28820,1,0,1:0:0:0:
256,120,28910,2,0,P|264:172|268:228,1,85,0|0,1:0|1:0,0:0:0:0:
316,16,29274,1,10,3:2:0:0:
144,88,29456,1,2,3:2:0:0:
364,128,29638,6,0,P|360:180|360:220,1,76.4999976654053,6|0,1:0|0:0,0:0:0:0:
456,116,30001,2,0,P|452:168|452:208,1,76.4999976654053,8|2,0:0|0:0,0:0:0:0:
400,28,30365,1,2,1:2:0:0:
308,64,30547,2,0,P|264:60|216:64,1,76.4999976654053,2|8,1:2|0:0,0:0:0:0:
152,160,30910,6,0,P|160:208|164:272,1,76.4999976654053,2|0,3:2|0:0,0:0:0:0:
60,156,31274,2,0,P|68:204|72:268,1,76.4999976654053,2|8,0:0|0:0,0:0:0:0:
280,176,31638,2,0,P|272:224|268:284,1,76.4999976654053,2|0,0:0|1:2,0:0:0:0:
372,172,32001,2,0,P|364:220|360:280,1,76.4999976654053,2|8,1:2|0:0,0:0:0:0:
336,72,32365,1,2,0:0:0:0:
184,152,32547,6,0,B|108:176|108:132|32:152,1,152.999995330811,2|8,3:2|0:0,0:0:0:0:
0,232,33092,2,0,P|4:264|8:320,1,76.4999976654053,2|0,0:0|1:2,0:0:0:0:
92,256,33456,2,0,P|96:288|100:344,1,76.4999976654053,2|8,1:2|0:0,0:0:0:0:
144,148,33820,6,0,P|207:108|281:123,1,152.999995330811,2|2,1:2|0:0,0:0:0:0:
368,184,34365,1,10,0:0:0:0:
368,12,34729,2,0,P|364:44|360:100,1,76.4999976654053,2|0,1:2|1:2,0:0:0:0:
456,12,35092,2,0,P|452:44|448:100,1,76.4999976654053,10|0,0:0|0:0,0:0:0:0:
472,256,35456,6,0,P|412:220|316:244,1,152.999995330811,6|8,3:1|0:0,0:0:0:0:
256,280,36001,1,2,0:0:0:0:
256,280,36183,2,0,P|260:308|264:360,1,76.4999976654053,2|0,1:2|1:2,0:0:0:0:
192,192,36547,1,10,0:0:0:0:
48,264,36729,6,0,P|80:260|140:256,1,76.4999976654053,2|0,3:2|0:0,0:0:0:0:
20,176,37092,2,0,P|57:171|96:168,1,76.4999976654053,2|8,0:0|0:0,0:0:0:0:
280,200,37456,1,2,0:0:0:0:
280,200,37638,2,0,P|275:161|269:124,1,76.4999976654053,0|0,1:2|1:2,0:0:0:0:
168,20,38001,2,0,P|176:68|180:112,1,76.4999976654053,10|0,0:0|0:0,0:0:0:0:
116,248,38365,6,0,P|108:200|104:156,1,76.4999976654053,2|0,3:2|0:0,0:0:0:0:
26,251,38729,2,0,P|20:214|16:176,1,76.4999976654053,8|2,0:0|0:0,0:0:0:0:
56,344,39092,1,2,1:2:0:0:
144,320,39274,2,0,P|184:320|228:324,1,76.4999976654053,2|8,1:2|0:0,0:0:0:0:
320,368,39638,5,2,0:3:0:0:
172,160,40001,1,2,0:3:0:0:
440,236,40365,1,2,0:3:0:0:
120,304,40729,1,0,0:3:0:0:
200,248,40910,2,0,P|216:292|208:344,1,76.4999976654053,4|0,0:1|0:0,0:0:0:0:
36,380,41274,6,0,P|32:328|16:212,1,152.999995330811,6|8,3:2|0:0,0:0:0:0:
112,160,41820,1,6,0:0:0:0:
112,160,42001,2,0,P|108:196|104:264,1,76.4999976654053,2|0,1:2|1:2,0:0:0:0:
176,312,42365,1,14,0:0:0:0:
216,176,42547,6,0,P|248:176|304:184,1,76.4999976654053,2|0,3:2|0:0,0:0:0:0:
324,96,42910,2,0,P|346:118|380:163,1,76.4999976654053,2|8,1:2|0:0,0:0:0:0:
460,112,43274,2,0,P|460:144|452:200,1,76.4999976654053,2|0,1:2|1:2,0:0:0:0:
404,28,43638,1,2,1:2:0:0:
324,96,43820,2,0,P|272:88|192:84,1,114.749996498108,14|0,0:1|0:0,0:0:0:0:
184,112,44183,6,0,P|244:116|272:120,1,76.4999976654053,6|0,3:2|0:0,0:0:0:0:
96,180,44547,2,0,P|68:228|108:316,1,152.999995330811,10|0,0:0|1:2,0:0:0:0:
192,351,45092,2,0,P|228:347|280:343,1,76.4999976654053,2|8,1:2|0:0,0:0:0:0:
392,268,45456,6,0,P|384:308|380:352,1,76.4999976654053,6|0,3:1|0:0,0:0:0:0:
284,176,45820,2,0,P|292:216|296:260,1,76.4999976654053,2|8,1:2|0:0,0:0:0:0:
388,96,46183,2,0,P|380:136|376:180,1,76.4999976654053,2|0,1:2|1:2,0:0:0:0:
308,32,46547,1,2,1:2:0:0:
228,96,46729,2,0,P|184:96|144:92,1,76.4999976654053,14|0,0:1|0:0,0:0:0:0:
24,36,47092,6,0,P|64:92|48:180,1,152.999995330811,6|8,3:2|0:0,0:0:0:0:
88,284,47638,2,0,P|136:264|176:256,1,76.4999976654053,6|0,0:0|1:2,0:0:0:0:
292,296,48001,1,2,1:2:0:0:
292,296,48183,1,8,0:0:0:0:
240,136,48365,6,0,P|236:184|232:248,1,76.4999976654053,6|0,3:2|0:0,0:0:0:0:
172,52,48729,1,2,0:0:0:0:
172,52,48910,1,8,0:0:0:0:
100,200,49092,2,0,P|104:248|108:312,1,76.4999976654053,6|0,0:0|1:2,0:0:0:0:
52,72,49456,1,2,1:2:0:0:
240,136,49638,2,0,P|184:140|144:144,1,76.4999976654053,10|0,0:0|0:0,0:0:0:0:
381,198,50001,6,0,P|401:138|397:86,1,95.6250036478044,6|2,0:0|0:0,0:0:0:0:
370,73,50365,2,0,P|374:105|366:149,1,63.7500024318696,0|2,1:0|0:0,0:0:0:0:
268,284,50729,6,0,P|208:264|156:268,1,95.6250036478044,10|2,0:0|0:0,0:0:0:0:
143,295,51092,2,0,P|175:291|219:299,1,63.7500024318696,0|2,1:0|0:0,0:0:0:0:
436,352,51456,6,0,P|428:296|424:240,1,95.6250036478044,10|2,0:0|0:0,0:0:0:0:
440,212,51820,2,0,P|444:252|448:288,1,63.7500024318696,0|2,1:0|0:0,0:0:0:0:
304,96,52183,6,0,P|312:152|316:208,1,95.6250036478044,10|2,0:0|0:0,0:0:0:0:
296,232,52547,2,0,P|292:192|288:156,1,63.7500024318696,0|2,1:0|0:0,0:0:0:0:
252,328,52930,5,10,0:0:0:0:
480,264,53111,1,10,0:0:0:0:
200,212,53475,5,10,0:0:0:0:
400,336,53839,5,10,0:0:0:0:
140,348,54202,5,10,0:0:0:0:
336,240,54566,5,10,0:0:0:0:
112,192,54748,1,10,0:0:0:0:
400,164,55111,5,10,0:0:0:0:
176,272,55293,1,10,0:0:0:0:
488,252,55630,6,0,P|484:196|476:76,1,170,6|0,3:2|1:2,0:0:0:0:
296,168,56174,2,0,P|300:208|304:288,1,85,10|0,0:0|0:0,0:0:0:0:
288,332,56447,1,2,0:0:0:0:
292,344,56538,1,2,1:2:0:0:
392,200,56720,2,0,P|389:157|385:115,1,85,2|8,1:2|0:0,0:0:0:0:
128,164,57083,6,0,P|160:220|276:224,1,170,6|0,3:1|1:2,0:0:0:0:
16,312,57629,2,0,P|72:304|132:304,1,85,10|0,0:0|0:0,0:0:0:0:
244,352,57992,1,2,1:2:0:0:
196,152,58174,2,0,P|200:196|204:256,1,85,2|8,1:2|0:0,0:0:0:0:
376,344,58538,6,0,P|423:282|395:174,1,170,6|0,3:1|1:2,0:0:0:0:
296,104,59083,2,0,P|304:148|308:204,1,85,10|0,0:0|0:0,0:0:0:0:
456,52,59447,1,2,1:2:0:0:
411,194,59629,1,0,1:2:0:0:
344,24,59811,1,10,0:0:0:0:
512,184,59992,6,0,P|504:240|496:368,1,170,6|0,3:1|1:2,0:0:0:0:
304,244,60538,2,0,P|344:232|404:232,1,85,10|4,0:0|0:3,0:0:0:0:
152,320,60901,1,2,1:2:0:0:
224,192,61083,1,4,1:3:0:0:
256,368,61265,1,10,0:0:0:0:
48,304,61447,6,0,P|56:256|60:200,1,85,6|0,3:2|0:0,0:0:0:0:
132,40,61811,2,0,P|140:88|144:144,1,85,2|8,1:2|0:0,0:0:0:0:
296,244,62174,1,2,3:2:0:0:
296,244,62356,2,0,P|260:236|192:232,1,85,0|0,1:2|1:2,0:0:0:0:
104,344,62720,1,10,0:0:0:0:
232,332,62901,1,2,3:2:0:0:
128,244,63083,5,2,0:0:0:0:
0,368,63265,2,0,P|4:336|8:272,1,85,2|8,1:2|0:0,0:0:0:0:
136,160,63629,2,0,P|132:192|128:256,1,85,2|0,3:2|1:2,0:0:0:0:
48,112,63992,1,2,1:2:0:0:
232,72,64174,1,8,0:0:0:0:
88,24,64356,1,2,0:0:0:0:
328,20,64538,6,0,P|324:48|316:116,1,85,2|0,3:2|1:2,0:0:0:0:
404,284,64901,2,0,P|407:241|415:199,1,85,10|0,0:0|0:0,0:0:0:0:
208,104,65265,2,0,P|212:132|220:200,1,85,2|0,1:2|1:2,0:0:0:0:
420,120,65629,2,0,P|416:77|408:35,1,85,10|0,0:0|0:0,0:0:0:0:
312,280,65992,5,2,3:2:0:0:
512,188,66174,1,2,0:0:0:0:
218,188,66356,1,10,0:0:0:0:
223,230,66447,1,2,0:0:0:0:
228,272,66538,1,2,0:0:0:0:
231,314,66629,1,2,0:0:0:0:
233,357,66720,5,10,0:0:0:0:
328,140,66901,1,10,0:0:0:0:
0,104,67265,6,0,P|8:160|16:284,1,170,6|0,0:0|1:2,0:0:0:0:
140,48,67811,2,0,P|136:88|132:168,1,85,10|0,0:0|0:0,0:0:0:0:
176,272,68174,1,2,1:2:0:0:
312,168,68356,2,0,P|272:172|212:180,1,85,2|8,1:2|0:0,0:0:0:0:
44,156,68720,6,0,P|84:216|56:324,1,170,6|0,0:1|1:2,0:0:0:0:
220,368,69265,2,0,P|216:328|212:264,1,85,10|0,0:0|0:0,0:0:0:0:
268,132,69629,1,2,1:2:0:0:
400,244,69811,2,0,P|357:246|315:251,1,85,2|8,1:2|0:0,0:0:0:0:
101,150,70174,6,0,P|116:272|121:340,1,170,6|0,0:1|1:2,0:0:0:0:
240,112,70720,2,0,P|232:156|228:212,1,85,10|0,0:0|0:0,0:0:0:0:
152,40,71083,1,2,1:2:0:0:
328,84,71265,1,0,1:2:0:0:
132,132,71447,1,10,0:0:0:0:
424,180,71629,6,0,P|416:108|408:-4,1,170,6|0,0:1|1:2,0:0:0:0:
228,104,72174,2,0,P|232:130|240:194,1,85,10|0,0:0|0:0,0:0:0:0:
340,336,72538,1,2,1:2:0:0:
340,184,72720,1,2,1:2:0:0:
208,276,72901,1,10,0:0:0:0:
444,296,73083,6,0,P|437:245|430:186,1,85,6|0,0:0|0:0,0:0:0:0:
236,92,73447,2,0,P|241:134|247:176,1,85,2|8,1:2|0:0,0:0:0:0:
460,84,73811,1,0,3:2:0:0:
460,84,73992,2,0,P|404:88|356:100,1,85,0|0,1:2|1:2,0:0:0:0:
247,176,74356,1,10,0:0:0:0:
368,176,74538,1,2,3:2:0:0:
240,80,74720,5,2,0:0:0:0:
212,264,74901,2,0,P|216:288|224:360,1,85,2|8,1:2|0:0,0:0:0:0:
368,176,75265,2,0,P|364:200|356:272,1,85,2|0,3:2|1:2,0:0:0:0:
312,48,75629,1,2,3:2:0:0:
460,124,75811,1,8,3:2:0:0:
268,144,75992,1,2,0:0:0:0:
464,240,76174,6,0,P|460:276|456:336,1,85,6|0,3:2|1:2,0:0:0:0:
260,228,76538,2,0,P|264:192|268:132,1,85,10|0,0:0|0:0,0:0:0:0:
436,76,76901,2,0,P|432:112|428:172,1,85,2|0,1:2|1:2,0:0:0:0:
336,340,77265,2,0,P|340:304|344:244,1,85,10|0,0:0|0:0,0:0:0:0:
320,176,77538,1,2,0:0:0:0:
312,160,77629,6,0,P|264:124|144:172,1,170,2|8,3:2|0:0,0:0:0:0:
56,272,78174,1,2,3:2:0:0:
56,272,78538,1,6,0:0:0:0:
64,40,78720,2,0,P|68:83|72:125,1,85,10|0,0:0|0:0,0:0:0:0:
172,280,79083,6,0,P|232:228|336:244,1,170,6|8,3:2|0:0,0:0:0:0:
440,136,79629,2,0,P|428:188|416:320,1,170,6|0,0:0|0:0,0:0:0:0:
348,72,80174,1,10,0:0:0:0:
252,208,80356,6,0,P|292:200|348:196,1,85,6|0,0:0|0:0,0:0:0:0:
128,152,80720,1,0,0:0:0:0:
188,332,80901,2,0,P|184:280|172:216,1,85,8|0,0:0|0:0,0:0:0:0:
212,72,81265,1,8,0:3:0:0:
376,168,81447,1,0,1:0:0:0:
364,176,81538,1,0,1:0:0:0:
352,184,81629,2,0,P|308:192|260:192,1,85,8|0,1:2|0:0,0:0:0:0:
100,128,81992,6,0,P|104:168|108:248,1,85,14|0,0:0|0:0,0:0:0:0:
252,368,82356,2,0,P|248:328|244:248,1,85,10|0,0:0|0:0,0:0:0:0:
20,200,82720,2,0,P|24:240|28:320,1,85,10|0,0:0|0:0,0:0:0:0:
204,148,83083,2,0,P|200:108|196:28,1,85,10|0,0:0|0:0,0:0:0:0:
144,276,83447,5,10,0:0:0:0:
340,240,83629,2,0,P|300:232|244:228,1,85,2|8,0:0|0:0,0:0:0:0:
90,350,83993,2,0,P|132:353|173:361,1,85,2|8,0:0|0:0,0:0:0:0:
124,180,84379,2,0,P|128:204|132:252,1,42.5,2|0,0:0|1:0,0:0:0:0:
40,256,84560,1,2,0:0:0:0:
36,213,84650,1,0,1:0:0:0:
31,171,84741,1,2,0:0:0:0:
24,129,84832,1,0,1:0:0:0:
16,87,84925,6,0,P|57:79|100:76,1,85,6|0,1:2|0:0,0:0:0:0:
300,192,85288,2,0,P|258:199|215:202,1,85,8|0,3:2|0:0,0:0:0:0:
380,72,85652,1,2,1:2:0:0:
380,72,85834,1,0,1:0:0:0:
456,192,86015,2,0,P|452:224|448:292,1,85,10|0,3:2|0:0,0:0:0:0:
192,336,86379,6,0,P|260:296|368:336,1,170,6|8,3:2|0:0,0:0:0:0:
128,240,86925,1,6,3:2:0:0:
128,240,87106,2,0,P|96:244|32:248,1,85,0|0,0:0|1:2,0:0:0:0:
169,147,87426,1,8,1:2:0:0:
192,336,87607,1,6,3:2:0:0:
256,192,87698,12,0,89244,0:0:0:0:
