osu file format v14

[General]
AudioFilename: clear.mp3
AudioLeadIn: 0
PreviewTime: 55111
Countdown: 0
SampleSet: Soft
StackLeniency: 0.7
Mode: 0
LetterboxInBreaks: 0
WidescreenStoryboard: 0

[Editor]
DistanceSpacing: 1.3
BeatDivisor: 4
GridSize: 8
TimelineZoom: 2.344

[Metadata]
Title:CLEAR
TitleUnicode:CLEAR
Artist:Maaya Sakamoto
ArtistUnicode:坂本真綾
Creator:Underforest
Version:Hard
Source:カードキャプターさくら クリアカード編
Tags:Cardcaptor Card Captor Sakura Clear Card Hen Kaadokyaputaa Kuria Kaado Arc First Opening TV Size Hazu-
BeatmapID:1515321
BeatmapSetID:717166

[Difficulty]
HPDrainRate:5
CircleSize:3.5
OverallDifficulty:6
ApproachRate:7.5
SliderMultiplier:1.5
SliderTickRate:1

[Events]
//Background and Video events
0,0,"bg.jpg",0,0
Video,-227,"video.avi"
//Break Periods
//Storyboard Layer 0 (Background)
//Storyboard Layer 1 (Fail)
//Storyboard Layer 2 (Pass)
//Storyboard Layer 3 (Foreground)
//Storyboard Sound Samples

[TimingPoints]
991,769.230769230769,4,2,1,40,1,0
19452,-100,4,2,2,20,0,0
20361,363.636363636364,4,2,1,50,1,0
20542,363.636363636364,4,2,1,60,1,0
20930,363.636363636364,4,2,1,70,1,0
22729,363.636363636364,4,2,1,70,1,0
23092,363.636363636364,4,2,1,70,1,0
23820,363.636363636364,4,2,1,70,1,0
29638,-100,4,2,1,60,0,0
50001,-111.111111111111,4,2,1,50,0,0
52930,363.636363636364,4,2,1,70,1,0
55630,363.636363636364,4,2,1,80,1,1
55811,363.636363636364,4,2,1,80,1,1
66901,-100,4,2,1,80,0,0
67265,-100,4,2,1,80,0,1
81629,-100,4,2,1,80,0,0
81993,363.636363636364,4,2,1,80,1,1
84379,363.636363636364,4,2,1,80,1,1
84925,363.636363636364,4,2,1,70,1,0
87426,363.636363636364,5,2,1,70,1,0
87607,-100,4,2,1,60,0,0
87971,-100,4,2,1,50,0,0
88335,-100,4,2,1,40,0,0
88698,-100,4,2,1,30,0,0
88880,-100,4,2,1,20,0,0
89062,-100,4,2,1,10,0,0
89244,-100,4,2,1,5,0,0

[Colours]
Combo1 : 176,15,238
Combo2 : 137,140,243
Combo3 : 242,203,45
Combo4 : 240,0,6
Combo5 : 188,248,7
Combo6 : 255,168,255
SliderTrackOverride : 30,30,30
SliderBorder : 255,0,128

[HitObjects]
112,276,3298,5,2,0:0:0:0:
112,276,3490,2,0,L|105:191,1,75,2|0,0:0|0:0,0:0:0:0:
52,147,4067,6,0,P|106:167|186:118,1,150,2|2,3:2|0:0,0:0:0:0:
218,58,5029,1,2,0:0:0:0:
218,58,5414,1,0,0:0:0:0:
281,96,5606,6,0,L|295:260,1,150,2|2,3:2|0:0,0:0:0:0:
298,320,6567,1,2,0:0:0:0:
298,320,6952,1,0,0:0:0:0:
225,299,7144,6,0,P|182:286|162:287,1,37.5,2|0,3:2|0:0,0:0:0:0:
127,329,7529,2,0,P|84:342|64:341,1,37.5,0|2,0:0|0:0,0:0:0:0:
43,283,7914,2,0,L|48:217,1,37.5,2|0,0:0|0:0,0:0:0:0:
78,178,8298,2,0,L|83:112,1,37.5,0|2,0:0|0:0,0:0:0:0:
30,84,8683,6,0,P|76:65|154:120,1,150,2|2,3:2|3:2,0:0:0:0:
227,107,9644,1,0,0:0:0:0:
301,95,9837,2,0,L|359:91,1,37.5,2|0,0:0|0:0,0:0:0:0:
411,74,10221,6,0,P|402:127|381:154,1,75,2|0,3:2|0:0,0:0:0:0:
333,192,10798,1,0,0:0:0:0:
272,236,10990,2,0,P|278:272|275:290,1,37.5,2|0,3:2|0:0,0:0:0:0:
231,331,11375,2,0,P|225:349|225:367,1,37.5,0|0,0:0|0:0,0:0:0:0:
299,360,11760,6,0,L|405:377,1,75,2|0,3:2|0:0,0:0:0:0:
404,303,12337,2,0,L|329:291,1,75,0|0,0:0|0:0,0:0:0:0:
318,216,12914,2,0,L|309:158,1,37.5,2|0,0:0|0:0,0:0:0:0:
296,105,13298,6,0,B|258:103|258:103|203:123,2,75,2|0|2,3:2|0:0|0:0,0:0:0:0:
441,140,14452,1,0,0:0:0:0:
315,222,14837,2,0,P|279:229|239:220,1,75,2|0,3:2|0:0,0:0:0:0:
166,219,15414,2,0,L|160:298,1,75,2|2,3:2|3:2,0:0:0:0:
160,293,16375,6,0,P|204:322|251:322,1,75,2|0,3:2|0:0,0:0:0:0:
294,295,16952,2,0,P|330:303|359:327,1,75,2|0,3:2|0:0,0:0:0:0:
427,358,17529,1,0,0:0:0:0:
423,283,17721,6,0,B|423:238|499:233|495:201|495:168|482:145|443:133|415:169|415:169|387:136|344:144|319:195|376:233,1,337.5,2|2,3:2|0:0,0:0:0:0:
48,36,20361,5,0,1:0:0:0:
48,36,20451,1,0,1:0:0:0:
48,36,20542,2,0,L|166:22,1,112.5,8|0,1:2|0:0,0:0:0:0:
183,41,20930,6,0,P|202:75|199:126,1,75,14|0,0:0|0:0,0:0:0:0:
299,93,21293,2,0,P|294:148|267:181,1,75,10|0,0:0|0:0,0:0:0:0:
375,200,21657,2,0,P|347:243|304:256,1,75,10|0,0:0|0:0,0:0:0:0:
390,326,22020,2,0,P|354:347|287:341,1,75,10|0,0:0|0:0,0:0:0:0:
228,317,22384,6,0,L|138:303,1,75,10|2,0:0|0:0,0:0:0:0:
90,244,22729,1,8,0:0:0:0:
142,162,22910,1,2,0:0:0:0:
240,165,23092,2,0,P|268:159|287:158,3,37.5,8|0|2|0,0:0|1:0|0:0|1:0,0:0:0:0:
305,168,23455,2,0,P|333:174|352:175,3,37.5,10|0|2|0,0:0|1:0|0:0|1:0,0:0:0:0:
371,170,23820,6,0,L|381:279,1,75,14|0,1:2|0:0,0:0:0:0:
465,202,24183,2,0,L|458:127,1,75,10|0,3:2|0:0,0:0:0:0:
383,65,24547,2,0,P|330:52|283:62,1,75,2|0,1:2|1:0,0:0:0:0:
221,96,24910,2,0,P|183:96|148:84,1,75,10|0,3:2|0:0,0:0:0:0:
66,137,25274,6,0,B|56:177|56:177|67:228,1,75,2|0,3:2|0:0,0:0:0:0:
114,296,25638,1,10,0:0:0:0:
211,299,25820,2,0,P|263:316|359:258,1,150,2|0,3:2|1:0,0:0:0:0:
441,258,26365,1,10,3:2:0:0:
421,162,26547,1,2,3:2:0:0:
324,176,26729,6,0,L|312:83,1,75,2|0,1:2|0:0,0:0:0:0:
220,75,27092,2,0,L|210:149,1,75,10|0,3:2|0:0,0:0:0:0:
153,229,27456,2,0,L|162:303,1,75,2|0,1:2|1:0,0:0:0:0:
256,332,27820,2,0,P|309:345|346:339,1,75,10|0,3:2|0:0,0:0:0:0:
393,270,28183,6,0,B|508:259|508:259|464:224,1,150,2|14,3:2|0:0,0:0:0:0:
418,161,28729,1,2,3:2:0:0:
418,161,28820,1,0,1:0:0:0:
418,161,28910,1,0,1:0:0:0:
328,123,29092,1,0,1:0:0:0:
238,163,29274,2,0,L|152:169,1,75,10|2,3:2|3:2,0:0:0:0:
43,175,29638,5,6,1:0:0:0:
43,175,30001,2,0,P|48:229|71:261,1,75,8|2,0:0|0:0,0:0:0:0:
134,307,30365,1,2,1:2:0:0:
229,285,30547,2,0,L|312:270,1,75,2|8,1:2|0:0,0:0:0:0:
391,229,30910,6,0,P|405:181|392:130,1,75,2|0,3:2|0:0,0:0:0:0:
337,84,31274,2,0,P|289:70|238:83,1,75,2|8,0:0|0:0,0:0:0:0:
172,104,31638,2,0,P|134:105|99:92,1,75,2|0,0:0|1:2,0:0:0:0:
28,160,32001,2,0,L|21:254,1,75,2|8,1:2|0:0,0:0:0:0:
75,317,32365,1,2,0:0:0:0:
171,300,32547,5,2,3:2:0:0:
171,300,32910,1,8,0:0:0:0:
268,301,33092,2,0,P|311:329|352:328,1,75,2|0,0:0|1:2,0:0:0:0:
411,270,33456,2,0,L|402:191,1,75,2|8,1:2|0:0,0:0:0:0:
356,109,33820,6,0,B|321:112|298:89|298:89|267:119|212:114,1,150,2|2,1:2|0:0,0:0:0:0:
124,85,34365,2,0,P|89:83|41:103,1,75,10|0,0:0|0:0,0:0:0:0:
73,191,34729,2,0,P|110:192|145:180,1,75,2|0,1:2|1:2,0:0:0:0:
218,114,35092,1,10,0:0:0:0:
218,114,35456,6,0,B|290:90|287:146|364:113,1,150,6|8,3:1|0:0,0:0:0:0:
456,82,36001,1,2,0:0:0:0:
445,179,36183,2,0,L|435:256,1,75,2|0,1:2|1:2,0:0:0:0:
417,349,36547,1,10,0:0:0:0:
324,318,36729,6,0,P|276:324|240:314,1,75,2|0,3:2|0:0,0:0:0:0:
174,257,37092,2,0,P|126:251|90:261,1,75,2|8,0:0|0:0,0:0:0:0:
25,320,37456,2,0,P|59:259|40:178,1,150,2|0,0:0|1:2,0:0:0:0:
19,88,38001,1,10,0:0:0:0:
19,88,38365,6,0,L|104:81,1,75,2|0,3:2|0:0,0:0:0:0:
191,91,38729,2,0,L|265:97,1,75,8|2,0:0|0:0,0:0:0:0:
362,82,39092,2,0,P|385:52|397:10,2,75,2|2|8,1:2|1:2|0:0,0:0:0:0:
331,175,39638,5,2,0:3:0:0:
335,189,40001,1,2,0:3:0:0:
339,203,40365,1,2,0:3:0:0:
344,217,40729,1,0,0:3:0:0:
262,270,40910,2,0,P|220:280|158:261,1,75,4|0,0:1|0:0,0:0:0:0:
102,230,41274,6,0,L|86:59,1,150,6|8,3:2|0:0,0:0:0:0:
171,29,41820,2,0,L|184:178,1,150,6|0,0:0|1:2,0:0:0:0:
188,275,42365,1,14,0:0:0:0:
277,313,42547,6,0,P|343:326|375:316,1,75,2|0,3:2|0:0,0:0:0:0:
430,268,42910,2,0,L|438:186,1,75,2|8,1:2|0:0,0:0:0:0:
401,102,43274,2,0,L|393:20,1,75,2|0,1:2|1:2,0:0:0:0:
295,19,43638,1,2,1:2:0:0:
210,70,43820,2,0,P|172:83|122:78,1,75,14|0,0:1|0:0,0:0:0:0:
42,58,44183,6,0,P|40:95|110:174,1,150,6|10,3:2|0:0,0:0:0:0:
190,232,44729,1,0,0:0:0:0:
276,185,44910,2,0,L|369:177,2,75,0|2|8,1:2|1:2|0:0,0:0:0:0:
190,232,45456,6,0,P|186:296|199:333,1,75,6|0,3:1|0:0,0:0:0:0:
272,356,45820,2,0,P|318:364|361:357,1,75,2|8,1:2|0:0,0:0:0:0:
427,307,46183,2,0,B|433:269|433:269|424:221,1,75,2|0,1:2|1:2,0:0:0:0:
420,135,46547,1,2,1:2:0:0:
329,98,46729,2,0,L|224:109,1,75,14|0,0:1|0:0,0:0:0:0:
171,53,47092,6,0,P|132:44|85:52,1,75,6|0,3:2|0:0,0:0:0:0:
20,107,47456,1,8,0:0:0:0:
24,204,47638,2,0,L|42:368,1,150,6|2,0:0|1:2,0:0:0:0:
137,366,48183,1,8,0:0:0:0:
216,310,48365,6,0,P|281:285|380:316,1,150,6|2,3:2|0:0,0:0:0:0:
443,348,48910,1,8,0:0:0:0:
447,251,49092,2,0,L|461:95,1,150,6|2,0:0|1:2,0:0:0:0:
362,104,49638,2,0,P|314:117|283:114,1,75,10|0,0:0|0:0,0:0:0:0:
213,56,50001,6,0,P|177:34|92:49,2,101.249996910095,6|2|2,0:0|0:0|0:0,0:0:0:0:
148,126,50729,2,0,L|121:225,2,101.249996910095,10|2|2,0:0|0:0|0:0,0:0:0:0:
232,169,51456,2,0,L|231:275,2,101.249996910095,10|2|2,0:0|0:0|0:0,0:0:0:0:
322,140,52183,2,0,L|349:241,2,101.249996910095,10|2|2,0:0|0:0|0:0,0:0:0:0:
232,169,52930,5,10,0:0:0:0:
167,96,53111,1,10,0:0:0:0:
172,82,53475,1,10,0:0:0:0:
178,68,53839,1,10,0:0:0:0:
184,54,54202,1,10,0:0:0:0:
189,39,54566,5,10,0:0:0:0:
309,41,54748,1,10,0:0:0:0:
309,41,55111,5,10,0:0:0:0:
255,151,55293,1,10,0:0:0:0:
255,151,55630,6,0,P|311:120|390:152,1,150,6|0,3:2|1:2,0:0:0:0:
426,222,56174,1,10,0:0:0:0:
352,286,56356,1,0,0:0:0:0:
352,286,56447,1,2,0:0:0:0:
352,286,56538,2,0,P|327:248|325:214,1,75,2|2,1:2|1:2,0:0:0:0:
255,151,56901,1,8,0:0:0:0:
307,69,57083,6,0,B|361:80|361:80|400:68|400:68|452:79,1,150,6|0,3:1|1:2,0:0:0:0:
490,170,57629,2,0,P|494:203|478:243,1,75,10|0,0:0|0:0,0:0:0:0:
433,327,57992,1,2,1:2:0:0:
335,330,58174,2,0,L|250:315,1,75,2|8,1:2|0:0,0:0:0:0:
187,382,58538,6,0,P|206:310|178:242,1,150,6|0,3:1|1:2,0:0:0:0:
239,166,59083,2,0,L|342:171,1,75,10|0,0:0|0:0,0:0:0:0:
351,78,59447,2,0,L|276:81,1,75,2|0,1:2|1:2,0:0:0:0:
178,94,59811,1,10,0:0:0:0:
87,128,59992,6,0,P|86:184|151:262,1,150,6|0,3:1|1:2,0:0:0:0:
223,309,60538,2,0,P|268:311|326:274,1,75,10|4,0:0|0:3,0:0:0:0:
379,250,60901,2,0,B|397:137|397:137|358:167,1,150,2|10,1:2|0:0,0:0:0:0:
272,175,61447,6,0,B|205:205|184:142|110:181,1,150,6|2,3:2|1:2,0:0:0:0:
39,219,61992,1,8,0:0:0:0:
104,294,62174,2,0,L|218:317,1,75,2|0,3:2|1:2,0:0:0:0:
272,331,62538,2,0,L|345:316,1,75,0|10,1:2|0:0,0:0:0:0:
441,295,62901,1,2,3:2:0:0:
478,205,63083,5,2,0:0:0:0:
394,155,63265,2,0,P|337:140|301:149,1,75,2|8,1:2|0:0,0:0:0:0:
227,164,63629,2,0,P|189:164|155:150,1,75,2|0,3:2|1:2,0:0:0:0:
73,96,63992,1,2,1:2:0:0:
38,187,64174,2,0,L|30:283,1,75,8|2,0:0|0:0,0:0:0:0:
100,331,64538,6,0,P|149:339|217:313,1,75,2|0,3:2|1:2,0:0:0:0:
267,305,64901,2,0,P|316:297|384:323,1,75,10|0,0:0|0:0,0:0:0:0:
435,324,65265,2,0,L|455:231,1,75,2|0,1:2|1:2,0:0:0:0:
410,161,65629,2,0,L|390:68,1,75,10|0,0:0|0:0,0:0:0:0:
313,32,65992,5,2,3:2:0:0:
236,91,66174,1,2,0:0:0:0:
142,61,66356,2,0,L|79:72,3,37.5,10|2|2|2,0:0|0:0|0:0|0:0,0:0:0:0:
75,72,66720,1,10,0:0:0:0:
99,190,66901,1,10,0:0:0:0:
99,190,67265,6,0,P|157:220|245:185,1,150,6|0,0:0|1:2,0:0:0:0:
294,118,67811,2,0,L|378:110,1,75,10|0,0:0|0:0,0:0:0:0:
465,124,68174,1,2,1:2:0:0:
486,219,68356,2,0,P|495:258|484:305,1,75,2|8,1:2|0:0,0:0:0:0:
399,331,68720,6,0,P|334:315|256:361,1,150,6|0,0:1|1:2,0:0:0:0:
165,351,69265,2,0,P|122:353|82:335,1,75,10|0,0:0|0:0,0:0:0:0:
17,279,69629,1,2,1:2:0:0:
33,182,69811,2,0,L|49:81,1,75,2|8,1:2|0:0,0:0:0:0:
124,52,70174,6,0,B|177:82|177:82|297:68,1,150,6|0,0:1|1:2,0:0:0:0:
354,30,70720,2,0,L|370:111,1,75,10|0,0:0|0:0,0:0:0:0:
398,196,71083,2,0,L|383:269,1,75,2|0,1:2|1:2,0:0:0:0:
322,346,71447,1,10,0:0:0:0:
225,329,71629,6,0,P|166:341|84:291,1,150,6|0,0:1|1:2,0:0:0:0:
50,210,72174,2,0,P|36:165|50:116,1,75,10|0,0:0|0:0,0:0:0:0:
117,78,72538,2,0,L|200:76,1,75,2|2,1:2|1:2,0:0:0:0:
289,87,72901,1,10,0:0:0:0:
377,46,73083,6,0,B|404:109|349:132|387:192,1,150,6|2,0:0|1:2,0:0:0:0:
420,282,73629,1,8,0:0:0:0:
359,359,73811,2,0,P|295:366|269:357,1,75,0|0,3:2|1:2,0:0:0:0:
204,310,74174,2,0,P|140:303|114:312,1,75,0|10,1:2|0:0,0:0:0:0:
40,344,74538,1,2,3:2:0:0:
16,249,74720,5,2,0:0:0:0:
106,210,74901,2,0,L|117:119,1,75,2|8,1:2|0:0,0:0:0:0:
194,78,75265,2,0,P|251:72|294:87,1,75,2|0,3:2|1:2,0:0:0:0:
347,132,75629,1,2,3:2:0:0:
413,202,75811,2,0,P|420:250|405:294,1,75,8|2,3:2|0:0,0:0:0:0:
328,323,76174,6,0,L|231:314,1,75,6|0,3:2|1:2,0:0:0:0:
199,234,76538,2,0,L|296:225,1,75,10|0,0:0|0:0,0:0:0:0:
337,151,76901,2,0,L|240:142,1,75,2|0,1:2|1:2,0:0:0:0:
208,62,77265,2,0,L|305:53,1,75,10|0,0:0|0:0,0:0:0:0:
378,75,77629,6,0,P|418:127|399:208,1,150,2|8,3:2|0:0,0:0:0:0:
333,275,78174,1,2,3:2:0:0:
333,275,78538,1,6,0:0:0:0:
235,281,78720,2,0,L|125:267,1,75,10|0,0:0|0:0,0:0:0:0:
76,222,79083,6,0,P|70:176|80:134,1,75,6|0,3:2|0:0,0:0:0:0:
158,95,79447,1,8,0:0:0:0:
249,130,79629,2,0,P|312:161|411:140,1,150,6|0,0:0|0:0,0:0:0:0:
474,105,80174,1,10,0:0:0:0:
481,202,80356,6,0,L|468:365,1,150,6|0,0:0|0:0,0:0:0:0:
371,337,80901,2,0,L|378:238,1,75,8|0,0:0|0:0,0:0:0:0:
404,168,81265,1,8,0:3:0:0:
434,75,81447,1,0,1:0:0:0:
434,75,81538,1,0,1:0:0:0:
434,75,81629,2,0,P|406:38|342:27,1,112.5,8|0,1:2|0:0,0:0:0:0:
319,43,81992,6,0,P|300:77|303:128,1,75,14|0,0:0|0:0,0:0:0:0:
203,95,82356,2,0,P|208:150|235:183,1,75,10|0,0:0|0:0,0:0:0:0:
127,202,82720,2,0,P|155:245|198:258,1,75,10|0,0:0|0:0,0:0:0:0:
112,328,83083,2,0,P|148:349|215:343,1,75,10|0,0:0|0:0,0:0:0:0:
273,319,83447,6,0,L|363:305,1,75,10|2,0:0|0:0,0:0:0:0:
392,220,83811,1,8,0:0:0:0:
392,220,83993,1,2,0:0:0:0:
323,151,84174,1,8,0:0:0:0:
323,151,84379,1,2,0:0:0:0:
226,168,84560,2,0,P|198:174|179:175,3,37.5,2|0|2|0,0:0|1:0|0:0|1:0,0:0:0:0:
154,188,84925,6,0,L|144:297,1,75,6|0,1:2|0:0,0:0:0:0:
57,222,85288,2,0,L|64:147,1,75,8|0,3:2|0:0,0:0:0:0:
126,71,85652,2,0,P|179:58|226:68,1,75,2|0,1:2|1:0,0:0:0:0:
289,95,86015,2,0,P|327:95|362:83,1,75,10|0,3:2|0:0,0:0:0:0:
443,137,86379,6,0,B|453:177|453:177|442:228,1,75,6|0,3:2|0:0,0:0:0:0:
399,296,86743,1,8,0:0:0:0:
302,311,86925,2,0,P|250:328|154:270,1,150,6|0,3:2|1:2,0:0:0:0:
166,290,87426,1,8,1:2:0:0:
245,234,87607,1,6,3:2:0:0:
256,192,87698,12,0,89244,0:0:0:0:
