osu file format v14

[General]
AudioFilename: clear.mp3
AudioLeadIn: 0
PreviewTime: 55111
Countdown: 0
SampleSet: Soft
StackLeniency: 0.7
Mode: 0
LetterboxInBreaks: 0
WidescreenStoryboard: 0

[Editor]
DistanceSpacing: 1
BeatDivisor: 4
GridSize: 16
TimelineZoom: 1.444

[Metadata]
Title:CLEAR
TitleUnicode:CLEAR
Artist:Maaya Sakamoto
ArtistUnicode:坂本真綾
Creator:Underforest
Version:Easy
Source:カードキャプターさくら クリアカード編
Tags:Cardcaptor Card Captor Sakura Clear Card Hen Kaadokyaputaa Kuria Kaado Arc First Opening TV Size Hazu-
BeatmapID:1515320
BeatmapSetID:717166

[Difficulty]
HPDrainRate:2
CircleSize:2.5
OverallDifficulty:2
ApproachRate:3
SliderMultiplier:0.9
SliderTickRate:1

[Events]
//Background and Video events
0,0,"bg.jpg",0,0
Video,-227,"video.avi"
//Break Periods
//Storyboard Layer 0 (Background)
//Storyboard Layer 1 (Fail)
//Storyboard Layer 2 (Pass)
//Storyboard Layer 3 (Foreground)
//Storyboard Sound Samples

[TimingPoints]
991,769.230769230769,4,2,1,40,1,0
19452,-100,4,2,2,20,0,0
20361,363.636363636364,4,2,1,50,1,0
20542,363.636363636364,4,2,1,60,1,0
20930,363.636363636364,4,2,1,70,1,0
22729,363.636363636364,4,2,1,70,1,0
23092,363.636363636364,4,2,1,70,1,0
23820,363.636363636364,4,2,1,70,1,0
29638,-100,4,2,1,60,0,0
50001,-100,4,2,1,50,0,0
52930,363.636363636364,4,2,1,70,1,0
55630,363.636363636364,4,2,1,80,1,1
55811,363.636363636364,4,2,1,80,1,1
66901,-100,4,2,1,80,0,0
67265,-100,4,2,1,80,0,1
81629,-100,4,2,1,80,0,0
81993,363.636363636364,4,2,1,80,1,1
84379,363.636363636364,4,2,1,80,1,1
84925,363.636363636364,4,2,1,70,1,0
87426,363.636363636364,5,2,1,70,1,0
87607,-100,4,2,1,60,0,0
87971,-100,4,2,1,50,0,0
88335,-100,4,2,1,40,0,0
88698,-100,4,2,1,30,0,0
88880,-100,4,2,1,20,0,0
89062,-100,4,2,1,10,0,0
89244,-100,4,2,1,5,0,0

[Colours]
Combo1 : 176,15,238
Combo2 : 137,140,243
Combo3 : 242,203,45
Combo4 : 240,0,6
Combo5 : 188,248,7
Combo6 : 255,168,255
SliderTrackOverride : 30,30,30
SliderBorder : 255,0,128

[HitObjects]
87,64,4067,6,0,P|51:129|52:155,1,90,2|2,3:2|0:0,0:0:0:0:
112,208,5606,2,0,P|165:206|205:170,1,90,2|2,3:2|0:0,0:0:0:0:
222,102,7144,2,0,P|203:58|154:30,2,90,2|2|2,3:2|0:0|3:2,0:0:0:0:
284,167,9452,1,2,3:2:0:0:
330,244,10221,6,0,B|287:257|287:257|238:242,1,90,2|2,3:2|3:2,0:0:0:0:
154,250,11760,2,0,B|111:237|111:237|67:250,1,90,2|0,3:2|0:0,0:0:0:0:
114,327,13298,2,0,P|174:359|206:354,1,90,2|2,3:2|0:0,0:0:0:0:
267,305,14837,2,0,P|302:298|344:308,1,67.5,2|2,3:2|3:2,0:0:0:0:
422,235,16375,6,0,L|429:150,1,67.5,2|2,3:2|3:2,0:0:0:0:
256,192,17721,12,2,19452,0:0:0:0:
72,83,20930,6,0,L|171:88,1,90,14|10,0:0|0:0,0:0:0:0:
242,127,21657,2,0,L|341:132,1,90,10|10,0:0|0:0,0:0:0:0:
413,168,22384,2,0,P|424:218|409:268,1,85.4,10|8,0:0|0:0,0:0:0:0:
359,319,23092,2,0,P|309:330|268:317,1,90,8|10,0:0|0:0,0:0:0:0:
182,311,23819,5,14,1:2:0:0:
109,257,24183,2,0,B|99:208|99:208|113:162,1,90,10|2,3:2|1:2,0:0:0:0:
142,85,24910,1,10,3:2:0:0:
220,41,25274,2,0,B|274:63|298:23|360:41,2,135,2|2|10,3:2|3:2|3:2,0:0:0:0:
131,60,26729,5,2,1:2:0:0:
45,88,27092,2,0,L|53:188,1,90,10|2,3:2|1:2,0:0:0:0:
62,267,27820,1,10,3:2:0:0:
139,313,28183,2,0,P|185:354|271:343,2,135,2|2|10,3:2|3:2|3:2,0:0:0:0:
218,270,29638,6,0,L|324:265,1,90,6|8,1:0|0:0,0:0:0:0:
352,187,30365,2,0,P|366:150|361:92,1,90,2|8,1:2|0:0,0:0:0:0:
288,50,31092,2,0,L|198:54,1,90,0|8,0:0|0:0,0:0:0:0:
108,47,31820,2,0,P|94:84|99:142,1,90,0|8,1:2|0:0,0:0:0:0:
74,221,32547,6,0,L|59:369,1,135,2|2,3:2|0:0,0:0:0:0:
149,343,33456,1,2,1:2:0:0:
236,322,33820,2,0,P|303:308|377:331,1,135,2|10,1:2|0:0,0:0:0:0:
431,263,34729,2,0,L|443:163,1,90,2|10,1:2|0:0,0:0:0:0:
503,107,35456,6,0,P|444:83|407:89,1,90,6|8,3:1|0:0,0:0:0:0:
331,107,36183,1,2,1:2:0:0:
241,112,36547,2,0,L|54:94,1,180,10|8,0:0|0:0,0:0:0:0:
27,179,37638,2,0,L|116:190,1,90,0|10,1:2|0:0,0:0:0:0:
184,248,38365,6,0,B|173:292|173:292|181:352,1,90,2|8,3:2|0:0,0:0:0:0:
266,358,39092,2,0,L|400:347,1,135,2|2,1:2|0:3,0:0:0:0:
414,258,40001,1,2,0:3:0:0:
419,168,40365,2,0,P|430:104|393:44,1,135,2|4,0:3|0:1,0:0:0:0:
343,119,41274,6,0,P|298:144|205:121,1,135,6|6,3:2|0:0,0:0:0:0:
93,79,42365,2,0,L|81:230,1,135,14|2,0:0|1:2,0:0:0:0:
116,296,43274,2,0,B|161:318|161:318|261:300,1,135,2|14,1:2|0:1,0:0:0:0:
299,231,44183,5,6,3:2:0:0:
293,141,44547,1,10,0:0:0:0:
352,73,44910,2,0,P|411:62|481:90,2,135,0|6|8,1:2|3:1|0:0,0:0:0:0:
261,62,46365,2,0,P|209:70|164:55,1,90,0|14,1:2|0:1,0:0:0:0:
87,89,47092,6,0,L|66:231,1,135,6|6,3:2|0:0,0:0:0:0:
84,310,48001,1,2,1:2:0:0:
163,352,48365,2,0,P|216:360|266:336,2,90,6|2|6,3:2|0:0|0:0,0:0:0:0:
202,271,49456,2,0,L|209:208,1,45,2|10,1:2|0:0,0:0:0:0:
282,176,50001,6,0,P|285:107|196:49,1,180,6|10,0:0|0:0,0:0:0:0:
42,135,51456,2,0,P|39:204|128:262,1,180,10|10,0:0|0:0,0:0:0:0:
303,302,52930,6,0,L|359:305,1,45,10|10,0:0|0:0,0:0:0:0:
419,358,53475,1,10,0:0:0:0:
486,298,53839,1,10,0:0:0:0:
461,211,54202,1,10,0:0:0:0:
370,210,54566,6,0,L|325:207,1,45,10|10,0:0|0:0,0:0:0:0:
236,192,55111,2,0,L|191:189,1,45,10|10,0:0|0:0,0:0:0:0:
108,200,55630,6,0,P|90:240|117:333,1,135,6|10,3:2|0:0,0:0:0:0:
194,355,56538,2,0,P|241:362|300:341,1,90,2|8,1:2|0:0,0:0:0:0:
359,307,57265,2,0,P|406:300|465:321,1,90,0|10,0:0|0:0,0:0:0:0:
483,228,57992,2,0,L|498:120,1,90,2|8,1:2|0:0,0:0:0:0:
406,120,58720,6,0,L|393:209,1,90,0|10,0:0|0:0,0:0:0:0:
385,298,59447,2,0,P|416:317|519:308,2,135,2|6|10,1:2|3:1|0:0,0:0:0:0:
306,255,60901,6,0,P|249:275|173:250,1,135,2|6,1:2|3:2,0:0:0:0:
90,241,61811,1,2,1:2:0:0:
1,227,62174,2,0,L|15:83,1,135,2|10,3:2|0:0,0:0:0:0:
98,61,63083,2,0,P|170:46|242:71,1,135,2|2,0:0|3:2,0:0:0:0:
314,87,63992,2,0,P|342:92|368:89,1,45,2|8,1:2|0:0,0:0:0:0:
439,129,64538,6,0,L|430:237,1,90,2|10,3:2|0:0,0:0:0:0:
384,297,65265,2,0,P|333:309|280:288,1,90,2|10,1:2|0:0,0:0:0:0:
210,278,65992,1,2,3:2:0:0:
119,276,66356,1,10,0:0:0:0:
50,215,66720,2,0,L|43:150,1,45,10|10,0:0|0:0,0:0:0:0:
75,85,67265,6,0,B|116:82|116:82|164:103|164:103|219:96,1,135,6|10,0:0|0:0,0:0:0:0:
294,85,68174,2,0,L|397:72,1,90,2|8,1:2|0:0,0:0:0:0:
419,156,68901,2,0,L|329:167,1,90,0|10,0:0|0:0,0:0:0:0:
240,180,69629,2,0,P|184:216|172:247,1,90,2|8,1:2|0:0,0:0:0:0:
118,303,70356,6,0,P|152:321|216:312,1,90,0|10,0:0|0:0,0:0:0:0:
290,306,71083,2,0,P|351:341|412:327,2,135,2|6|10,1:2|0:1|0:0,0:0:0:0:
362,252,72538,6,0,L|505:238,1,135,2|6,1:2|0:0,0:0:0:0:
474,151,73447,1,2,1:2:0:0:
400,100,73811,2,0,P|324:81|261:113,1,135,0|10,3:2|0:0,0:0:0:0:
186,126,74720,2,0,L|168:264,1,135,2|2,0:0|3:2,0:0:0:0:
215,338,75629,2,0,P|243:345|266:346,1,45,2|8,3:2|3:2,0:0:0:0:
340,307,76174,6,0,B|385:315|385:315|429:309,1,90,6|10,3:2|0:0,0:0:0:0:
429,218,76901,2,0,B|385:212|385:212|340:220,1,90,2|10,1:2|0:0,0:0:0:0:
254,190,77629,2,0,L|259:40,1,135,2|2,3:2|3:2,0:0:0:0:
170,33,78537,1,6,0:0:0:0:
45,85,79083,6,0,P|20:142|47:221,1,135,6|6,3:2|0:0,0:0:0:0:
208,273,80356,2,0,B|269:273|269:273|342:212|342:212|411:212,1,225,6|8,0:0|0:3,0:0:0:0:
484,161,81629,1,8,1:2:0:0:
440,83,81992,6,0,L|341:88,1,90,14|10,0:0|0:0,0:0:0:0:
269,126,82720,2,0,L|170:131,1,90,10|10,0:0|0:0,0:0:0:0:
99,169,83447,2,0,P|88:219|103:269,1,90,10|8,0:0|0:0,0:0:0:0:
153,325,84174,1,8,0:0:0:0:
242,358,84560,1,2,0:0:0:0:
328,332,84924,5,6,1:2:0:0:
377,256,85288,2,0,L|368:166,1,90,8|2,3:2|1:2,0:0:0:0:
356,77,86015,1,10,3:2:0:0:
272,41,86379,2,0,B|218:63|194:23|132:41,1,135,6|6,3:2|3:2,0:0:0:0:
61,136,87426,2,0,L|68:181,1,45,8|6,1:2|3:2,0:0:0:0:
256,192,87698,12,0,89244,0:0:0:0:
