osu file format v14

[General]
AudioFilename: clear.mp3
AudioLeadIn: 0
PreviewTime: 55111
Countdown: 0
SampleSet: Soft
StackLeniency: 0.7
Mode: 0
LetterboxInBreaks: 0
WidescreenStoryboard: 0

[Editor]
DistanceSpacing: 1
BeatDivisor: 8
GridSize: 8
TimelineZoom: 3.643999

[Metadata]
Title:CLEAR
TitleUnicode:CLEAR
Artist:Maaya Sakamoto
ArtistUnicode:坂本真綾
Creator:Underforest
Version:Brilliant
Source:カードキャプターさくら クリアカード編
Tags:Cardcaptor Card Captor Sakura Clear Card Hen Kaadokyaputaa Kuria Kaado Arc First Opening TV Size Hazu-
BeatmapID:1515205
BeatmapSetID:717166

[Difficulty]
HPDrainRate:6
CircleSize:4.2
OverallDifficulty:8.5
ApproachRate:9.2
SliderMultiplier:1.8
SliderTickRate:1

[Events]
//Background and Video events
0,0,"bg.jpg",0,0
Video,-227,"video.avi"
//Break Periods
//Storyboard Layer 0 (Background)
//Storyboard Layer 1 (Fail)
//Storyboard Layer 2 (Pass)
//Storyboard Layer 3 (Foreground)
//Storyboard Sound Samples

[TimingPoints]
991,769.230769230769,4,2,1,40,1,0
19452,-100,4,2,2,20,0,0
20361,363.636363636364,4,2,1,50,1,0
20542,363.636363636364,4,2,1,60,1,0
20542,-80,4,2,1,60,0,0
20930,363.636363636364,4,2,1,70,1,0
22729,363.636363636364,4,2,1,70,1,0
23092,363.636363636364,4,2,1,70,1,0
23820,363.636363636364,4,2,1,70,1,0
29638,-100,4,2,1,60,0,0
50001,-133.333333333333,4,2,1,50,0,0
52930,363.636363636364,4,2,1,70,1,0
54748,-133.333333333333,4,2,1,70,0,0
55020,-133.333333333333,4,2,1,5,0,0
55111,-100,4,2,1,70,0,0
55630,363.636363636364,4,2,1,80,1,1
55811,363.636363636364,4,2,1,80,1,1
66901,-100,4,2,1,80,0,0
67265,-100,4,2,1,80,0,1
81629,-80,4,2,1,80,0,0
81993,363.636363636364,4,2,1,80,1,1
84379,363.636363636364,4,2,1,80,1,1
84925,363.636363636364,4,2,1,70,1,0
87426,363.636363636364,5,2,1,70,1,0
87607,-100,4,2,1,60,0,0
87971,-100,4,2,1,50,0,0
88334,-100,4,2,1,40,0,0
88698,-100,4,2,1,30,0,0
88880,-100,4,2,1,20,0,0
89061,-100,4,2,1,10,0,0
89243,-100,4,2,1,5,0,0

[Colours]
Combo1 : 176,15,238
Combo2 : 137,140,243
Combo3 : 242,203,45
Combo4 : 240,0,6
Combo5 : 188,248,7
Combo6 : 255,168,255
SliderTrackOverride : 30,30,30
SliderBorder : 255,0,128

[HitObjects]
440,159,991,5,2,0:0:0:0:
440,159,1087,1,0,0:0:0:0:
440,159,1183,2,0,B|287:226|295:98|135:159,1,315,2|2,3:2|0:0,0:0:0:0:
70,209,3298,5,2,0:0:0:0:
70,209,3490,2,0,P|116:237|175:231,1,90,2|0,0:0|0:0,0:0:0:0:
232,198,4067,6,0,P|291:169|412:246,1,180,2|2,3:2|0:0,0:0:0:0:
450,276,5029,1,2,0:0:0:0:
283,344,5414,1,0,0:0:0:0:
283,344,5606,6,0,L|105:320,1,180,2|2,3:2|0:0,0:0:0:0:
15,305,6567,1,2,0:0:0:0:
90,141,6952,1,0,0:0:0:0:
90,141,7144,6,0,P|128:130|163:132,1,45,2|0,3:2|0:0,0:0:0:0:
205,75,7529,2,0,P|243:86|278:84,1,45,0|2,0:0|0:0,0:0:0:0:
333,119,7914,2,0,L|326:207,1,45,2|0,0:0|0:0,0:0:0:0:
381,237,8298,2,0,L|374:325,1,45,0|2,0:0|0:0,0:0:0:0:
440,346,8683,6,0,P|385:372|291:305,1,180,2|2,3:2|3:2,0:0:0:0:
216,265,9644,1,0,0:0:0:0:
133,301,9837,1,2,0:0:0:0:
65,241,10029,6,0,L|76:162,1,45,0|2,0:0|3:2,0:0:0:0:
120,120,10414,2,0,L|131:41,1,45,0|0,0:0|0:0,0:0:0:0:
213,55,10798,2,0,P|254:51|297:57,1,45,0|2,0:0|3:2,0:0:0:0:
348,51,11183,1,0,0:0:0:0:
401,123,11375,2,0,P|405:164|399:207,1,45,0|0,0:0|0:0,0:0:0:0:
347,237,11760,6,0,L|230:246,1,90,2|0,3:2|0:0,0:0:0:0:
168,227,12337,2,0,L|51:218,1,90,0|0,0:0|0:0,0:0:0:0:
15,155,12914,1,2,0:0:0:0:
76,89,13106,1,0,0:0:0:0:
147,143,13298,6,0,P|198:127|266:143,1,90,2|0,3:2|0:0,0:0:0:0:
259,308,14067,2,0,P|208:324|140:308,1,90,2|0,0:0|0:0,0:0:0:0:
58,180,14837,2,0,L|71:48,1,90,2|0,3:2|0:0,0:0:0:0:
138,35,15414,2,0,P|182:32|225:44,1,90,2|2,3:2|3:2,0:0:0:0:
418,234,16375,6,0,B|393:231|393:231|353:243|353:243|311:235,1,90,2|0,3:2|0:0,0:0:0:0:
296,322,16952,2,0,B|321:319|321:319|361:331|361:331|403:323,1,90,2|0,3:2|0:0,0:0:0:0:
472,306,17529,1,0,0:0:0:0:
417,234,17721,6,0,B|418:183|504:178|500:141|500:104|485:78|440:64|409:105|409:105|377:67|328:76|299:135|364:178,1,405,2|2,3:2|0:0,0:0:0:0:
134,58,20361,5,0,1:0:0:0:
134,58,20451,1,0,1:0:0:0:
134,58,20542,2,0,B|88:69|22:55|22:55|59:106,1,168.75,8|0,1:2|0:0,0:0:0:0:
117,142,20930,5,14,0:0:0:0:
425,110,21111,1,0,0:0:0:0:
216,316,21293,5,10,0:0:0:0:
263,20,21475,1,0,0:0:0:0:
398,278,21657,5,10,0:0:0:0:
104,236,21839,1,0,0:0:0:0:
375,100,22020,5,10,0:0:0:0:
282,369,22202,1,0,0:0:0:0:
215,151,22384,5,10,0:0:0:0:
436,304,22566,1,2,0:0:0:0:
300,78,22729,1,8,0:0:0:0:
181,316,22910,1,2,0:0:0:0:
164,323,23001,1,0,0:0:0:0:
146,330,23092,5,8,0:0:0:0:
118,294,23182,1,0,1:0:0:0:
106,251,23273,1,2,0:0:0:0:
111,207,23364,1,0,1:0:0:0:
133,168,23455,2,0,L|153:107,1,45,10|0,0:0|1:0,0:0:0:0:
279,57,23637,2,0,L|293:99,1,45,2|0,0:0|1:0,0:0:0:0:
332,236,23819,5,14,1:2:0:0:
102,281,24001,1,0,0:0:0:0:
352,231,24183,1,10,3:2:0:0:
91,170,24365,1,0,0:0:0:0:
277,307,24547,1,2,1:2:0:0:
221,142,24729,1,0,1:0:0:0:
128,354,24910,2,0,L|37:362,1,90,10|0,3:2|0:0,0:0:0:0:
214,285,25274,6,0,L|303:277,1,90,2|0,3:2|0:0,0:0:0:0:
416,157,25638,1,10,0:0:0:0:
253,96,25820,2,0,P|235:160|249:214,1,90,2|0,3:2|1:0,0:0:0:0:
267,358,26183,1,0,1:0:0:0:
312,152,26365,1,10,3:2:0:0:
125,252,26547,1,2,3:2:0:0:
384,289,26729,5,2,1:2:0:0:
216,183,26910,1,0,0:0:0:0:
461,135,27092,1,10,3:2:0:0:
282,289,27274,1,0,0:0:0:0:
339,81,27456,1,2,1:2:0:0:
427,215,27638,1,0,1:0:0:0:
185,189,27820,2,0,L|54:195,1,90,10|0,3:2|0:0,0:0:0:0:
270,90,28183,6,0,L|414:97,1,135,2|0,3:2|0:0,0:0:0:0:
404,96,28547,1,14,0:0:0:0:
299,20,28729,1,2,3:2:0:0:
299,20,28820,1,0,1:0:0:0:
299,20,28910,1,0,1:0:0:0:
480,24,29092,1,0,1:0:0:0:
337,191,29274,1,10,3:2:0:0:
475,195,29456,1,2,3:2:0:0:
393,335,29638,5,6,1:0:0:0:
393,335,30001,2,0,L|273:316,1,90,8|2,0:0|0:0,0:0:0:0:
199,247,30365,1,2,1:2:0:0:
295,170,30547,2,0,P|341:161|398:194,1,90,2|8,1:2|0:0,0:0:0:0:
199,247,30910,6,0,P|153:256|96:223,1,90,2|0,3:2|0:0,0:0:0:0:
33,117,31274,2,0,L|44:25,1,90,2|8,0:0|0:0,0:0:0:0:
152,94,31638,2,0,L|162:183,1,90,2|0,0:0|1:2,0:0:0:0:
166,356,32001,1,2,1:2:0:0:
315,284,32183,1,8,0:0:0:0:
113,240,32365,1,2,0:0:0:0:
315,284,32547,6,0,P|374:320|488:265,1,180,2|8,3:2|0:0,0:0:0:0:
405,144,33092,2,0,P|391:191|399:242,1,90,2|0,0:0|1:2,0:0:0:0:
491,95,33456,1,2,1:2:0:0:
340,37,33638,2,0,P|291:31|232:50,1,90,8|2,0:0|1:2,0:0:0:0:
143,203,34001,5,0,1:0:0:0:
279,139,34183,1,2,0:0:0:0:
116,11,34365,2,0,P|107:49|135:106,1,90,10|0,0:0|0:0,0:0:0:0:
228,228,34729,1,2,1:2:0:0:
185,46,34910,1,0,1:2:0:0:
83,198,35092,2,0,L|91:335,1,135,10|0,0:0|0:0,0:0:0:0:
94,355,35456,6,0,P|148:360|201:339,1,90,6|0,3:1|0:0,0:0:0:0:
286,228,35820,2,0,P|232:223|179:244,1,90,8|2,0:0|0:0,0:0:0:0:
72,277,36183,1,2,1:2:0:0:
248,302,36365,1,0,1:2:0:0:
155,114,36547,1,10,0:0:0:0:
347,141,36729,6,0,L|473:130,1,90,2|0,3:2|0:0,0:0:0:0:
308,42,37092,2,0,L|182:31,1,90,2|8,0:0|0:0,0:0:0:0:
163,194,37456,2,0,L|252:201,1,90,2|0,0:0|1:2,0:0:0:0:
394,138,37820,1,0,1:2:0:0:
375,293,38001,2,0,P|384:336|369:382,1,90,10|0,0:0|0:0,0:0:0:0:
266,248,38365,6,0,P|252:205|261:161,1,90,2|0,3:2|0:0,0:0:0:0:
383,82,38729,1,8,0:0:0:0:
329,199,38910,1,2,0:0:0:0:
470,121,39092,1,2,1:2:0:0:
293,53,39274,1,2,1:2:0:0:
425,206,39456,1,8,0:0:0:0:
195,102,39638,5,2,0:3:0:0:
104,376,40001,1,2,0:3:0:0:
388,316,40365,1,2,0:3:0:0:
69,184,40729,5,0,0:3:0:0:
255,160,40910,2,0,P|328:193|403:161,1,135,4|0,0:1|0:0,0:0:0:0:
397,151,41274,6,0,L|412:51,1,90,6|0,3:2|0:0,0:0:0:0:
486,207,41638,1,8,0:0:0:0:
308,188,41820,2,0,L|323:88,1,90,6|2,0:0|1:2,0:0:0:0:
391,267,42183,1,0,1:2:0:0:
222,207,42365,2,0,L|237:107,1,90,14|2,0:0|3:2,0:0:0:0:
282,256,42729,6,0,P|238:281|178:270,1,90,0|2,0:0|1:2,0:0:0:0:
107,199,43092,1,8,0:0:0:0:
0,248,43274,2,0,L|4:342,1,90,2|0,1:2|1:2,0:0:0:0:
110,379,43638,1,2,1:2:0:0:
107,199,43820,2,0,L|102:57,1,135,14|0,0:1|0:0,0:0:0:0:
130,41,44183,6,0,P|174:31|230:39,1,90,6|0,3:2|0:0,0:0:0:0:
347,126,44547,2,0,L|364:24,1,90,10|0,0:0|0:0,0:0:0:0:
234,175,44910,1,0,1:2:0:0:
398,226,45092,1,2,1:2:0:0:
218,168,45274,1,8,0:0:0:0:
415,229,45456,6,0,L|400:335,1,90,6|0,3:1|0:0,0:0:0:0:
252,347,45820,2,0,L|239:257,1,90,2|8,1:2|0:0,0:0:0:0:
352,136,46183,2,0,L|364:46,1,90,2|0,1:2|1:2,0:0:0:0:
230,172,46547,1,2,1:2:0:0:
111,69,46729,2,0,P|55:50|4:58,1,90,14|0,0:1|0:0,0:0:0:0:
149,142,47092,6,0,P|187:100|192:50,1,90,6|0,3:2|0:0,0:0:0:0:
314,16,47456,1,8,0:0:0:0:
381,136,47638,6,0,L|389:240,1,90,6|0,0:0|1:2,0:0:0:0:
439,372,48001,1,2,1:2:0:0:
472,265,48183,1,8,0:0:0:0:
329,313,48365,6,0,P|273:324|235:314,1,90,6|0,3:2|0:0,0:0:0:0:
121,237,48729,1,2,0:0:0:0:
232,188,48910,1,8,0:0:0:0:
152,357,49092,6,0,L|46:342,1,90,6|0,0:0|1:2,0:0:0:0:
121,237,49456,1,2,1:2:0:0:
241,316,49638,2,0,P|285:323|328:312,1,90,10|0,0:0|0:0,0:0:0:0:
413,174,50001,6,0,P|369:166|296:204,1,101.250003862381,6|2,0:0|0:0,0:0:0:0:
275,220,50365,1,0,1:0:0:0:
180,160,50547,1,2,0:0:0:0:
81,205,50729,6,0,L|91:316,1,101.250003862381,10|2,0:0|0:0,0:0:0:0:
96,358,51092,1,0,1:0:0:0:
192,309,51274,1,2,0:0:0:0:
292,348,51456,6,0,B|325:355|325:355|366:345,1,67.5000025749208,10|8,0:0|0:0,0:0:0:0:
373,342,51729,1,2,0:0:0:0:
389,336,51820,1,0,1:0:0:0:
458,254,52001,1,2,0:0:0:0:
404,160,52183,6,0,L|298:145,1,101.250003862381,10|2,0:0|0:0,0:0:0:0:
249,138,52547,1,0,1:0:0:0:
249,138,52729,1,2,0:0:0:0:
450,56,52930,5,10,0:0:0:0:
445,290,53111,1,10,0:0:0:0:
218,50,53475,5,10,0:0:0:0:
445,290,53839,5,10,0:0:0:0:
81,232,54202,5,10,0:0:0:0:
173,94,54565,5,10,0:0:0:0:
464,172,54748,2,0,L|479:72,1,101.250003862381,10|0,0:0|0:0,0:0:0:0:
484,38,55111,5,10,0:0:0:0:
188,239,55293,1,10,0:0:0:0:
188,239,55630,6,0,B|87:272|112:209|11:237,1,180,6|0,3:2|1:2,0:0:0:0:
146,125,56174,2,0,L|138:169,1,45,10|0,0:0|0:0,0:0:0:0:
293,217,56356,2,0,L|285:172,1,45,0|2,0:0|0:0,0:0:0:0:
260,17,56538,5,2,1:2:0:0:
210,200,56720,1,2,1:2:0:0:
390,152,56901,1,8,0:0:0:0:
325,318,57083,6,0,P|386:340|471:236,1,180,6|0,3:1|1:2,0:0:0:0:
506,102,57629,1,10,0:0:0:0:
386,259,57811,1,0,0:0:0:0:
349,106,57992,2,0,L|333:-11,1,90,2|2,1:2|1:2,0:0:0:0:
445,191,58356,1,8,0:0:0:0:
258,175,58538,5,6,3:1:0:0:
85,253,58720,1,0,0:0:0:0:
163,95,58901,1,0,1:2:0:0:
198,251,59083,1,10,0:0:0:0:
16,90,59265,1,0,0:0:0:0:
236,163,59447,1,2,1:2:0:0:
3,270,59629,1,0,1:2:0:0:
90,55,59811,1,10,0:0:0:0:
281,242,59992,6,0,B|340:274|415:240|415:240|366:198,1,180,6|0,3:1|1:2,0:0:0:0:
255,80,60538,2,0,L|155:89,1,90,10|4,0:0|0:3,0:0:0:0:
20,198,60901,1,2,1:2:0:0:
243,159,61083,1,4,1:3:0:0:
89,26,61265,1,10,0:0:0:0:
131,277,61447,6,0,L|147:378,1,90,6|0,3:2|0:0,0:0:0:0:
318,314,61811,2,0,L|334:213,1,90,2|8,1:2|0:0,0:0:0:0:
193,91,62174,2,0,L|207:179,1,90,2|0,3:2|1:2,0:0:0:0:
239,357,62538,1,0,1:2:0:0:
315,160,62720,1,10,0:0:0:0:
131,277,62901,1,2,3:2:0:0:
315,160,63083,6,0,P|352:151|408:168,1,90,2|2,0:0|1:2,0:0:0:0:
509,282,63447,1,8,0:0:0:0:
346,330,63629,2,0,L|359:230,1,90,2|0,3:2|1:2,0:0:0:0:
255,120,63992,1,2,1:2:0:0:
113,187,64174,2,0,P|76:178|20:195,1,90,8|2,0:0|0:0,0:0:0:0:
184,266,64538,6,0,L|283:279,1,90,2|0,3:2|1:2,0:0:0:0:
419,151,64901,2,0,L|320:138,1,90,10|0,0:0|0:0,0:0:0:0:
171,277,65265,6,0,L|270:290,1,90,2|0,1:2|1:2,0:0:0:0:
432,140,65629,2,0,L|333:127,1,90,10|0,0:0|0:0,0:0:0:0:
130,188,65992,5,2,3:2:0:0:
355,289,66174,1,2,0:0:0:0:
322,51,66356,1,10,0:0:0:0:
277,51,66447,1,2,0:0:0:0:
240,75,66538,1,2,0:0:0:0:
220,115,66629,1,2,0:0:0:0:
224,159,66720,5,10,0:0:0:0:
492,108,66901,1,10,0:0:0:0:
492,108,67265,6,0,B|444:101|444:101|377:131|377:131|312:119,1,180,6|0,0:0|1:2,0:0:0:0:
464,193,67811,1,10,0:0:0:0:
364,35,67992,1,0,0:0:0:0:
270,213,68174,1,2,1:2:0:0:
380,128,68356,1,2,1:2:0:0:
153,140,68538,1,8,0:0:0:0:
293,348,68720,6,0,P|328:367|479:318,1,180,6|0,0:1|1:2,0:0:0:0:
373,222,69265,1,10,0:0:0:0:
221,376,69447,1,0,0:0:0:0:
138,240,69629,2,0,L|128:126,1,90,2|2,1:2|1:2,0:0:0:0:
253,283,69992,1,8,0:0:0:0:
61,310,70174,5,6,0:1:0:0:
213,180,70356,1,0,0:0:0:0:
6,97,70537,1,0,1:2:0:0:
137,244,70719,1,10,0:0:0:0:
212,36,70901,1,0,0:0:0:0:
72,171,71083,1,2,1:2:0:0:
286,233,71265,1,0,1:2:0:0:
142,102,71446,1,10,0:0:0:0:
137,321,71628,6,0,L|328:338,1,180,6|0,0:1|1:2,0:0:0:0:
432,240,72174,2,0,P|441:180|420:126,1,90,10|0,0:0|0:0,0:0:0:0:
306,17,72537,1,2,1:2:0:0:
294,192,72719,1,2,1:2:0:0:
462,44,72901,1,10,0:0:0:0:
207,88,73083,6,0,P|144:82|104:96,1,90,6|0,0:0|0:0,0:0:0:0:
82,240,73447,2,0,P|126:247|170:240,1,90,2|8,1:2|0:0,0:0:0:0:
352,197,73811,2,0,L|371:313,1,90,0|0,3:2|1:2,0:0:0:0:
430,84,74175,1,0,1:2:0:0:
244,134,74356,1,10,0:0:0:0:
460,225,74538,1,2,3:2:0:0:
283,271,74720,6,0,P|242:288|198:282,1,90,2|2,0:0|1:2,0:0:0:0:
72,358,75084,1,8,0:0:0:0:
29,169,75266,2,0,L|45:52,1,90,2|0,3:2|1:2,0:0:0:0:
148,8,75629,1,2,3:2:0:0:
240,122,75811,2,0,P|285:109|340:122,1,90,8|2,3:2|0:0,0:0:0:0:
402,113,76084,1,0,0:0:0:0:
422,108,76174,6,0,L|402:232,1,90,6|0,3:2|1:2,0:0:0:0:
251,307,76538,2,0,L|236:218,1,90,10|0,0:0|0:0,0:0:0:0:
398,277,76901,2,0,L|378:401,1,90,2|0,1:2|1:2,0:0:0:0:
234,315,77265,2,0,L|219:226,1,90,10|0,0:0|0:0,0:0:0:0:
206,152,77537,1,2,0:0:0:0:
198,130,77629,6,0,L|92:121,1,90,2|0,3:2|0:0,0:0:0:0:
10,329,77992,1,8,0:0:0:0:
234,315,78174,1,2,3:2:0:0:
409,43,78538,1,6,0:0:0:0:
471,179,78720,2,0,L|482:297,1,90,10|0,0:0|0:0,0:0:0:0:
371,351,79083,6,0,P|311:377|211:307,1,180,6|8,3:2|0:0,0:0:0:0:
288,118,79629,2,0,B|328:164|328:164|304:280,1,180,6|0,0:0|0:0,0:0:0:0:
202,204,80174,1,10,0:0:0:0:
395,102,80356,2,0,L|501:90,1,90,6|0,0:0|0:0,0:0:0:0:
431,236,80720,1,0,0:0:0:0:
294,293,80901,2,0,L|188:281,1,90,8|0,0:0|0:0,0:0:0:0:
77,212,81265,5,8,0:3:0:0:
25,40,81447,1,0,1:0:0:0:
25,40,81538,1,0,1:0:0:0:
25,40,81629,2,0,B|36:86|22:152|22:152|73:115,1,168.75,8|0,1:2|0:0,0:0:0:0:
113,61,81992,5,14,0:0:0:0:
364,15,82174,1,0,0:0:0:0:
142,132,82356,5,10,0:0:0:0:
418,103,82538,1,0,0:0:0:0:
160,206,82720,5,10,0:0:0:0:
461,209,82902,1,0,0:0:0:0:
174,283,83083,5,10,0:0:0:0:
489,320,83265,1,0,0:0:0:0:
263,166,83447,5,10,0:0:0:0:
343,382,83629,1,2,0:0:0:0:
450,119,83811,5,8,0:0:0:0:
380,317,83993,1,2,0:0:0:0:
342,90,84174,5,8,0:0:0:0:
480,249,84379,1,2,0:0:0:0:
480,249,84469,1,0,1:0:0:0:
480,249,84560,2,0,L|419:258,1,45,2|0,0:0|1:0,0:0:0:0:
330,304,84742,2,0,L|269:295,1,45,2|0,0:0|1:0,0:0:0:0:
181,228,84925,5,6,1:2:0:0:
302,60,85106,1,0,0:0:0:0:
73,62,85288,1,8,3:2:0:0:
299,179,85470,1,0,0:0:0:0:
113,169,85652,1,2,1:2:0:0:
225,59,85834,1,0,1:0:0:0:
262,273,86015,2,0,L|251:379,1,90,10|0,3:2|0:0,0:0:0:0:
257,149,86379,6,0,P|308:152|347:182,1,90,6|0,3:2|0:0,0:0:0:0:
339,315,86743,1,8,0:0:0:0:
184,251,86925,2,0,L|173:50,1,180,6|0,3:2|1:2,0:0:0:0:
340,174,87426,1,8,1:2:0:0:
74,265,87607,1,6,3:2:0:0:
256,192,87698,12,0,89244,0:0:0:0:
