osu file format v13

[General]
AudioFilename: MaRLo feat. Jano - Haunted.mp3
AudioLeadIn: 0
PreviewTime: 129836
Countdown: 0
SampleSet: Soft
StackLeniency: 0.7
Mode: 0
LetterboxInBreaks: 0
WidescreenStoryboard: 0

[Editor]
Bookmarks: 36540,47450,65631,101995,160177,163813
DistanceSpacing: 1
BeatDivisor: 4
GridSize: 4
TimelineZoom: 1.100001

[Metadata]
Title:Haunted
TitleUnicode:Haunted
Artist:MaRLo feat. Jano
ArtistUnicode:MaRLo feat. Jano
Creator:Shadren
Version:Insane
Source:
Tags:trance bragador female vocal bass art hoogstraten
BeatmapID:471858
BeatmapSetID:182758

[Difficulty]
HPDrainRate:7
CircleSize:4
OverallDifficulty:7
ApproachRate:9
SliderMultiplier:2
SliderTickRate:1

[Events]
//Background and Video events
0,0,"BG.png",0,0
//Break Periods
2,38559,46850
2,95831,99577
//Storyboard Layer 0 (Background)
//Storyboard Layer 1 (Fail)
//Storyboard Layer 2 (Pass)
//Storyboard Layer 3 (Foreground)
//Storyboard Sound Samples
//Background Colour Transformations
3,100,163,162,255

[TimingPoints]
7450,454.545454545455,4,1,1,40,1,0
38359,-100,4,2,1,5,0,0
47450,-200,4,2,1,60,0,0
101995,-100,4,1,1,40,0,0
129268,-100,4,1,1,5,0,0
129495,-100,4,1,1,40,0,0
131086,-100,4,1,1,50,0,1
143813,-100,4,2,1,60,0,0
145631,-100,4,1,1,50,0,1
160177,-100,4,1,1,40,0,0
160290,-100,4,2,0,35,0,0
160631,-100,4,2,0,30,0,0
161086,-100,4,2,0,25,0,0
161540,-100,4,2,0,20,0,0
161995,-100,4,2,0,15,0,0
162450,-100,4,2,0,10,0,0
162904,-100,4,2,0,5,0,0

[Colours]
Combo1 : 255,218,106
Combo2 : 212,212,212
Combo3 : 106,173,255
Combo4 : 247,115,135
SliderBorder : 255,255,255

[HitObjects]
448,44,7450,6,0,P|391:94|309:85,1,150
287,85,7904,2,0,P|240:87|192:129,1,100,8|0,0:0|0:0,0:0:0:0:
52,260,8359,2,0,P|129:236|143:205,1,100
48,124,8813,1,8,0:0:0:0:
148,336,9040,1,0,0:0:0:0:
208,192,9268,6,0,L|308:216,1,100
320,200,9609,1,0,0:0:0:0:
332,188,9722,1,8,0:0:0:0:
356,340,9950,1,0,0:0:0:0:
208,192,10177,1,0,0:0:0:0:
368,116,10404,1,0,0:0:0:0:
492,220,10631,1,8,0:0:0:0:
304,216,10859,1,0,0:0:0:0:
472,328,11086,1,0,0:0:0:0:
388,216,11313,5,0,0:0:0:0:
388,216,11427,1,0,0:0:0:0:
388,216,11540,2,0,L|324:136,1,100,8|0,0:0|0:0,0:0:0:0:
340,40,11995,1,0,0:0:0:0:
256,160,12222,1,0,0:0:0:0:
264,76,12450,1,8,0:0:0:0:
444,156,12677,2,0,P|472:204|460:256,1,100
272,292,13131,5,0,0:0:0:0:
272,292,13245,1,0,0:0:0:0:
272,292,13359,2,0,P|320:304|376:284,1,100,8|0,0:0|0:0,0:0:0:0:
432,216,13813,1,0,0:0:0:0:
312,176,14040,1,0,0:0:0:0:
424,316,14268,2,0,L|432:208,1,100,8|0,0:0|0:0,0:0:0:0:
344,356,14722,6,0,P|284:368|244:356,1,100
220,344,15063,1,0,0:0:0:0:
196,324,15177,1,8,0:0:0:0:
132,248,15404,2,0,P|116:192|140:144,1,100
216,100,15859,1,0,0:0:0:0:
124,60,16086,1,8,0:0:0:0:
224,276,16313,1,0,0:0:0:0:
264,184,16540,6,0,L|364:156,1,100
388,148,16881,1,0,0:0:0:0:
416,140,16995,1,8,0:0:0:0:
352,248,17222,1,0,0:0:0:0:
236,132,17450,1,0,0:0:0:0:
448,220,17677,1,0,0:0:0:0:
320,76,17904,1,8,0:0:0:0:
252,232,18131,1,0,0:0:0:0:
160,192,18359,6,0,P|148:140|164:96,1,100,2|0,2:0|0:0,0:0:0:0:
184,80,18700,1,0,0:0:0:0:
212,68,18813,1,8,0:0:0:0:
328,160,19040,2,0,P|340:212|324:256,1,100
148,360,19495,2,0,P|176:316|224:304,1,100,0|8,0:0|0:0,0:0:0:0:
408,324,19950,1,0,0:0:0:0:
252,232,20177,1,2,2:0:0:0:
364,160,20404,5,0,0:0:0:0:
364,160,20518,1,0,0:0:0:0:
364,160,20631,2,0,P|376:112|360:64,1,100,8|0,0:0|0:0,0:0:0:0:
184,124,21086,2,0,P|172:172|188:220,1,100,2|0,2:0|0:0,0:0:0:0:
308,292,21540,1,8,0:0:0:0:
364,160,21768,1,0,0:0:0:0:
188,220,21995,1,6,2:0:0:0:
308,292,22222,5,0,0:0:0:0:
308,292,22336,1,0,0:0:0:0:
308,292,22450,1,8,0:0:0:0:
280,196,22677,2,0,L|176:168,1,100
136,84,23131,1,0,0:0:0:0:
220,268,23359,1,8,0:0:0:0:
96,208,23586,1,0,0:0:0:0:
288,112,23813,6,0,P|336:132|364:188,1,100
368,200,24154,1,0,0:0:0:0:
364,228,24268,1,8,0:0:0:0:
472,344,24495,1,0,0:0:0:0:
424,136,24722,1,0,0:0:0:0:
324,256,24950,1,0,0:0:0:0:
138,300,25177,2,0,L|250:276,1,100,8|0,0:0|0:0,0:0:0:0:
352,352,25631,1,0,0:0:0:0:
280,196,25859,5,0,0:0:0:0:
280,196,25972,1,0,0:0:0:0:
280,196,26086,1,8,0:0:0:0:
240,304,26313,1,0,0:0:0:0:
448,216,26540,1,0,0:0:0:0:
328,120,26768,2,0,P|276:104|224:124,1,100,0|8,0:0|0:0,0:0:0:0:
92,264,27222,2,0,P|146:249|176:208,1,100
76,148,27677,5,0,0:0:0:0:
76,148,27790,1,0,0:0:0:0:
76,148,27904,1,8,0:0:0:0:
180,332,28131,1,0,0:0:0:0:
224,188,28359,2,0,L|324:200,1,100
360,312,28813,1,8,0:0:0:0:
424,136,29040,1,0,0:0:0:0:
512,208,29268,1,0,0:0:0:0:
324,200,29495,5,0,0:0:0:0:
324,200,29609,1,0,0:0:0:0:
324,200,29722,1,8,0:0:0:0:
480,312,29950,1,0,0:0:0:0:
424,136,30177,1,0,0:0:0:0:
328,108,30404,2,0,P|312:52|340:0,1,100,0|8,0:0|0:0,0:0:0:0:
464,88,30859,2,0,P|480:144|452:196,1,100
320,272,31313,5,0,0:0:0:0:
320,272,31427,1,0,0:0:0:0:
320,272,31540,1,8,0:0:0:0:
260,192,31768,2,0,P|222:156|162:148,1,100
77,144,32222,1,0,0:0:0:0:
215,44,32450,1,8,0:0:0:0:
175,248,32677,1,0,0:0:0:0:
340,132,32904,5,2,2:0:0:0:
256,320,33131,1,0,0:0:0:0:
256,320,33245,1,0,0:0:0:0:
256,320,33359,1,8,0:0:0:0:
152,96,33586,1,0,0:0:0:0:
352,224,33813,1,0,0:0:0:0:
248,36,34040,1,0,0:0:0:0:
192,196,34268,1,8,0:0:0:0:
416,148,34495,1,0,0:0:0:0:
152,96,34722,5,2,2:0:0:0:
364,48,34950,1,0,0:0:0:0:
364,48,35063,1,0,0:0:0:0:
364,48,35177,1,8,0:0:0:0:
303,252,35404,1,0,0:0:0:0:
204,327,35631,1,2,2:0:0:0:
363,364,35859,1,0,0:0:0:0:
329,159,36086,1,8,0:0:0:0:
276,372,36313,1,0,0:0:0:0:
256,192,36540,5,6,2:0:0:0:
256,192,36654,12,0,38359,0:0:0:0:
256,192,47450,5,2,0:0:0:0:
416,80,49268,5,2,0:0:0:0:
352,268,50177,5,2,0:0:0:0:
156,308,51086,5,2,0:0:0:0:
64,132,51995,5,2,0:0:0:0:
236,28,52904,5,2,0:0:0:0:
320,84,53359,1,2,0:0:0:0:
336,184,53813,1,0,0:0:0:0:
308,280,54268,1,2,0:0:0:0:
228,344,54722,1,6,0:0:0:0:
256,192,55631,5,2,0:0:0:0:
60,228,56540,5,2,0:0:0:0:
96,136,56995,2,0,P|148:112|164:60,1,100,2|0,0:0|0:0,0:0:0:0:
248,24,57904,1,2,0:0:0:0:
332,76,58359,1,6,0:0:0:0:
208,232,59268,5,2,0:0:0:0:
396,300,60177,5,2,0:0:0:0:
300,268,60631,1,0,0:0:0:0:
240,188,61086,1,2,0:0:0:0:
244,88,61540,1,0,0:0:0:0:
312,16,61995,1,2,0:0:0:0:
168,156,62904,5,2,0:0:0:0:
512,208,63813,5,2,0:0:0:0:
472,116,64268,1,0,0:0:0:0:
384,64,64722,1,2,0:0:0:0:
292,104,65177,1,0,0:0:0:0:
228,184,65631,6,0,P|132:224|52:76,1,300,2|0,0:0|0:0,0:0:0:0:
372,292,67450,6,0,P|304:256|244:292,1,150,2|0,0:0|0:0,0:0:0:0:
308,332,68359,2,0,P|296:258|258:194,1,150,2|0,0:0|0:0,0:0:0:0:
203,140,69268,2,0,P|192:231|280:268,1,200,2|0,0:0|0:0,0:0:0:0:
112,264,71540,5,2,0:0:0:0:
48,188,71995,1,0,0:0:0:0:
96,104,72450,1,2,0:0:0:0:
168,160,72904,2,0,P|248:252|456:136,1,400,2|0,0:0|0:0,0:0:0:0:
404,52,75177,5,2,0:0:0:0:
312,88,75631,1,0,0:0:0:0:
316,188,76086,1,2,0:0:0:0:
228,236,76540,6,0,P|156:248|112:144,1,200,2|0,0:0|0:0,0:0:0:0:
176,72,77904,2,0,L|268:24,2,100,2|0|2,0:0|0:0|0:0,0:0:0:0:
192,172,79268,1,2,0:0:0:0:
292,184,79722,2,0,P|276:240|60:252,1,300,2|0,0:0|0:0,0:0:0:0:
104,68,81881,6,0,P|120:124|172:148,1,100,2|0,0:0|0:0,0:0:0:0:
276,172,82790,2,0,P|324:220|324:268,1,100,2|0,0:0|0:0,0:0:0:0:
256,352,83700,2,0,P|144:380|56:344,1,200,2|0,0:0|0:0,0:0:0:0:
160,272,86086,5,0,0:0:0:0:
152,172,86540,1,2,0:0:0:0:
220,100,86995,1,0,0:0:0:0:
308,140,87450,6,0,P|360:256|144:320,1,400,2|0,0:0|0:0,0:0:0:0:
128,236,89722,5,0,0:0:0:0:
176,148,90177,1,2,0:0:0:0:
264,96,90631,1,0,0:0:0:0:
352,120,91086,2,0,P|292:188|188:152,1,200,2|0,0:0|0:0,0:0:0:0:
256,192,92222,12,0,95631,0:0:0:0:
256,192,100177,12,8,101995,0:0:0:0:
416,140,102450,5,0,0:0:0:0:
388,120,102563,1,0,0:0:0:0:
356,112,102677,1,0,0:0:0:0:
324,116,102790,1,0,0:0:0:0:
298,131,102904,2,0,L|260:224,1,100,8|2,0:0|2:0,0:0:0:0:
360,344,103359,2,0,B|412:352|412:352|460:324,1,100
468,304,103700,1,0,0:0:0:0:
472,276,103813,1,8,0:0:0:0:
236,44,104268,5,0,0:0:0:0:
236,44,104381,1,0,0:0:0:0:
236,44,104495,1,0,0:0:0:0:
160,232,104722,1,8,0:0:0:0:
364,80,104950,1,2,2:0:0:0:
264,120,105177,1,0,0:0:0:0:
248,152,105291,1,0,0:0:0:0:
244,188,105405,1,0,0:0:0:0:
256,224,105518,1,0,0:0:0:0:
272,248,105631,6,0,P|376:280|464:248,1,200,8|0,0:0|0:0,0:0:0:0:
480,232,106200,1,0,0:0:0:0:
496,208,106313,1,0,0:0:0:0:
272,248,106540,2,0,B|228:272|228:272|172:268,1,100,8|2,0:0|2:0,0:0:0:0:
56,136,106995,1,0,0:0:0:0:
76,108,107109,1,0,0:0:0:0:
108,92,107222,1,0,0:0:0:0:
140,88,107336,1,0,0:0:0:0:
172,96,107450,1,8,0:0:0:0:
380,80,107904,5,0,0:0:0:0:
212,188,108131,1,0,0:0:0:0:
288,124,108359,2,0,P|240:64|136:72,2,150,8|0|0,0:0|3:0|0:0,0:0:0:0:
292,224,109268,6,0,P|336:312|432:316,1,200,8|0,0:0|0:0,0:0:0:0:
452,300,109836,1,0,0:0:0:0:
464,276,109950,1,0,0:0:0:0:
292,224,110177,2,0,P|232:240|180:204,1,100,8|2,0:0|2:0,0:0:0:0:
72,72,110631,5,0,0:0:0:0:
96,56,110745,1,0,0:0:0:0:
128,52,110859,1,0,0:0:0:0:
160,60,110972,1,0,0:0:0:0:
188,76,111086,2,0,P|248:151|226:245,1,200,8|0,0:0|0:0,0:0:0:0:
200,264,111654,1,0,0:0:0:0:
168,272,111768,1,0,0:0:0:0:
28,128,111995,1,8,0:0:0:0:
212,52,112222,1,2,2:0:0:0:
352,196,112450,1,0,0:0:0:0:
376,212,112563,1,0,0:0:0:0:
404,216,112677,1,0,0:0:0:0:
432,208,112790,1,0,0:0:0:0:
456,192,112904,1,8,0:0:0:0:
72,312,113359,5,0,0:0:0:0:
88,288,113472,1,0,0:0:0:0:
92,260,113586,1,0,0:0:0:0:
84,228,113700,1,0,0:0:0:0:
68,204,113813,2,0,P|52:152|68:104,1,100,8|2,0:0|2:0,0:0:0:0:
184,52,114268,1,0,0:0:0:0:
216,40,114381,1,0,0:0:0:0:
252,32,114495,1,0,0:0:0:0:
288,40,114609,1,0,0:0:0:0:
316,52,114722,1,8,0:0:0:0:
420,88,115177,5,0,0:0:0:0:
352,276,115404,1,0,0:0:0:0:
228,136,115631,2,0,P|136:108|116:60,2,150,8|0|0,0:0|3:0|0:0,0:0:0:0:
416,204,116540,6,0,P|436:316|392:352,1,150,8|0,0:0|3:0,0:0:0:0:
396,344,116995,2,0,L|296:332,1,100,0|2,0:0|2:0,0:0:0:0:
140,212,117450,2,0,P|116:140|160:60,1,150,8|0,0:0|3:0,0:0:0:0:
168,60,117904,1,0,0:0:0:0:
300,176,118131,1,2,2:0:0:0:
460,100,118359,2,0,B|508:168|460:244,1,150,8|0,0:0|3:0,0:0:0:0:
440,264,118813,1,0,0:0:0:0:
288,312,119040,1,2,2:0:0:0:
144,236,119268,2,0,B|132:160|132:160|168:68,1,150,8|0,0:0|3:0,0:0:0:0:
180,80,119722,2,0,P|240:72|288:96,1,100,0|2,0:0|2:0,0:0:0:0:
440,256,120177,5,8,0:0:0:0:
280,200,120404,1,2,2:0:0:0:
396,72,120631,1,0,0:0:0:0:
336,288,120859,1,0,0:0:0:0:
480,144,121086,1,8,0:0:0:0:
292,96,121313,1,2,2:0:0:0:
440,256,121540,1,0,0:0:0:0:
184,188,121768,1,0,0:0:0:0:
436,128,121995,5,8,0:0:0:0:
336,288,122222,1,2,2:0:0:0:
280,32,122450,1,0,0:0:0:0:
244,260,122677,1,0,0:0:0:0:
376,56,122904,1,8,0:0:0:0:
416,224,123131,1,2,2:0:0:0:
204,96,123359,1,0,0:0:0:0:
156,300,123586,1,0,0:0:0:0:
44,160,123813,6,0,P|36:124|44:104,3,50,0|0|0|0,0:0|0:0|2:0|0:0,0:0:0:0:
56,88,124268,1,0,0:0:0:0:
80,68,124381,1,0,0:0:0:0:
108,56,124495,1,0,0:0:0:0:
136,52,124609,1,0,0:0:0:0:
164,56,124722,2,0,P|192:64|212:88,3,50,0|0|0|0,0:0|0:0|2:0|0:0,0:0:0:0:
220,104,125177,1,0,0:0:0:0:
236,128,125290,1,0,0:0:0:0:
256,152,125404,1,0,0:0:0:0:
276,168,125518,1,0,0:0:0:0:
304,176,125631,6,0,P|340:180|360:168,3,50,0|0|0|0,0:0|0:0|2:0|0:0,0:0:0:0:
372,152,126086,1,0,0:0:0:0:
384,124,126200,1,0,0:0:0:0:
388,92,126313,1,0,0:0:0:0:
376,64,126427,1,0,0:0:0:0:
356,44,126540,2,0,P|332:24|288:24,3,50,0|0|0|0,0:0|0:0|2:0|0:0,0:0:0:0:
284,24,126995,1,0,0:0:0:0:
256,32,127109,1,0,0:0:0:0:
236,52,127222,1,0,0:0:0:0:
224,80,127336,1,0,0:0:0:0:
212,104,127450,6,0,L|172:112,7,25
260,124,127904,2,0,L|284:119,7,25
328,136,128359,2,0,L|352:131,7,25
391,149,128813,2,0,L|416:145,7,25
256,192,129268,12,12,130631,0:0:0:0:
396,176,131086,6,0,P|312:264|228:244,1,200,8|8,3:0|0:0,0:0:0:0:
216,240,131654,1,0,0:0:0:0:
200,216,131768,1,2,2:0:0:0:
192,188,131881,1,0,0:0:0:0:
196,160,131995,1,0,0:0:0:0:
356,40,132222,1,0,0:0:0:0:
196,160,132450,1,8,0:0:0:0:
168,176,132563,1,0,0:0:0:0:
140,192,132677,1,2,2:0:0:0:
112,208,132790,1,0,0:0:0:0:
84,224,132904,2,0,L|68:328,1,100
84,224,133359,5,8,0:0:0:0:
64,196,133472,1,0,0:0:0:0:
56,164,133586,1,2,2:0:0:0:
64,132,133700,1,0,0:0:0:0:
80,108,133813,1,0,0:0:0:0:
264,28,134040,1,0,0:0:0:0:
320,112,134268,1,8,0:0:0:0:
352,128,134381,1,0,0:0:0:0:
384,132,134495,1,2,2:0:0:0:
416,124,134609,1,0,0:0:0:0:
444,112,134722,1,0,0:0:0:0:
172,68,135177,5,8,0:0:0:0:
152,96,135290,1,0,0:0:0:0:
144,132,135404,1,2,2:0:0:0:
156,164,135518,1,0,0:0:0:0:
176,188,135631,2,0,L|276:224,1,100
288,136,136086,2,0,L|236:116,1,50,8|0,0:0|0:0,0:0:0:0:
292,52,136313,2,0,L|338:69,1,50,2|0,2:0|0:0,0:0:0:0:
368,80,136540,6,0,P|416:168|376:256,1,200,0|8,0:0|0:0,0:0:0:0:
180,312,137222,1,2,2:0:0:0:
276,144,137450,2,0,P|204:112|136:148,1,150,0|0,0:0|3:0,0:0:0:0:
124,160,137904,2,0,P|108:212|136:268,1,100,8|2,0:0|2:0,0:0:0:0:
316,308,138359,6,0,P|408:252|404:156,1,200,0|8,0:0|0:0,0:0:0:0:
392,144,138927,1,0,0:0:0:0:
364,132,139040,1,2,2:0:0:0:
332,132,139154,1,0,0:0:0:0:
304,144,139268,2,0,P|256:160|176:120,1,100
100,64,139722,1,8,0:0:0:0:
80,92,139836,1,0,0:0:0:0:
68,124,139950,1,2,2:0:0:0:
80,160,140063,1,0,0:0:0:0:
100,188,140177,1,0,0:0:0:0:
484,304,140631,5,8,0:0:0:0:
456,328,140745,1,0,0:0:0:0:
420,336,140859,1,2,2:0:0:0:
384,328,140972,1,0,0:0:0:0:
352,308,141086,1,0,0:0:0:0:
252,136,141313,1,0,0:0:0:0:
196,52,141540,1,8,0:0:0:0:
164,36,141654,1,0,0:0:0:0:
128,28,141768,1,2,2:0:0:0:
92,36,141881,1,0,0:0:0:0:
64,56,141995,1,0,0:0:0:0:
192,212,142450,5,8,0:0:0:0:
224,228,142563,1,0,0:0:0:0:
252,244,142677,1,2,2:0:0:0:
280,260,142790,1,0,0:0:0:0:
308,276,142904,2,0,L|336:376,1,100
308,276,143359,1,8,0:0:0:0:
324,248,143472,1,0,0:0:0:0:
336,216,143586,1,2,2:0:0:0:
328,184,143700,1,0,0:0:0:0:
312,152,143813,1,0,0:0:0:0:
88,72,144268,5,8,0:0:0:0:
156,260,144495,1,2,2:0:0:0:
288,108,144722,2,0,P|320:184|264:248,2,150,0|0|2,0:0|3:0|2:0,0:0:0:0:
112,202,145631,6,0,L|196:148,2,100,2|0|8,0:0|0:0|0:0,0:0:0:0:
88,228,146200,1,0,0:0:0:0:
80,260,146313,1,2,2:0:0:0:
88,296,146427,1,0,0:0:0:0:
108,324,146540,1,0,0:0:0:0:
204,360,146768,1,0,0:0:0:0:
328,204,146995,1,8,0:0:0:0:
344,176,147109,1,0,0:0:0:0:
352,144,147222,1,2,2:0:0:0:
340,112,147336,1,0,0:0:0:0:
324,84,147450,1,0,0:0:0:0:
173,88,147904,6,0,L|124:92,1,50,8|0,0:0|0:0,0:0:0:0:
156,168,148131,2,0,L|205:164,1,50,2|0,2:0|0:0,0:0:0:0:
177,244,148359,2,0,L|128:248,1,50
164,324,148586,2,0,L|213:320,1,50
312,300,148813,1,8,0:0:0:0:
328,272,148927,1,0,0:0:0:0:
332,236,149040,1,2,2:0:0:0:
324,200,149154,1,0,0:0:0:0:
312,168,149268,1,2,0:0:0:0:
140,64,149722,5,8,0:0:0:0:
124,92,149836,1,0,0:0:0:0:
120,128,149949,1,2,2:0:0:0:
128,164,150063,1,0,0:0:0:0:
140,196,150177,1,0,0:0:0:0:
220,256,150404,1,0,0:0:0:0:
400,172,150631,2,0,L|460:160,1,50,8|0,0:0|0:0,0:0:0:0:
408,92,150859,2,0,L|358:101,1,50,2|0,2:0|0:0,0:0:0:0:
332,116,151086,6,0,P|296:212|336:296,1,200,2|8,0:0|0:0,0:0:0:0:
444,204,151768,1,2,2:0:0:0:
268,80,151995,2,0,B|188:64|188:64|120:88,1,150,0|0,0:0|3:0,0:0:0:0:
96,108,152450,2,0,P|80:172|100:212,1,100,8|2,0:0|2:0,0:0:0:0:
276,280,152904,1,2,0:0:0:0:
392,116,153359,5,8,0:0:0:0:
360,100,153472,1,0,0:0:0:0:
324,92,153586,1,2,2:0:0:0:
292,100,153700,1,0,0:0:0:0:
260,116,153813,1,0,0:0:0:0:
108,244,154040,1,0,0:0:0:0:
284,344,154268,1,8,0:0:0:0:
312,332,154381,1,0,0:0:0:0:
344,320,154495,1,2,2:0:0:0:
376,308,154609,1,0,0:0:0:0:
408,296,154722,2,0,L|416:188,1,100,2|0,0:0|0:0,0:0:0:0:
265,105,155177,6,0,L|272:56,1,50,8|0,0:0|0:0,0:0:0:0:
196,32,155404,2,0,L|188:84,1,50,2|0,2:0|0:0,0:0:0:0:
108,96,155631,2,0,L|114:46,1,50
36,32,155858,2,0,L|29:81,1,50
64,156,156086,1,8,0:0:0:0:
76,184,156200,1,0,0:0:0:0:
84,216,156313,1,2,2:0:0:0:
76,252,156427,1,0,0:0:0:0:
64,284,156540,1,2,0:0:0:0:
416,224,156995,5,8,0:0:0:0:
404,196,157109,1,0,0:0:0:0:
396,164,157222,1,2,2:0:0:0:
404,128,157336,1,0,0:0:0:0:
416,96,157449,1,0,0:0:0:0:
476,16,157677,1,0,0:0:0:0:
292,88,157904,1,8,0:0:0:0:
264,100,158018,1,0,0:0:0:0:
232,108,158131,1,2,2:0:0:0:
196,100,158245,1,0,0:0:0:0:
168,84,158359,6,0,P|120:184|168:280,1,200,2|8,0:0|0:0,0:0:0:0:
336,188,159040,1,2,2:0:0:0:
428,228,159268,2,0,P|460:292|429:358,1,150,0|0,0:0|3:0,0:0:0:0:
400,368,159722,2,0,L|292:352,1,100,8|2,0:0|2:0,0:0:0:0:
156,212,160177,5,4,0:0:0:0:
256,192,160290,12,0,163813,2:0:0:0:
