osu file format v13

[General]
AudioFilename: MaRLo feat. Jano - Haunted.mp3
AudioLeadIn: 0
PreviewTime: 129836
Countdown: 0
SampleSet: Soft
StackLeniency: 0.7
Mode: 0
LetterboxInBreaks: 0
WidescreenStoryboard: 0

[Editor]
Bookmarks: 36540,47450,65631,86086,101995,145631,163813
DistanceSpacing: 1
BeatDivisor: 1
GridSize: 4
TimelineZoom: 1.200001

[Metadata]
Title:Haunted
TitleUnicode:Haunted
Artist:MaRLo feat. Jano
ArtistUnicode:MaRLo feat. Jano
Creator:Shadren
Version:Easy
Source:
Tags:trance bragador female vocal bass art hoogstraten
BeatmapID:447724
BeatmapSetID:182758

[Difficulty]
HPDrainRate:1.5
CircleSize:3
OverallDifficulty:2
ApproachRate:3
SliderMultiplier:1
SliderTickRate:1

[Events]
//Background and Video events
0,0,"BG.png",0,0
//Break Periods
2,38559,46010
2,95831,100555
//Storyboard Layer 0 (Background)
//Storyboard Layer 1 (Fail)
//Storyboard Layer 2 (Pass)
//Storyboard Layer 3 (Foreground)
//Storyboard Sound Samples
//Background Colour Transformations
3,100,163,162,255

[TimingPoints]
7450,454.545454545455,4,1,1,40,1,0
38359,-100,4,2,1,5,0,0
47450,-100,4,2,1,60,0,0
101995,-100,4,1,1,40,0,0
129268,-100,4,2,1,5,0,0
130631,-100,4,1,1,50,0,0
131086,-100,4,1,1,50,0,1
143813,-100,4,2,1,60,0,0
145631,-100,4,1,1,60,0,1
160177,-100,4,1,1,50,0,0
160631,-100,4,2,1,45,0,0
161086,-100,4,2,1,40,0,0
161540,-100,4,2,1,35,0,0
161995,-100,4,2,1,30,0,0
162450,-100,4,2,1,20,0,0
162904,-100,4,2,1,10,0,0
163359,-100,4,2,1,5,0,0

[Colours]
Combo1 : 255,218,106
Combo2 : 212,212,212
Combo3 : 106,173,255
Combo4 : 247,115,135
SliderBorder : 255,255,255

[HitObjects]
395,246,7450,6,0,P|350:268|301:261,1,100,0|8,0:0|0:0,0:0:0:0:
229,199,8359,1,0,0:0:0:0:
149,141,8813,1,8,0:0:0:0:
72,80,9268,2,0,B|52:124|52:124|52:188,1,100,0|8,0:0|0:0,0:0:0:0:
124,244,10177,1,0,0:0:0:0:
216,284,10631,1,8,0:0:0:0:
316,264,11086,5,0,0:0:0:0:
396,208,11540,2,0,P|408:156|388:96,2,100,8|0|8,0:0|0:0|0:0,0:0:0:0:
316,264,12904,2,0,L|200:288,1,100,0|8,0:0|0:0,0:0:0:0:
124,312,13813,1,0,0:0:0:0:
32,272,14268,2,0,P|20:224|40:172,2,100,8|0|8,0:0|0:0|0:0,0:0:0:0:
124,312,15631,5,0,0:0:0:0:
224,284,16086,1,8,0:0:0:0:
268,200,16540,2,0,P|320:184|384:220,1,100,0|8,0:0|0:0,0:0:0:0:
318,281,17450,2,0,P|266:297|202:261,1,100,0|8,0:0|0:0,0:0:0:0:
136,240,18359,6,0,P|64:172|80:72,1,200,2|0,2:0|0:0,0:0:0:0:
268,136,20177,1,2,2:0:0:0:
360,312,21086,1,2,2:0:0:0:
452,136,21995,6,0,L|492:40,1,100,6|8,2:0|0:0,0:0:0:0:
392,40,22904,2,0,L|353:132,1,100,0|8,0:0|0:0,0:0:0:0:
272,192,23813,1,0,0:0:0:0:
176,212,24268,1,8,0:0:0:0:
84,172,24722,1,0,0:0:0:0:
68,72,25177,1,8,0:0:0:0:
160,108,25631,6,0,P|185:203|157:298,1,200,0|0,0:0|0:0,0:0:0:0:
96,376,26995,1,8,0:0:0:0:
28,300,27450,2,0,P|3:204|31:109,1,200,0|0,0:0|0:0,0:0:0:0:
112,48,28813,1,8,0:0:0:0:
156,136,29268,6,0,L|344:216,1,200,0|0,0:0|0:0,0:0:0:0:
436,240,30631,1,8,0:0:0:0:
488,156,31086,2,0,P|499:108|485:61,1,100,0|8,0:0|0:0,0:0:0:0:
392,28,31995,1,0,0:0:0:0:
296,60,32450,1,8,0:0:0:0:
220,128,32904,6,0,P|247:245|337:280,1,200,2|0,2:0|2:0,2:0:0:0:
500,212,34722,2,0,P|427:146|332:158,1,200,2|2,2:0|2:0,2:0:0:0:
160,260,36540,5,6,2:0:0:0:
256,192,36768,12,0,38359,0:0:0:0:
420,76,47450,5,2,0:0:0:0:
112,332,49268,6,0,P|148:233|256:212,1,200,2|2,0:0|0:0,0:0:0:0:
424,148,51086,2,0,P|392:60|283:41,1,200,2|2,0:0|0:0,0:0:0:0:
80,92,52904,6,0,P|72:168|96:200,1,100,0|2,0:0|0:0,0:0:0:0:
168,236,53813,2,0,P|184:282|170:329,1,100,2|2,0:0|0:0,0:0:0:0:
76,368,54722,1,2,0:0:0:0:
104,172,55631,1,2,0:0:0:0:
292,104,56540,5,0,0:0:0:0:
384,148,56995,1,2,0:0:0:0:
408,244,57450,1,0,0:0:0:0:
336,316,57904,1,2,0:0:0:0:
236,324,58359,2,0,B|128:312|128:312|52:248,1,200,0|2,0:0|0:0,0:0:0:0:
112,60,60177,5,0,0:0:0:0:
192,120,60631,1,2,0:0:0:0:
284,164,61086,2,0,P|333:170|389:138,1,100,0|2,0:0|0:0,0:0:0:0:
440,72,61995,1,0,0:0:0:0:
384,264,62904,1,2,0:0:0:0:
196,332,63813,6,0,P|136:344|80:312,1,100,0|2,0:0|0:0,0:0:0:0:
36,252,64722,2,0,P|21:205|34:158,2,100,0|2|4,0:0|0:0|1:0,0:0:0:0:
144,224,67450,6,0,P|232:252|336:212,1,200,0|2,0:0|0:0,0:0:0:0:
196,68,69268,2,0,P|101:40|9:74,2,200,0|0|0,0:0|0:0|0:0,0:0:0:0:
240,156,71540,6,0,L|216:256,2,100,0|2|0,0:0|0:0|0:0,0:0:0:0:
292,72,72904,2,0,P|432:128|372:356,1,400,2|0,0:0|0:0,0:0:0:0:
300,332,75177,6,0,L|200:316,1,100,0|2,0:0|0:0,0:0:0:0:
124,248,76086,1,0,0:0:0:0:
92,152,76540,2,0,P|204:64|324:104,1,200,2|2,0:0|0:0,0:0:0:0:
308,152,77904,2,0,L|284:260,2,100,0|2|0,0:0|0:0|0:0,0:0:0:0:
376,80,79268,5,2,0:0:0:0:
440,156,79722,2,0,P|476:236|380:344,2,200,2|0|0,0:0|0:0|0:0,0:0:0:0:
340,160,81995,6,0,P|380:72|496:76,2,200,2|0|2,0:0|0:0|0:0,0:0:0:0:
224,324,84722,2,0,P|104:240|116:184,1,200,2|2,0:0|0:0,0:0:0:0:
108,108,86086,6,0,L|80:12,2,100,0|2|0,0:0|0:0|0:0,0:0:0:0:
208,124,87450,2,0,P|348:172|236:356,1,400,2|2,0:0|0:0,0:0:0:0:
164,364,89723,6,0,P|109:351|70:325,1,100,0|2,0:0|0:0,0:0:0:0:
36,236,90632,1,0,0:0:0:0:
76,144,91086,2,0,P|132:64|296:88,1,200,2|2,0:0|0:0,0:0:0:0:
256,192,92450,12,0,95631,0:0:0:0:
276,164,101995,5,12,0:0:0:0:
356,224,102450,2,0,P|418:245|457:229,2,100,0|8|0,0:0|0:0|0:0,0:0:0:0:
276,164,103813,1,8,0:0:0:0:
195,108,104268,6,0,P|131:82|97:94,2,100,0|8|0,0:0|0:0|0:0,0:0:0:0:
276,164,105631,1,8,0:0:0:0:
344,240,106086,2,0,P|356:312|328:344,1,100,0|8,0:0|0:0,0:0:0:0:
248,360,106995,1,0,0:0:0:0:
160,316,107450,1,8,0:0:0:0:
104,232,107904,6,0,P|84:180|104:136,2,100,0|8|0,0:0|0:0|0:0,0:0:0:0:
188,284,109268,1,8,0:0:0:0:
284,252,109722,2,0,L|388:216,1,100,0|8,0:0|0:0,0:0:0:0:
380,120,110631,2,0,L|285:152,1,100,0|8,0:0|0:0,0:0:0:0:
204,208,111540,6,0,B|176:260|216:324,1,100,0|8,0:0|0:0,0:0:0:0:
300,340,112450,2,0,L|412:352,1,100,0|8,0:0|0:0,0:0:0:0:
492,308,113359,2,0,B|508:260|508:260|503:193,2,100,0|8|0,0:0|0:0|0:0,0:0:0:0:
400,348,114722,1,8,0:0:0:0:
300,340,115177,2,0,P|250:328|210:272,1,100,0|8,0:0|0:0,0:0:0:0:
160,212,116086,1,0,0:0:0:0:
256,188,116540,6,0,P|308:200|364:172,1,100,8|0,0:0|0:0,0:0:0:0:
300,100,117450,2,0,P|312:48|284:-8,1,100,8|0,0:0|0:0,0:0:0:0:
212,56,118359,2,0,P|160:44|104:72,1,100,8|0,0:0|0:0,0:0:0:0:
168,144,119268,2,0,P|156:196|184:252,1,100,8|0,0:0|0:0,0:0:0:0:
260,288,120177,6,0,P|352:324|452:280,2,200,8|8|8,0:0|0:0|0:0,0:0:0:0:
144,124,122904,2,0,B|76:196|76:196|52:316,1,200,8|8,0:0|0:0,0:0:0:0:
256,192,124268,12,0,129268,0:0:0:0:
308,108,130631,5,12,0:0:0:0:
364,192,131086,2,0,P|340:252|296:272,1,100,0|8,0:0|0:0,0:0:0:0:
212,264,131995,2,0,L|96:252,2,100,0|8|0,0:0|0:0|0:0,0:0:0:0:
312,268,133359,1,8,0:0:0:0:
400,220,133813,2,0,P|412:164|392:116,1,100,0|8,0:0|0:0,0:0:0:0:
312,76,134722,6,0,B|264:64|264:64|196:80,2,100,0|8|0,0:0|0:0|0:0,0:0:0:0:
400,124,136086,1,8,0:0:0:0:
452,208,136540,1,0,0:0:0:0:
400,292,136995,2,0,P|305:318|211:286,1,200,8|8,0:0|0:0,0:0:0:0:
136,224,138359,5,0,0:0:0:0:
40,248,138813,2,0,B|44:304|44:304|24:356,2,100,8|0|8,0:0|0:0|0:0,0:0:0:0:
72,152,140177,2,0,B|68:104|68:104|88:52,1,100,0|8,0:0|0:0,0:0:0:0:
188,48,141086,2,0,L|288:36,1,100,0|8,0:0|0:0,0:0:0:0:
376,80,141995,5,0,0:0:0:0:
440,156,142450,2,0,L|456:268,1,100,8|0,0:0|0:0,0:0:0:0:
412,344,143359,2,0,P|356:364|288:340,1,100,8|0,0:0|0:0,0:0:0:0:
148,192,145631,6,0,P|172:132|216:112,1,100,2|8,0:0|0:0,0:0:0:0:
300,120,146540,2,0,L|416:132,2,100,0|8|2,0:0|0:0|0:0,0:0:0:0:
200,116,147904,1,8,0:0:0:0:
112,164,148358,2,0,P|100:220|120:268,1,100,0|8,0:0|0:0,0:0:0:0:
200,308,149268,6,0,P|247:320|294:306,2,100,2|8|0,0:0|0:0|0:0,0:0:0:0:
124,244,150631,1,8,0:0:0:0:
96,148,151085,1,2,0:0:0:0:
168,76,151540,2,0,B|264:56|264:56|368:112,1,200,8|8,0:0|0:0,0:0:0:0:
428,172,152904,5,2,0:0:0:0:
484,252,153359,2,0,P|500:298|483:344,2,100,8|0|8,0:0|0:0|0:0,0:0:0:0:
392,212,154722,2,0,B|336:212|336:212|288:240,1,100,2|8,0:0|0:0,0:0:0:0:
244,320,155631,2,0,B|200:340|200:340|144:336,1,100,0|8,0:0|0:0,0:0:0:0:
72,272,156540,5,2,0:0:0:0:
16,192,156995,2,0,L|4:88,1,100,8|0,0:0|0:0,0:0:0:0:
80,28,157904,2,0,P|128:12|188:36,1,100,8|2,0:0|0:0,0:0:0:0:
248,92,158813,1,8,0:0:0:0:
316,164,159268,2,0,P|332:232|312:276,1,100,0|8,0:0|0:0,0:0:0:0:
256,192,160177,12,4,163813,0:0:0:0:
