osu file format v9

[General]
AudioFilename: MaRLo - Megalodon (Original Mix Edit).mp3
AudioLeadIn: 2000
PreviewTime: 78242
Countdown: 0
SampleSet: Soft
StackLeniency: 0.7
Mode: 0
LetterboxInBreaks: 0
EpilepsyWarning: 1

[Editor]
DistanceSpacing: 1
BeatDivisor: 2
GridSize: 4

[Metadata]
Title:Megalodon (Original Mix Edit)
Artist:MaRLo
Creator:FoxShift
Version:Shift
Source:
Tags:Katty Pie Raimon taiko trance dance collab collaboration eye big tooth greek

[Difficulty]
HPDrainRate:5
CircleSize:4
OverallDifficulty:5
ApproachRate:7
SliderMultiplier:1.2
SliderTickRate:1

[Events]
//Background and Video events
0,0,"bg.jpg"
//Break Periods
2,71331,75564
2,163775,169786
//Storyboard Layer 0 (Background)
//Storyboard Layer 1 (Fail)
//Storyboard Layer 2 (Pass)
//Storyboard Layer 3 (Foreground)
Sprite,Foreground,Centre,"1.png",320,240 M,0,1797,,320,240 F,0,1797,2242,1,0 S,0,1797,2242,0.8054401,1 F,0,2242,5242,0,0.008668021 S,0,2242,5353,1,0.7951999 F,0,5242,5353,0.008668021,1 F,0,5353,5797,1,0.008988738 S,0,5353,5797,0.7951999,1 F,0,5797,8797,0.008988738,0.01114114 S,0,5797,8908,1,0.7952 F,0,8797,8908,0.01114114,1 F,0,8908,9353,1,0 S,0,8908,9353,0.7952,1 F,0,9353,12353,0,0.01979153 S,0,9353,12464,1,0.7952 F,0,12353,12464,0.01979153,1 F,0,12464,12908,1,0 S,0,12464,12908,0.7952,1 F,0,12908,15908,0,0.02862152 S,0,12908,16019,1,0.7951999 F,0,15908,16019,0.02862152,1 F,0,16019,16464,1,0 S,0,16019,16464,0.7951999,1 F,0,16464,19464,0,0.0289365 S,0,16464,19575,1,0.8054401 F,0,19464,19575,0.0289365,1 F,0,19575,20019,1,0 S,0,19575,20019,0.8054401,1 F,0,20019,23019,0,0.03736996 S,0,20019,23131,1,0.8054401 F,0,23019,23131,0.03736996,1 F,0,23131,23575,1,0 S,0,23131,23575,0.8054401,1 F,0,23575,28353,0,0.03980301 S,0,23575,28464,1,0.7952002 F,0,28353,28464,0.03980301,1 F,0,28464,29353,1,0 S,0,28464,29353,0.7952002,1 F,0,29353,31908,0 S,0,29353,32019,1,0.8054401 F,0,31908,32019,0,1 F,0,32019,32908,1,0 S,0,32019,32908,0.8054401,1 F,0,32908,35464,0,0.04721865 S,0,32908,35575,1,0.7952 F,0,35464,35575,0.04721865,1 F,0,35575,36464,1,0 S,0,35575,36464,0.7952,1 F,0,36464,39019,0 S,0,36464,39131,1,0.7952 F,0,39019,39131,0,1 F,0,39131,40019,1,0 S,0,39131,40019,0.7952,1 F,0,40019,42575,0 S,0,40019,42686,1,0.8054401 F,0,42575,42686,0,1 F,0,42686,43575,1,0 S,0,42686,43575,0.8054401,1 F,0,43575,46131,0,0.02976166 S,0,43575,46242,1,0.7952 F,0,46131,46242,0.02976166,1 F,0,46242,47131,1,0 S,0,46242,47131,0.7952,1 F,0,47131,49686,0 S,0,47131,49797,1,0.8054399 F,0,49686,49797,0,1 F,0,49797,50686,1,0 S,0,49797,50686,0.8054399,1 F,0,50686,51464,0,0.03085334 S,0,50686,51575,1,0.8054401 F,0,51464,51575,0.03085334,1 F,0,51575,52019,1,0 S,0,51575,52019,0.8054401,1 F,0,52019,52353,0,0.03085334 S,0,52019,52464,1,0.8054399 F,0,52353,52464,0.03085334,1 F,0,52464,52908,1,0 S,0,52464,52908,0.8054399,1 F,0,52908,53242,0,0.03085334 S,0,52908,53353,1,0.7951999 F,0,53242,53353,0.03085334,1 F,0,53353,53797,1,0 S,0,53353,53797,0.7951999,1 F,0,53797,78131,0,0.03085334 S,0,53797,78242,1,0.7981521 F,0,78131,78242,0.03085334,1 F,0,78242,79131,1,0 S,0,78242,79131,0.7981521,0.931272 F,0,79131,81686,0,0.03398763 S,0,79131,81797,0.931272,0.7879119 F,0,81686,81797,0.03398763,1 F,0,81797,82686,1,0 S,0,81797,82686,0.7879119,0.931272 F,0,82686,85242,0,0.03516506 S,0,82686,85353,0.931272,0.7981519 F,0,85242,85353,0.03516506,1 F,0,85353,86242,1,0 S,0,85353,86242,0.7981519,0.931272 F,0,86242,88797,0,0.04041061 S,0,86242,88908,0.931272,0.7981521 F,0,88797,88908,0.04041061,1 F,0,88908,89797,1,0 S,0,88908,89797,0.7981521,0.931272 F,0,89797,136797,0,0.04063654 S,0,89797,136908,0.931272,0.798152 F,0,136797,136908,0.04063654,1 F,0,136908,137353,1,0 S,0,136908,137353,0.798152,0.931272 F,0,137353,138575,0,0.04063654 S,0,137353,138686,0.931272,0.7981519 F,0,138575,138686,0.04063654,1 F,0,138686,139131,1,0 S,0,138686,139131,0.7981519,0.931272 F,0,139131,140353,0,0.04063654 S,0,139131,140464,0.931272,0.7972546 F,0,140353,140464,0.04063654,1 F,0,140464,140908,1,0 S,0,140464,140908,0.7972546,0.9303745 F,0,140908,142131,0,0.04063654 S,0,140908,142242,0.9303745,0.7972544 F,0,142131,142242,0.04063654,1 F,0,142242,142686,1,0 S,0,142242,142686,0.7972544,0.9303745 F,0,142686,143908,0,0.04063654 S,0,142686,144019,0.9303745,0.7972547 F,0,143908,144019,0.04063654,1 F,0,144019,144464,1,0 S,0,144019,144464,0.7972547,0.9303745 F,0,144464,145686,0,0.04063654 S,0,144464,145797,0.9303745,0.7972541 F,0,145686,145797,0.04063654,1 F,0,145797,146242,1,0 S,0,145797,146242,0.7972541,0.9303745 F,0,146242,147464,0,0.04063654 S,0,146242,147575,0.9303745,0.7972544 F,0,147464,147575,0.04063654,1 F,0,147575,148019,1,0 S,0,147575,148019,0.7972544,0.9303745 F,0,148019,151019,0,0.04063654 S,0,148019,151131,0.9303745,0.7870145 F,0,151019,151131,0.04063654,1 F,0,151131,151575,1,0 S,0,151131,151575,0.7870145,0.9303745 F,0,151575,152797,0,0.04063654 S,0,151575,152908,0.9303745,0.7972546 F,0,152797,152908,0.04063654,1 F,0,152908,153353,1,0 S,0,152908,153353,0.7972546,0.9303745 F,0,153353,154575,0,0.04063654 S,0,153353,154686,0.9303745,0.7972547 F,0,154575,154686,0.04063654,1 F,0,154686,155131,1,0 S,0,154686,155131,0.7972547,0.9303745 F,0,155131,156353,0,0.04063654 S,0,155131,156464,0.9303745,0.7972544 F,0,156353,156464,0.04063654,1 F,0,156464,156908,1,0 S,0,156464,156908,0.7972544,0.9303745 F,0,156908,158131,0,0.04063654 S,0,156908,158242,0.9303745,0.8074946 F,0,158131,158242,0.04063654,1 F,0,158242,158686,1,0 S,0,158242,158686,0.8074946,0.9303745 F,0,158686,159908,0,0.04063654 S,0,158686,160019,0.9303745,0.7972544 F,0,159908,160019,0.04063654,1 F,0,160019,160464,1,0 S,0,160019,160464,0.7972544,0.9303745 F,0,160464,161686,0,0.04063654 S,0,160464,161797,0.9303745,0.7972544 F,0,161686,161797,0.04063654,1 F,0,161797,162242,1,0 S,0,161797,162242,0.7972544,0.9303745 F,0,162242,179464,0,0.04063654 S,0,162242,179575,0.9303745,0.7966564 F,0,179464,179575,0.04063654,1 F,0,179575,180019,1,0 S,0,179575,180019,0.7966564,1.001456 F,0,180019,181242,0,0.04063654 S,0,180019,181353,1.001456,0.8068962 F,0,181242,181353,0.04063654,1 F,0,181353,181797,1,0 S,0,181353,181797,0.8068962,1.001456 F,0,181797,183019,0,0.04063654 S,0,181797,183131,1.001456,0.7966563 F,0,183019,183131,0.04063654,1 F,0,183131,183575,1,0 S,0,183131,183575,0.7966563,1.001456 F,0,183575,184797,0,0.04063654 S,0,183575,184908,1.001456,0.7966563 F,0,184797,184908,0.04063654,1 F,0,184908,185353,1,0 S,0,184908,185353,0.7966563,1.001456 F,0,185353,186575,0,0.04063654 S,0,185353,186686,1.001456,0.7966563 F,0,186575,186686,0.04063654,1 F,0,186686,187131,1,0 S,0,186686,187131,0.7966563,1.001456 F,0,187131,188353,0,0.04063654 S,0,187131,188464,1.001456,0.7966563 F,0,188353,188464,0.04063654,1 F,0,188464,188908,1,0 S,0,188464,188908,0.7966563,1.001456 F,0,188908,190131,0,0.04063654 S,0,188908,190242,1.001456,0.7966563 F,0,190131,190242,0.04063654,1 F,0,190242,190686,1,0 S,0,190242,190686,0.7966563,1.001456 F,0,190686,193686,0,0.04063654 S,0,190686,193797,1.001456,0.7966563 F,0,193686,193797,0.04063654,1 F,0,193797,194242,1,0 S,0,193797,194242,0.7966563,1.001456 F,0,194242,195464,0,0.04063654 S,0,194242,195575,1.001456,0.7966565 F,0,195464,195575,0.04063654,1 F,0,195575,196019,1,0 S,0,195575,196019,0.7966565,1.001456 F,0,196019,197242,0,0.04063654 S,0,196019,197353,1.001456,0.7966565 F,0,197242,197353,0.04063654,1 F,0,197353,197797,1,0 S,0,197353,197797,0.7966565,1.001456 F,0,197797,199019,0,0.04063654 S,0,197797,199131,1.001456,0.7966565 F,0,199019,199131,0.04063654,1 F,0,199131,199575,1,0 S,0,199131,199575,0.7966565,1.001456 F,0,199575,200797,0,0.04063654 S,0,199575,200908,1.001456,0.7966563 F,0,200797,200908,0.04063654,1 F,0,200908,201353,1,0 S,0,200908,201353,0.7966563,1.001456 F,0,201353,202575,0,0.04063654 S,0,201353,202686,1.001456,0.7966565 F,0,202575,202686,0.04063654,1 F,0,202686,203131,1,0 S,0,202686,203131,0.7966565,1.001456 F,0,203131,204353,0,0.04063654 S,0,203131,204464,1.001456,0.7966563 F,0,204353,204464,0.04063654,1 F,0,204464,204908,1,0 S,0,204464,204908,0.7966563,1.001456
Sprite,Foreground,Centre,"black.png",320,240 M,0,25797,,320,240 S,0,25797,,0.8259201 F,0,25797,26686,0,1 F,0,26686,28353,1,0.9957815 F,0,28353,28464,0.9957815,0 F,0,28464,70242,0,0.01756816 F,0,70242,71131,0.01756816,1 F,0,71131,78131,1,0.9978243 F,0,78131,78242,0.9978243,0 F,0,78242,129797,0 F,0,129797,134908,0,1 F,0,134908,135019,1 F,0,135019,135131,1,0 F,0,135131,176019,0 F,0,176019,177686,0,1 F,0,177686,177797,1,0 F,0,177797,190242,0,0.01970769 F,0,190242,191908,0.01970769,1 F,0,191908,192019,1,0.02252172 F,0,192019,206131,0.02252172,0.04486924 F,0,206131,206242,0.04486924,1 F,0,206242,217182,1
Sprite,Foreground,Centre,"white.png",320,240 S,0,92464,,0.8259201 F,0,92464,92908,1,0 F,0,92908,94131,0 F,0,94131,94242,0,1 F,0,94242,94686,1,0 F,0,94686,95908,0 F,0,95908,96019,0,1 F,0,96019,96464,1,0 F,0,96464,97686,0 F,0,97686,97797,0,1 F,0,97797,98242,1,0 F,0,98242,99464,0 F,0,99464,99575,0,1 F,0,99575,100019,1,0 F,0,100019,101242,0 F,0,101242,101353,0,1 F,0,101353,101797,1,0 F,0,101797,103019,0 F,0,103019,103131,0,1 F,0,103131,103575,1,0 F,0,103575,104797,0 F,0,104797,104908,0,1 F,0,104908,105353,1,0 F,0,105353,135019,0 F,0,135019,135131,0,1 F,0,135131,135575,1,0 F,0,135575,149242,0 F,0,149242,149353,0,1 F,0,149353,149797,1,0 F,0,149797,176464,0 F,0,176464,177686,0 F,0,177686,177797,0,1 F,0,177797,178242,1,0 F,0,178242,191908,0,0.002229109 F,0,191908,192019,0.002229109,1 F,0,192019,192464,1,0.002247214
Sprite,Foreground,Centre,"heart.png",320,240 M,0,56908,,310,214 F,0,56908,57353,0,1 S,0,56908,70575,0.3753601 F,0,57353,70242,1,0.9955056 F,0,70242,70575,0.9955056,0.9988764 F,0,70575,71131,0.9988764,1 S,0,70575,71131,0.3753601 F,0,71131,72019,1,0 S,0,71131,72019,0.3753601,0.5494401 F,0,72019,72797,0 S,0,72019,72908,0.5494401,0.3753601 F,0,72797,72908,0,1 F,0,72908,73797,1,0 S,0,72908,73797,0.3753601,0.5596802 F,0,73797,74575,0 S,0,73797,74686,0.5596802,0.3753601 F,0,74575,74686,0,1 F,0,74686,75575,1,0 S,0,74686,75575,0.3753601,0.5392003 F,0,75575,76353,0 S,0,75575,76464,0.5392003,0.3753601 F,0,76353,76464,0,1 F,0,76464,77353,1,0 S,0,76464,77353,0.3753601,0.5494401 F,0,77353,106575,0 S,0,77353,106686,0.5494401,0.4060802 F,0,106575,106686,0 F,0,106686,107131,0,1 F,0,107131,129797,1,0.9977528 F,0,129797,130242,0.9977528,0 F,0,130242,163575,0 F,0,130242,163575,0 F,0,163575,164019,0,1 F,0,164019,176019,1 F,0,176019,176464,1,0
Sprite,Foreground,Centre,"drop2.png",320,240 S,0,56908,,1.49152 F,0,56908,57353,0,1 M,0,56908,70242,125,360,127,364 F,0,57353,70242,1,0.9978276 F,0,70242,70686,0.9978276,0 M,0,70242,106686,127,364,523,329 F,0,70686,106686,0 F,0,106686,107131,0,1 F,0,107131,129797,1,0.9932584 F,0,129797,130242,0.9932584,0 F,0,130242,163575,0 F,0,163575,164019,0,1 F,0,164019,176019,1,0.9954955 F,0,176019,176464,0.9954955,0
Sprite,Foreground,Centre,"drop2.png",320,240 M,0,163575,,469,275 S,0,163575,,1.18432 F,0,163575,164019,0,1 F,0,164019,176019,1,0.990991 F,0,176019,176464,0.990991,0
Sprite,Foreground,Centre,"drop2.png",320,240 M,0,163575,,461,395 S,0,163575,,1.11264 F,0,163575,164019,0,1 F,0,164019,176019,1,0.9954955 F,0,176019,176464,0.9954955,0
//Storyboard Sound Samples
//Background Colour Transformations
3,100,163,162,255

[TimingPoints]
20,444.444444444444,4,2,1,100,1,0
57131,-100,4,2,1,85,0,0
57797,-100,4,2,1,80,0,0
58686,-100,4,2,1,75,0,0
59575,-100,4,2,1,70,0,0
60464,-100,4,2,1,65,0,0
61353,-100,4,2,1,60,0,0
62242,-100,4,2,1,55,0,0
63131,-100,4,2,1,50,0,0
64019,-100,4,2,1,45,0,0
64908,-100,4,2,1,40,0,0
65797,-100,4,2,1,35,0,0
66686,-100,4,2,1,30,0,0
67575,-100,4,2,1,25,0,0
68464,-100,4,2,1,20,0,0
69353,-100,4,2,1,15,0,0
70242,-100,4,2,1,10,0,0
71131,-100,4,2,1,5,0,0
78242,-100,4,2,1,100,0,0
92464,-100,4,2,1,100,0,1
106686,-100,4,2,1,35,0,0
108464,-100,4,2,1,40,0,0
110242,-100,4,2,1,45,0,0
112019,-100,4,2,1,50,0,0
113797,-100,4,2,1,55,0,0
115575,-100,4,2,1,60,0,0
117353,-100,4,2,1,65,0,0
119131,-100,4,2,1,70,0,0
120908,-100,4,2,1,75,0,0
122686,-100,4,2,1,80,0,0
124464,-100,4,2,1,85,0,0
126242,-100,4,2,1,90,0,0
128019,-100,4,2,1,95,0,0
129797,-100,4,2,1,100,0,0
135131,-100,4,1,1,50,0,1
163575,-100,4,2,1,70,0,0
177797,-100,4,2,1,100,0,1
204686,-100,4,2,1,5,0,0

[Colours]
Combo1 : 0,145,215
Combo2 : 85,200,255
Combo3 : 192,192,192
Combo4 : 198,255,255
SliderBorder : 255,255,255

[HitObjects]
196,116,20,2,0,B|256:92|328:124,1,120,4|8
372,76,686,1,8
376,148,908,2,0,B|432:184,2,60,0|0|8
316,268,1797,6,0,B|256:292|184:260,1,120,0|8
140,308,2463,1,8
136,236,2685,2,0,B|80:200,2,60,0|0|8
256,156,3575,5,4
396,192,4019,2,0,B|396:252,2,60,8|8|0
396,120,4686,1,0
344,68,4908,1,8
256,156,5353,5,0
116,192,5797,2,0,B|116:252,2,60,8|8|0
116,120,6464,1,0
168,68,6686,1,8
256,156,7131,5,4
256,300,7575,2,0,B|256:368,2,60,8|8|0
220,236,8242,1,0
292,236,8464,1,8
256,96,8908,6,0,B|192:112|132:88,1,120,0|8
96,148,9575,2,0,B|48:192,1,60,8|0
96,148,10019,2,0,B|152:196,1,60,0|8
256,96,10686,6,0,B|320:112|380:88,1,120,4|8
416,148,11353,2,0,B|464:192,1,60,8|0
416,148,11797,2,0,B|360:196,1,60,0|8
256,276,12464,6,0,B|240:236|272:208|256:152,1,120,0|8
192,132,13131,1,8
220,64,13353,1,0
292,64,13575,1,0
320,132,13797,1,8
388,260,14242,5,4
256,312,14686,1,8
256,312,14908,2,0,B|256:248,1,60,8|0
124,260,15575,1,8
124,124,16019,1,0
256,72,16463,1,8
256,72,16685,2,0,B|256:136,1,60,8|0
388,124,17352,1,8
256,184,17797,5,4
144,272,18242,2,0,B|192:232,2,60,8|8|0
256,308,19131,1,8
256,184,19575,5,0
368,96,20020,2,0,B|320:136,2,60,8|8|0
256,60,20909,1,8
256,184,21353,5,4
144,96,21798,2,0,B|192:136,2,60,8|8|0
256,60,22687,1,8
256,184,23131,5,0
368,272,23576,2,0,B|320:232,2,60,8|8|0
256,308,24465,1,8
256,184,24908,5,4
256,184,25131,2,0,B|196:184,2,60,0|8|0
260,112,25797,1,0
256,184,26019,2,0,B|320:184,2,60,0|8|0
256,256,26686,5,0
184,256,26908,2,0,B|116:256,2,60,0|8|0
256,256,27575,2,0,B|320:256,2,60,0|0|8
260,112,28464,5,4
188,112,28686,2,0,B|144:112,2,30,0|0|8
224,176,29131,2,0,B|224:216,2,30
296,176,29575,2,0,B|296:208,2,30,0|0|8
324,112,30019,2,0,B|368:112,2,30
356,176,30464,1,0
356,176,30686,6,0,B|388:236|348:304,1,120,8|0
300,336,31353,1,0
256,280,31575,1,8
212,336,31797,1,0
157,291,32019,6,0,B|124:236|156:176,1,120,4|8
200,120,32686,1,0
256,168,32908,1,0
312,120,33131,1,0
312,120,33353,2,0,B|364:88|428:120,2,120,8|0|8
256,168,34464,1,0
200,120,34686,2,0,B|148:88|84:120,2,120,0|8|4
256,168,35797,5,0
256,240,36019,1,8
256,312,36242,1,0
256,312,36464,2,0,B|192:312,1,60
256,312,36908,2,0,B|328:312,1,60,8|0
196,312,37353,6,0,B|136:312,1,60
316,312,37797,2,0,B|376:312,1,60,8|0
380,248,38242,2,0,B|348:192|384:128,2,120,0|8|4
304,240,39353,5,0
256,184,39575,2,0,B|256:124,2,60,8|0|0
208,240,40242,1,0
128,248,40464,2,0,B|160:192|126:133,1,120,8|0
192,84,41131,5,0
256,52,41353,2,0,B|256:128,1,60,8|0
320,84,41797,1,0
256,112,42019,2,0,B|256:172,1,60,0|8
192,208,42464,1,0
256,244,42686,5,4
320,208,42908,1,0
256,244,43131,2,0,B|256:312,2,60,8|0|0
192,208,43797,1,0
192,136,44019,2,0,B|128:100|68:144,2,120,8|0|8
256,100,45131,5,0
192,64,45353,1,0
256,32,45575,1,0
320,64,45797,1,8
256,100,46019,1,0
320,136,46242,6,0,B|384:100|444:144,2,120,4|8|0
320,196,47353,2,0,B|320:264,1,60,0|8
296,312,47797,1,0
256,264,48019,6,0,B|192:264,1,60
224,196,48464,2,0,B|164:196,1,60,8|0
256,128,48908,2,0,B|192:128,1,60
224,196,49353,2,0,B|288:196,1,60,8|0
256,128,49797,6,0,B|128:128,1,120,4|8
136,128,50464,1,0
76,164,50686,1,0
136,204,50908,1,0
76,244,51131,2,0,B|76:304,1,60,8|0
136,204,51575,6,0,B|212:204,2,60,0|0|8
136,272,52242,2,0,B|200:272,1,60
136,204,52686,2,0,B|136:144,2,60,0|8|0
200,168,53353,6,0,B|256:120|316:172,1,120,4|8
256,216,54019,2,0,B|256:276,1,60
176,276,54464,1,0
220,336,54686,1,8
292,336,54908,1,0
336,276,55131,5,0
408,276,55353,2,0,B|480:276,2,60,0|8|0
372,220,56019,2,0,B|372:160,1,60
300,164,56464,2,0,B|300:224,1,60,8|0
228,224,56908,6,0,B|192:168|228:112,1,120,4|2
156,112,57575,2,0,B|119:168|155:224,1,120,0|0
156,296,58242,2,0,B|216:296,1,60,2|0
284,224,58686,6,0,B|320:168|284:112,1,120,0|2
356,112,59353,2,0,B|392:168|356:224,1,120,0|0
356,296,60019,2,0,B|296:296,1,60,2|0
256,356,60464,5,4
256,212,60908,1,2
184,88,61353,1,0
328,88,61797,1,2
256,212,62242,6,0,B|192:192|136:212,1,120,0|2
256,212,63131,2,0,B|320:192|376:212,1,120,0|2
256,212,64019,6,0,B|256:272,2,60,4|0|2
148,116,64908,2,0,B|84:116,2,60,0|0|2
256,212,65797,5,0
256,272,66019,1,0
256,212,66242,1,2
364,116,66686,2,0,B|428:116,2,60,0|0|2
256,212,67575,6,0,B|268:256|248:296|256:332,2,120,4|2|0
256,212,68908,1,2
112,208,69353,5,0
256,212,69797,1,2
256,68,70242,1,0
256,212,70686,1,2
400,212,71131,1,4
256,192,76464,12,0,78242
256,120,78686,5,2
256,192,78908,1,0
184,192,79131,2,0,B|120:192,1,60
256,192,79575,2,0,B|256:256,1,60,2|0
328,192,80019,6,0,B|392:192,1,60,4|0
328,192,80464,2,0,B|328:128,1,60,2|0
256,192,80908,1,4
256,192,81131,1,0
184,192,81353,2,0,B|120:192,1,60,2|0
184,192,81798,6,0,B|184:256,1,60
224,128,82242,1,2
256,60,82464,1,0
328,60,82686,1,0
256,60,82908,1,0
328,60,83131,6,0,B|344:120|400:152,2,120,2|4|2
256,60,84242,1,0
184,60,84464,2,0,B|168:120|112:152,2,120,0|2|0
256,60,85575,6,0,B|256:120,1,60,0|2
256,120,86019,2,0,B|256:184,1,60
256,180,86464,2,0,B|256:240,2,60,0|2|0
184,236,87131,5,4
220,300,87354,1,0
292,300,87576,1,2
328,236,87798,1,0
328,236,88019,2,0,B|388:216|456:236,2,120,4|2|0
328,164,89131,5,0
292,100,89353,1,2
220,100,89575,1,0
184,164,89798,1,0
256,168,90019,1,0
256,168,90242,2,0,B|256:232,1,60,2|0
184,236,90686,6,0,B|124:216|56:236,2,120,4|2|0
204,304,91797,2,0,B|228:332|260:308,1,60,0|2
312,312,92242,2,0,B|292:332|257:310,1,60
256,240,92686,6,0,B|212:196,1,60,0|2
256,240,93131,2,0,B|300:196,1,60
336,152,93575,1,0
316,96,93797,2,0,B|256:80|196:92,1,120,2|4
176,152,94464,5,0
176,212,94686,1,2
224,248,94908,1,0
336,152,95353,1,0
336,212,95575,1,2
288,248,95797,1,0
256,196,96019,6,0,B|248:164|264:120|256:72,2,120,0|2|0
176,152,97131,2,0,B|112:152,2,60,0|2|0
256,196,97797,5,4
336,152,98019,2,0,B|396:152,2,60,0|2|0
256,196,98686,2,0,B|208:240,1,60
256,196,99131,2,0,B|304:240,1,60,2|0
256,276,99575,5,0
256,336,99797,2,0,B|192:336,1,60,0|2
256,276,100242,1,0
256,336,100464,2,0,B|320:336,1,60
196,336,100908,2,0,B|148:276,1,60,2|0
316,336,101353,6,0,B|364:276,1,60,4|0
184,208,101797,2,0,B|224:256,1,60,2|0
328,208,102242,2,0,B|288:256,1,60,4|0
256,156,102686,2,0,B|256:216,1,60,2|0
256,276,103131,5,0
256,156,103353,2,0,B|204:120,1,60,0|2
256,156,103797,2,0,B|308:120,1,60
206,121,104242,2,0,B|152:160,1,60,0|2
305,121,104686,2,0,B|360:160,1,60,0|4
356,216,105131,6,0,B|384:216,2,30,0|0|2
356,276,105575,2,0,B|356:304,2,30
156,216,106019,2,0,B|128:216,2,30,0|0|2
156,276,106463,2,0,B|156:304,2,30
208,244,106908,5,0
256,208,107131,1,2
304,244,107353,1,0
256,208,107575,2,0,B|256:144,1,60
304,112,108019,1,2
256,148,108241,1,0
208,112,108464,5,4
208,112,108686,2,0,B|144:112,1,60,0|2
304,112,109131,2,0,B|368:112,1,60,0|0
208,112,109575,2,0,B|168:164,1,60,0|2
304,112,110019,2,0,B|344:164,1,60
171,159,110464,5,0
172,220,110687,1,2
224,192,110908,1,0
284,192,111131,1,0
340,159,111353,1,0
340,220,111576,1,2
256,244,111797,6,0,B|256:304,2,60,0|4|0
284,192,112464,1,2
224,192,112687,1,0
256,140,112908,2,0,B|256:80,2,60,0|0|2
224,192,113575,1,0
224,192,113797,6,0,B|164:168|104:192,2,120,0|2|0
256,244,114908,1,0
224,292,115131,1,2
284,292,115353,1,0
256,244,115575,5,4
288,192,115797,1,0
288,192,116019,2,0,B|348:168|408:192,2,120,2|0|2
256,244,117131,1,0
284,292,117353,6,0,B|344:316|404:292,2,120,0|2|0
284,292,118464,1,0
256,244,118686,1,2
228,292,118908,1,0
228,292,119131,6,0,B|168:316|108:292,2,120,4|2|0
256,244,120242,2,0,B|204:212,2,60,0|2|0
256,244,120908,6,0,B|308:212,2,60,4|0|8
256,180,121575,1,8
256,120,121797,2,0,B|204:151,2,60,0|0|8
256,120,122463,2,0,B|307:151,2,60,0|4|0
256,120,123131,6,0,B|204:88,1,60,8|8
256,120,123575,2,0,B|308:88,1,60
204,88,124019,2,0,B|152:128,1,60,8|0
307,88,124464,6,0,B|360:128,1,60,4|0
156,124,124908,1,8
156,124,125131,1,8
200,164,125353,1,0
256,180,125575,1,0
312,164,125797,1,8
355,124,126019,1,0
355,124,126242,5,4
200,164,126464,2,0,B|156:208,1,60,0|8
312,164,126908,2,0,B|356:208,1,60,8|0
156,124,127353,2,0,B|92:124,1,60,0|8
355,124,127797,2,0,B|420:124,1,60,0|4
196,72,128242,6,0,B|152:28,1,60,0|8
308,72,128686,2,0,B|352:28,1,60,8|0
256,96,129131,1,0
256,156,129353,1,8
256,216,129575,1,0
256,192,129797,12,0,134242
256,192,134686,5,8
200,300,135131,1,4
200,240,135353,1,0
144,268,135575,2,0,B|80:268,2,60,8|0|0
144,208,136242,2,0,B|80:208,2,60,0|8|0
180,160,136908,5,0
228,196,137131,1,0
256,144,137353,1,8
284,196,137575,1,0
332,160,137798,1,8
368,208,138019,2,0,B|432:208,2,60
368,268,138686,6,0,B|432:268,2,60,4|0|8
336,320,139353,2,0,B|296:364,1,60
256,320,139797,1,0
176,320,140020,2,0,B|216:364,1,60,8|0
176,320,140464,6,0,B|148:264|176:204,1,120,0|8
175,204,141131,1,0
224,172,141353,1,0
288,172,141575,1,0
336,204,141797,2,0,B|364:264|336:320,2,120,8|4|8
288,172,142908,6,0,B|344:132,1,60
224,172,143353,2,0,B|168:132,1,60,0|8
212,92,143797,1,0
256,52,144019,5,0
300,92,144242,1,0
212,92,144464,2,0,B|148:92,2,60,8|0|0
256,136,145131,1,0
300,92,145353,2,0,B|364:92,2,60,8|0|4
256,136,146019,5,0
256,196,146242,1,8
256,256,146464,1,0
256,196,146686,2,0,B|320:196,1,60
256,196,147131,2,0,B|192:196,1,60,8|0
136,192,147575,6,0,B|100:140|136:80,2,120,0|8|0
136,192,148686,2,0,B|136:252,1,60,0|8
136,192,149131,2,0,B|200:192,1,60,0|4
256,196,149575,5,0
316,192,149797,2,0,B|376:192,1,60,8|0
376,252,150242,2,0,B|376:192,1,60
376,192,150687,2,0,B|412:140|375:79,1,120,8|0
316,80,151353,5,0
316,140,151575,1,8
288,192,151797,1,0
196,80,152242,1,0
196,140,152464,1,8
224,192,152686,1,0
256,244,152908,6,0,B|256:308,1,60,4|0
256,244,153353,2,0,B|320:244,1,60,8|0
256,244,153797,2,0,B|196:244,1,60
136,244,154242,1,8
168,196,154464,1,0
136,144,154686,5,0
256,132,155131,1,8
376,144,155575,1,0
344,196,155797,1,0
376,244,156019,1,8
256,252,156464,6,0,B|220:300|148:300,1,120,4|8
112,252,157131,1,0
160,212,157353,2,0,B|208:160,2,60,0|0|8
256,252,158242,6,0,B|292:300|364:300,1,120,0|8
400,252,158909,1,0
352,212,159131,2,0,B|304:160,2,60,0|0|8
404,180,159797,1,0
404,180,160019,6,0,B|376:124|416:64,1,120,4|8
348,56,160686,1,0
304,96,160908,1,0
256,60,161131,1,0
208,96,161353,1,8
164,56,161575,1,0
97,66,161797,6,0,B|136:124|108:180,1,120,0|8
180,180,162464,1,0
108,179,162686,2,0,B|80:240|104:300,1,120,0|8
176,296,163353,2,0,B|242:297,1,60,0|4
256,192,170686,5,4
136,192,171131,1,8
256,192,171575,1,4
256,72,172019,1,8
256,192,172464,5,4
376,192,172908,1,8
256,192,173353,1,4
256,312,173797,1,8
256,192,174242,6,0,B|256:156,15,30
256,192,176019,12,4,177797
256,192,178019,6,0,B|188:192,1,60,0|8
256,192,178464,2,0,B|320:192,1,60
196,192,178908,2,0,B|136:192,1,60,0|8
316,192,179352,2,0,B|376:192,1,60
256,192,179797,6,0,B|256:128,1,60,0|8
256,192,180242,2,0,B|256:264,1,60
256,132,180686,2,0,B|256:72,1,60,0|8
256,252,181131,2,0,B|256:312,1,60,0|4
256,72,181575,5,0
204,100,181797,1,8
152,72,182019,1,0
256,72,182464,1,0
308,100,182686,1,8
360,72,182908,1,0
360,72,183131,6,0,B|416:100,2,60,0|0|8
308,100,183797,1,0
204,100,184242,1,0
152,72,184464,2,0,B|96:100,2,60,8|0|4
152,72,185131,6,0,B|152:132,1,60,0|8
152,192,185575,1,0
152,252,185797,1,0
212,264,186019,1,0
256,224,186242,1,8
256,164,186464,2,0,B|256:104,2,60
256,224,187131,5,8
300,264,187354,1,0
360,252,187575,1,0
360,192,187797,1,0
360,132,188019,2,0,B|360:72,2,60,8|0|4
360,132,188686,5,0
360,132,188908,2,0,B|300:112|240:132,1,120,8|0
208,84,189575,1,0
184,140,189797,1,8
180,236,190242,6,0,B|240:256|297:236,1,120,0|8
336,188,190908,1,0
360,244,191130,1,0
360,244,191353,2,0,B|360:304,1,60,0|8
336,188,192019,5,4
224,148,192464,2,0,B|201:208|229:264,1,120,8|0
224,148,193353,2,0,B|164:116|104:148,1,120,8|0
224,148,194242,2,0,B|246:87|218:31,1,120,8|0
224,148,195131,2,0,B|284:180|344:148,1,120,8|4
300,88,195797,5,0
372,88,196019,1,8
408,152,196242,1,0
408,152,196464,2,0,B|436:204,1,60
436,276,196908,2,0,B|376:276,1,60,8|0
316,264,197353,5,0
256,248,197575,1,0
200,264,197797,1,8
136,272,198019,2,0,B|76:272,1,60
76,200,198464,2,0,B|104:140,2,60,0|8|0
101,145,199131,5,4
140,84,199354,1,0
212,84,199576,1,8
172,150,199797,1,0
172,150,200019,2,0,B|228:180|288:148,2,120,0|8|0
168,212,201131,6,0,B|168:276,1,60,0|8
228,280,201575,2,0,B|228:220,1,60
288,216,202019,2,0,B|288:276,1,60,0|8
348,284,202464,2,0,B|348:224,1,60,0|4
348,164,202908,5,0
348,104,203131,1,8
288,92,203353,2,0,B|288:152,1,60
228,164,203797,1,0
228,104,204020,1,8
172,88,204242,2,0,B|172:148,1,60,0|0
256,192,204686,12,0,206242
