osu file format v9

[General]
AudioFilename: MaRLo - Megalodon (Original Mix Edit).mp3
AudioLeadIn: 2000
PreviewTime: 78242
Countdown: 0
SampleSet: Soft
StackLeniency: 0.7
Mode: 0
LetterboxInBreaks: 0
EpilepsyWarning: 1

[Editor]
Bookmarks: 35575,56908,71131,76464,113797,149353,177797,206242
DistanceSpacing: 1
BeatDivisor: 4
GridSize: 4

[Metadata]
Title:Megalodon (Original Mix Edit)
Artist:MaRLo
Creator:FoxShift
Version:Collab
Source:
Tags:Katty Pie Raimon taiko trance dance collab collaboration eye big tooth greek

[Difficulty]
HPDrainRate:7
CircleSize:4
OverallDifficulty:7
ApproachRate:8
SliderMultiplier:2
SliderTickRate:1

[Events]
//Background and Video events
0,0,"bg.jpg"
//Break Periods
2,71330,75714
//Storyboard Layer 0 (Background)
//Storyboard Layer 1 (Fail)
//Storyboard Layer 2 (Pass)
//Storyboard Layer 3 (Foreground)
Sprite,Foreground,Centre,"1.png",320,240 M,0,1797,,320,240 F,0,1797,2242,1,0 S,0,1797,2242,0.8054401,1 F,0,2242,5242,0,0.008668021 S,0,2242,5353,1,0.7951999 F,0,5242,5353,0.008668021,1 F,0,5353,5797,1,0.008988738 S,0,5353,5797,0.7951999,1 F,0,5797,8797,0.008988738,0.01114114 S,0,5797,8908,1,0.7952 F,0,8797,8908,0.01114114,1 F,0,8908,9353,1,0 S,0,8908,9353,0.7952,1 F,0,9353,12353,0,0.01979153 S,0,9353,12464,1,0.7952 F,0,12353,12464,0.01979153,1 F,0,12464,12908,1,0 S,0,12464,12908,0.7952,1 F,0,12908,15908,0,0.02862152 S,0,12908,16019,1,0.7951999 F,0,15908,16019,0.02862152,1 F,0,16019,16464,1,0 S,0,16019,16464,0.7951999,1 F,0,16464,19464,0,0.0289365 S,0,16464,19575,1,0.8054401 F,0,19464,19575,0.0289365,1 F,0,19575,20019,1,0 S,0,19575,20019,0.8054401,1 F,0,20019,23019,0,0.03736996 S,0,20019,23131,1,0.8054401 F,0,23019,23131,0.03736996,1 F,0,23131,23575,1,0 S,0,23131,23575,0.8054401,1 F,0,23575,28353,0,0.03980301 S,0,23575,28464,1,0.7952002 F,0,28353,28464,0.03980301,1 F,0,28464,29353,1,0 S,0,28464,29353,0.7952002,1 F,0,29353,31908,0 S,0,29353,32019,1,0.8054401 F,0,31908,32019,0,1 F,0,32019,32908,1,0 S,0,32019,32908,0.8054401,1 F,0,32908,35464,0,0.04721865 S,0,32908,35575,1,0.7952 F,0,35464,35575,0.04721865,1 F,0,35575,36464,1,0 S,0,35575,36464,0.7952,1 F,0,36464,39019,0 S,0,36464,39131,1,0.7952 F,0,39019,39131,0,1 F,0,39131,40019,1,0 S,0,39131,40019,0.7952,1 F,0,40019,42575,0 S,0,40019,42686,1,0.8054401 F,0,42575,42686,0,1 F,0,42686,43575,1,0 S,0,42686,43575,0.8054401,1 F,0,43575,46131,0,0.02976166 S,0,43575,46242,1,0.7952 F,0,46131,46242,0.02976166,1 F,0,46242,47131,1,0 S,0,46242,47131,0.7952,1 F,0,47131,49686,0 S,0,47131,49797,1,0.8054399 F,0,49686,49797,0,1 F,0,49797,50686,1,0 S,0,49797,50686,0.8054399,1 F,0,50686,51464,0,0.03085334 S,0,50686,51575,1,0.8054401 F,0,51464,51575,0.03085334,1 F,0,51575,52019,1,0 S,0,51575,52019,0.8054401,1 F,0,52019,52353,0,0.03085334 S,0,52019,52464,1,0.8054399 F,0,52353,52464,0.03085334,1 F,0,52464,52908,1,0 S,0,52464,52908,0.8054399,1 F,0,52908,53242,0,0.03085334 S,0,52908,53353,1,0.7951999 F,0,53242,53353,0.03085334,1 F,0,53353,53797,1,0 S,0,53353,53797,0.7951999,1 F,0,53797,78131,0,0.03085334 S,0,53797,78242,1,0.7981521 F,0,78131,78242,0.03085334,1 F,0,78242,79131,1,0 S,0,78242,79131,0.7981521,0.931272 F,0,79131,81686,0,0.03398763 S,0,79131,81797,0.931272,0.7879119 F,0,81686,81797,0.03398763,1 F,0,81797,82686,1,0 S,0,81797,82686,0.7879119,0.931272 F,0,82686,85242,0,0.03516506 S,0,82686,85353,0.931272,0.7981519 F,0,85242,85353,0.03516506,1 F,0,85353,86242,1,0 S,0,85353,86242,0.7981519,0.931272 F,0,86242,88797,0,0.04041061 S,0,86242,88908,0.931272,0.7981521 F,0,88797,88908,0.04041061,1 F,0,88908,89797,1,0 S,0,88908,89797,0.7981521,0.931272 F,0,89797,136797,0,0.04063654 S,0,89797,136908,0.931272,0.798152 F,0,136797,136908,0.04063654,1 F,0,136908,137353,1,0 S,0,136908,137353,0.798152,0.931272 F,0,137353,138575,0,0.04063654 S,0,137353,138686,0.931272,0.7981519 F,0,138575,138686,0.04063654,1 F,0,138686,139131,1,0 S,0,138686,139131,0.7981519,0.931272 F,0,139131,140353,0,0.04063654 S,0,139131,140464,0.931272,0.7972546 F,0,140353,140464,0.04063654,1 F,0,140464,140908,1,0 S,0,140464,140908,0.7972546,0.9303745 F,0,140908,142131,0,0.04063654 S,0,140908,142242,0.9303745,0.7972544 F,0,142131,142242,0.04063654,1 F,0,142242,142686,1,0 S,0,142242,142686,0.7972544,0.9303745 F,0,142686,143908,0,0.04063654 S,0,142686,144019,0.9303745,0.7972547 F,0,143908,144019,0.04063654,1 F,0,144019,144464,1,0 S,0,144019,144464,0.7972547,0.9303745 F,0,144464,145686,0,0.04063654 S,0,144464,145797,0.9303745,0.7972541 F,0,145686,145797,0.04063654,1 F,0,145797,146242,1,0 S,0,145797,146242,0.7972541,0.9303745 F,0,146242,147464,0,0.04063654 S,0,146242,147575,0.9303745,0.7972544 F,0,147464,147575,0.04063654,1 F,0,147575,148019,1,0 S,0,147575,148019,0.7972544,0.9303745 F,0,148019,151019,0,0.04063654 S,0,148019,151131,0.9303745,0.7870145 F,0,151019,151131,0.04063654,1 F,0,151131,151575,1,0 S,0,151131,151575,0.7870145,0.9303745 F,0,151575,152797,0,0.04063654 S,0,151575,152908,0.9303745,0.7972546 F,0,152797,152908,0.04063654,1 F,0,152908,153353,1,0 S,0,152908,153353,0.7972546,0.9303745 F,0,153353,154575,0,0.04063654 S,0,153353,154686,0.9303745,0.7972547 F,0,154575,154686,0.04063654,1 F,0,154686,155131,1,0 S,0,154686,155131,0.7972547,0.9303745 F,0,155131,156353,0,0.04063654 S,0,155131,156464,0.9303745,0.7972544 F,0,156353,156464,0.04063654,1 F,0,156464,156908,1,0 S,0,156464,156908,0.7972544,0.9303745 F,0,156908,158131,0,0.04063654 S,0,156908,158242,0.9303745,0.8074946 F,0,158131,158242,0.04063654,1 F,0,158242,158686,1,0 S,0,158242,158686,0.8074946,0.9303745 F,0,158686,159908,0,0.04063654 S,0,158686,160019,0.9303745,0.7972544 F,0,159908,160019,0.04063654,1 F,0,160019,160464,1,0 S,0,160019,160464,0.7972544,0.9303745 F,0,160464,161686,0,0.04063654 S,0,160464,161797,0.9303745,0.7972544 F,0,161686,161797,0.04063654,1 F,0,161797,162242,1,0 S,0,161797,162242,0.7972544,0.9303745 F,0,162242,179464,0,0.04063654 S,0,162242,179575,0.9303745,0.7966564 F,0,179464,179575,0.04063654,1 F,0,179575,180019,1,0 S,0,179575,180019,0.7966564,1.001456 F,0,180019,181242,0,0.04063654 S,0,180019,181353,1.001456,0.8068962 F,0,181242,181353,0.04063654,1 F,0,181353,181797,1,0 S,0,181353,181797,0.8068962,1.001456 F,0,181797,183019,0,0.04063654 S,0,181797,183131,1.001456,0.7966563 F,0,183019,183131,0.04063654,1 F,0,183131,183575,1,0 S,0,183131,183575,0.7966563,1.001456 F,0,183575,184797,0,0.04063654 S,0,183575,184908,1.001456,0.7966563 F,0,184797,184908,0.04063654,1 F,0,184908,185353,1,0 S,0,184908,185353,0.7966563,1.001456 F,0,185353,186575,0,0.04063654 S,0,185353,186686,1.001456,0.7966563 F,0,186575,186686,0.04063654,1 F,0,186686,187131,1,0 S,0,186686,187131,0.7966563,1.001456 F,0,187131,188353,0,0.04063654 S,0,187131,188464,1.001456,0.7966563 F,0,188353,188464,0.04063654,1 F,0,188464,188908,1,0 S,0,188464,188908,0.7966563,1.001456 F,0,188908,190131,0,0.04063654 S,0,188908,190242,1.001456,0.7966563 F,0,190131,190242,0.04063654,1 F,0,190242,190686,1,0 S,0,190242,190686,0.7966563,1.001456 F,0,190686,193686,0,0.04063654 S,0,190686,193797,1.001456,0.7966563 F,0,193686,193797,0.04063654,1 F,0,193797,194242,1,0 S,0,193797,194242,0.7966563,1.001456 F,0,194242,195464,0,0.04063654 S,0,194242,195575,1.001456,0.7966565 F,0,195464,195575,0.04063654,1 F,0,195575,196019,1,0 S,0,195575,196019,0.7966565,1.001456 F,0,196019,197242,0,0.04063654 S,0,196019,197353,1.001456,0.7966565 F,0,197242,197353,0.04063654,1 F,0,197353,197797,1,0 S,0,197353,197797,0.7966565,1.001456 F,0,197797,199019,0,0.04063654 S,0,197797,199131,1.001456,0.7966565 F,0,199019,199131,0.04063654,1 F,0,199131,199575,1,0 S,0,199131,199575,0.7966565,1.001456 F,0,199575,200797,0,0.04063654 S,0,199575,200908,1.001456,0.7966563 F,0,200797,200908,0.04063654,1 F,0,200908,201353,1,0 S,0,200908,201353,0.7966563,1.001456 F,0,201353,202575,0,0.04063654 S,0,201353,202686,1.001456,0.7966565 F,0,202575,202686,0.04063654,1 F,0,202686,203131,1,0 S,0,202686,203131,0.7966565,1.001456 F,0,203131,204353,0,0.04063654 S,0,203131,204464,1.001456,0.7966563 F,0,204353,204464,0.04063654,1 F,0,204464,204908,1,0 S,0,204464,204908,0.7966563,1.001456
Sprite,Foreground,Centre,"black.png",320,240 M,0,25797,,320,240 S,0,25797,,0.8259201 F,0,25797,26686,0,1 F,0,26686,28353,1,0.9957815 F,0,28353,28464,0.9957815,0 F,0,28464,70242,0,0.01756816 F,0,70242,71131,0.01756816,1 F,0,71131,78131,1,0.9978243 F,0,78131,78242,0.9978243,0 F,0,78242,129797,0 F,0,129797,134908,0,1 F,0,134908,135019,1 F,0,135019,135131,1,0 F,0,135131,176019,0 F,0,176019,177686,0,1 F,0,177686,177797,1,0 F,0,177797,190242,0,0.01970769 F,0,190242,191908,0.01970769,1 F,0,191908,192019,1,0.02252172 F,0,192019,206131,0.02252172,0.04486924 F,0,206131,206242,0.04486924,1 F,0,206242,217182,1
Sprite,Foreground,Centre,"white.png",320,240 S,0,92464,,0.8259201 F,0,92464,92908,1,0 F,0,92908,94131,0 F,0,94131,94242,0,1 F,0,94242,94686,1,0 F,0,94686,95908,0 F,0,95908,96019,0,1 F,0,96019,96464,1,0 F,0,96464,97686,0 F,0,97686,97797,0,1 F,0,97797,98242,1,0 F,0,98242,99464,0 F,0,99464,99575,0,1 F,0,99575,100019,1,0 F,0,100019,101242,0 F,0,101242,101353,0,1 F,0,101353,101797,1,0 F,0,101797,103019,0 F,0,103019,103131,0,1 F,0,103131,103575,1,0 F,0,103575,104797,0 F,0,104797,104908,0,1 F,0,104908,105353,1,0 F,0,105353,135019,0 F,0,135019,135131,0,1 F,0,135131,135575,1,0 F,0,135575,149242,0 F,0,149242,149353,0,1 F,0,149353,149797,1,0 F,0,149797,176464,0 F,0,176464,177686,0 F,0,177686,177797,0,1 F,0,177797,178242,1,0 F,0,178242,191908,0,0.002229109 F,0,191908,192019,0.002229109,1 F,0,192019,192464,1,0.002247214
Sprite,Foreground,Centre,"heart.png",320,240 M,0,56908,,310,214 F,0,56908,57353,0,1 S,0,56908,70575,0.3753601 F,0,57353,70242,1,0.9955056 F,0,70242,70575,0.9955056,0.9988764 F,0,70575,71131,0.9988764,1 S,0,70575,71131,0.3753601 F,0,71131,72019,1,0 S,0,71131,72019,0.3753601,0.5494401 F,0,72019,72797,0 S,0,72019,72908,0.5494401,0.3753601 F,0,72797,72908,0,1 F,0,72908,73797,1,0 S,0,72908,73797,0.3753601,0.5596802 F,0,73797,74575,0 S,0,73797,74686,0.5596802,0.3753601 F,0,74575,74686,0,1 F,0,74686,75575,1,0 S,0,74686,75575,0.3753601,0.5392003 F,0,75575,76353,0 S,0,75575,76464,0.5392003,0.3753601 F,0,76353,76464,0,1 F,0,76464,77353,1,0 S,0,76464,77353,0.3753601,0.5494401 F,0,77353,106575,0 S,0,77353,106686,0.5494401,0.4060802 F,0,106575,106686,0 F,0,106686,107131,0,1 F,0,107131,129797,1,0.9977528 F,0,129797,130242,0.9977528,0 F,0,130242,163575,0 F,0,130242,163575,0 F,0,163575,164019,0,1 F,0,164019,176019,1 F,0,176019,176464,1,0
Sprite,Foreground,Centre,"drop2.png",320,240 S,0,56908,,1.49152 F,0,56908,57353,0,1 M,0,56908,70242,125,360,127,364 F,0,57353,70242,1,0.9978276 F,0,70242,70686,0.9978276,0 M,0,70242,106686,127,364,523,329 F,0,70686,106686,0 F,0,106686,107131,0,1 F,0,107131,129797,1,0.9932584 F,0,129797,130242,0.9932584,0 F,0,130242,163575,0 F,0,163575,164019,0,1 F,0,164019,176019,1,0.9954955 F,0,176019,176464,0.9954955,0
Sprite,Foreground,Centre,"drop2.png",320,240 M,0,163575,,469,275 S,0,163575,,1.18432 F,0,163575,164019,0,1 F,0,164019,176019,1,0.990991 F,0,176019,176464,0.990991,0
Sprite,Foreground,Centre,"drop2.png",320,240 M,0,163575,,461,395 S,0,163575,,1.11264 F,0,163575,164019,0,1 F,0,164019,176019,1,0.9954955 F,0,176019,176464,0.9954955,0
Sprite,Foreground,Centre,"Katty Pie.png",320,240 M,0,35575,,469,404 F,0,35575,36019,0,1 F,0,36019,71131,1 F,0,71131,71575,1,0 F,0,71575,113797,0,0.004504502 F,0,113797,114242,0.004504502,1 F,0,114242,149131,1,0.9933731 F,0,149131,149575,0.9933731,0 F,0,149575,177353,0,0.002237355 F,0,177353,177797,0.002237355,1 F,0,177797,206242,1 F,0,206242,206686,1,0
Sprite,Foreground,Centre,"FoxShift.png",320,240 M,0,20,,132,399 F,0,20,464,0,1 F,0,464,35353,1 F,0,35353,35797,1,0 F,0,35797,76464,0 F,0,76464,78242,0,1 F,0,78242,113575,1,0.9994445 F,0,113575,114019,0.9994445,0 F,0,114019,149353,0 F,0,149353,149797,0,1 F,0,149797,177131,1,0.9911339 F,0,177131,177575,0.9911339,0
//Storyboard Sound Samples
//Background Colour Transformations
3,100,163,162,255

[TimingPoints]
20,444.444444444444,4,2,1,100,1,0
55131,-100,4,2,1,10,0,0
57131,-100,4,2,1,85,0,0
57797,-100,4,2,1,80,0,0
58686,-100,4,2,1,75,0,0
59575,-100,4,2,1,70,0,0
60464,-100,4,2,1,65,0,0
61353,-100,4,2,1,60,0,0
62242,-100,4,2,1,55,0,0
63131,-100,4,2,1,50,0,0
64019,-100,4,2,1,45,0,0
64908,-100,4,2,1,40,0,0
65797,-100,4,2,1,35,0,0
66686,-100,4,2,1,30,0,0
67575,-100,4,2,1,25,0,0
68464,-100,4,2,1,20,0,0
69353,-100,4,2,1,15,0,0
70242,-100,4,2,1,10,0,0
71131,-100,4,2,1,5,0,0
78242,-100,4,2,1,100,0,0
92464,-100,4,2,1,100,0,1
106686,-100,4,2,1,35,0,0
108464,-100,4,2,1,40,0,0
110242,-100,4,2,1,45,0,0
112019,-100,4,2,1,50,0,0
113797,-100,4,2,1,55,0,0
115575,-100,4,2,1,60,0,0
117353,-100,4,2,1,65,0,0
119131,-100,4,2,1,70,0,0
120908,-100,4,2,1,75,0,0
122686,-100,4,2,1,80,0,0
124464,-100,4,2,1,85,0,0
126242,-100,4,2,1,90,0,0
128019,-100,4,2,1,95,0,0
129797,-100,4,2,1,100,0,0
135131,-100,4,1,1,50,0,1
163575,-100,4,2,1,70,0,0
177797,-100,4,1,1,50,0,1
191575,-100,4,2,1,100,0,1
192019,-100,4,1,1,50,0,1
204464,-100,4,2,1,5,0,0

[Colours]
Combo1 : 0,145,215
Combo2 : 85,200,255
Combo3 : 192,192,192
Combo4 : 198,255,255
SliderBorder : 255,255,255

[HitObjects]
208,136,20,2,0,B|152:136|112:96,2,100,4|0|8
256,224,686,1,0
256,240,797,1,0
256,256,908,1,0
304,136,1131,2,0,B|360:136|400:96,1,100,0|8
392,304,1797,6,0,B|368:248|400:192,2,100,0|0|8
296,320,2464,1,0
256,328,2575,1,0
216,320,2686,1,0
120,304,2908,2,0,B|144:248|112:192,1,100,0|8
256,64,3575,5,4
256,160,3797,1,0
256,256,4019,1,8
256,160,4242,2,0,B|208:160,2,50
336,104,4686,1,0
336,208,4908,1,8
176,208,5353,5,0
176,104,5575,1,0
256,160,5797,1,8
256,256,6019,2,0,B|256:304,2,50
176,312,6464,1,0
336,312,6686,1,8
256,160,7131,6,0,B|256:104,2,50,4|0|0
256,256,7575,1,8
344,208,7797,1,0
376,208,7908,1,0
408,208,8019,1,0
376,112,8242,1,0
376,304,8464,1,8
256,160,8908,6,0,B|272:208|248:216|256:264,2,100,0|0|8
168,208,9575,1,0
136,208,9686,1,0
104,208,9797,1,0
136,304,10019,1,0
136,112,10241,1,8
340,272,10686,6,0,B|301:304,1,50,4|0
172,272,11019,2,0,B|210:304,1,50,0|8
256,208,11353,1,0
256,112,11575,1,0
256,96,11686,1,0
256,80,11797,1,0
404,80,12019,1,8
256,208,12464,6,0,B|208:232|152:200,2,100,0|0|8
256,312,13131,2,0,B|256:360,2,50
256,208,13575,2,0,B|304:232|360:200,1,100,0|8
160,136,14242,5,4
256,96,14464,1,0
352,136,14686,1,8
256,208,14908,2,0,B|256:256,2,50
256,328,15353,1,0
256,328,15575,1,8
168,112,16019,6,0,B|168:162,1,50,0|0
256,112,16353,2,0,B|256:162,1,50,0|8
256,216,16686,1,0
344,112,16908,2,0,B|344:160,2,50
256,216,17353,1,8
56,192,17797,5,4
112,112,18019,1,0
168,192,18242,1,8
224,112,18464,1,0
256,72,18575,1,0
288,112,18686,1,0
344,192,18908,1,0
400,112,19131,1,8
456,192,19353,1,0
400,272,19575,6,0,B|360:304|304:288,1,100,0|0
256,200,20019,1,8
256,200,20242,2,0,B|256:144,2,50
208,288,20686,2,0,B|152:304|112:272,2,100,0|8|0
350,200,21353,6,0,B|300:200,1,50,4|0
162,200,21686,2,0,B|212:200,1,50,0|8
204,112,22019,2,0,B|156:128|100:104,2,100
304,112,22686,2,0,B|352:128|408:104,1,100,8|0
256,200,23131,5,0
208,288,23353,1,0
256,304,23464,1,0
304,288,23575,1,8
352,200,23797,1,0
328,152,23908,1,0
352,104,24019,1,0
256,64,24242,2,0,B|248:72|248:72|264:72|264:72|256:80|256:80|248:80|248:80|264:80|264:80|256:88|256:88|256:120,2,100,0|8|0
160,104,24908,5,4
184,152,25019,1,0
160,200,25130,1,0
256,232,25353,2,0,B|256:184,2,50,8|0|0
256,232,25797,2,0,B|256:336,2,100,0|0|8
256,232,26464,1,0
256,232,26686,5,0
352,232,26908,2,0,B|368:224|368:224|384:232|384:232|400:224|400:224|416:232|416:232|432:224|432:224|448:232|448:232,2,100,0|8|0
304,144,27575,1,0
256,56,27797,1,0
208,144,28019,1,8
160,232,28242,2,0,B|144:224|144:224|128:232|128:232|112:224|112:224|96:232|96:232|80:224|80:224|64:232|64:232,2,100,0|4|0
256,264,28908,6,0,B|248:280|248:280|256:296|256:296|248:312|248:312|256:328|256:328|248:344|248:344|256:360|256:360,2,100,8|0|0
256,264,29575,1,0
256,168,29797,2,0,B|256:120,2,50,8|0|0
168,216,30242,5,0
136,216,30353,1,0
104,216,30464,1,0
136,120,30686,2,0,B|192:120,2,50,8|0|0
256,104,31131,2,0,B|256:56,2,50
376,120,31575,2,0,B|320:120,2,50,8|0|0
344,216,32019,5,4
376,216,32130,1,0
408,216,32241,1,0
376,312,32464,2,0,B|426:312,2,50,8|0|0
256,330,32908,2,0,B|256:280,2,50
136,312,33353,2,0,B|86:312,2,50,8|0|0
208,240,33797,5,0
256,152,34019,1,0
304,240,34242,1,8
352,152,34464,1,0
376,152,34575,1,0
400,152,34686,1,0
256,152,34908,2,0,B|248:136|248:136|256:120|256:120|248:104|248:104|256:88|256:88|248:72|248:72|256:56|256:56,2,100,0|8|0
160,152,35575,5,4
136,152,35686,1,0
112,152,35797,1,0
96,248,36019,2,0,B|96:312|160:328,1,100,8|0
208,240,36464,1,0
304,240,36686,1,0
363,324,36908,2,0,B|416:312|416:248,1,100,8|0
384,152,37353,5,0
368,128,37464,1,0
344,112,37575,1,0
256,64,37797,1,8
168,112,38019,1,0
144,128,38130,1,0
128,152,38241,1,0
128,256,38464,1,0
224,256,38686,2,0,B|304:256,2,50,8|0|0
224,360,39131,6,0,B|288:384|368:344|376:264,1,200,4|8
432,192,39797,1,0
368,112,40019,2,0,B|304:88|224:128|216:208,1,200,0|8
152,272,40686,1,0
88,200,40908,6,0,B|88:136|24:136,2,100,0|0|8
152,272,41575,1,0
224,200,41797,2,0,B|224:136|288:136,1,100
384,136,42242,1,8
408,136,42353,1,0
432,136,42464,1,0
360,320,42686,6,0,B|312:264,1,50,4|0
152,320,43019,2,0,B|200:264,1,50,0|8
256,208,43353,1,0
256,184,43464,1,0
256,160,43575,1,0
256,64,43797,2,0,B|192:64,1,50
160,64,44019,2,0,B|104:64,1,50,8|0
56,64,44242,1,0
56,264,44464,5,0
72,284,44575,1,0
92,300,44686,1,0
116,312,44797,1,0
140,320,44908,1,8
208,244,45131,2,0,B|256:212|300:244,1,100
364,324,45575,2,0,B|316:356|272:324,1,100,0|8
208,244,46019,2,0,B|208:132,1,100,0|4
208,120,46353,6,0,B|228:68,1,50
248,60,46575,2,0,B|320:32,1,50,0|8
320,40,46797,2,0,B|392:40,1,50
444,108,47131,1,4
444,132,47242,1,0
444,156,47353,1,0
444,180,47464,1,0
444,204,47575,1,8
444,228,47686,1,0
444,252,47797,1,0
360,308,48019,5,0
360,308,48131,1,0
260,308,48353,1,0
260,308,48464,1,8
172,264,48686,2,0,B|120:244|116:188,1,100
72,96,49131,2,0,B|92:68|140:68|160:96,1,100,0|8
248,144,49575,2,0,B|268:172|316:172|336:144,1,100,0|4
404,76,50019,5,0
472,152,50242,1,8
468,252,50464,1,0
400,324,50686,1,0
304,344,50908,1,0
208,324,51131,1,8
144,248,51353,1,0
140,148,51575,6,0,B|140:100,1,50,4|0
148,76,51797,2,0,B|200:36,1,50
212,40,52019,2,0,B|288:40,1,50,8|0
288,40,52242,1,0
388,40,52464,5,4
412,36,52575,1,0
436,36,52686,1,0
460,44,52797,1,0
476,64,52908,1,8
484,88,53019,1,0
484,112,53131,1,0
484,212,53353,6,0,B|432:212,1,50,4|0
408,212,53575,2,0,B|336:212,1,50
332,212,53797,2,0,B|268:212,1,50,8|0
256,212,54019,2,0,B|192:212,1,50
180,212,54242,1,0
156,212,54353,1,0
132,212,54464,1,0
108,212,54575,1,0
84,212,54686,1,8
60,212,54797,1,0
36,212,54908,1,0
256,192,55131,12,4,56908
312,56,57131,6,0,B|412:88,1,100,0|2
200,56,57575,2,0,B|100:88,1,100
256,132,58019,2,0,B|256:248,1,100,0|2
356,228,58464,1,0
304,312,58686,1,0
204,312,58908,1,0
156,228,59131,1,2
172,104,59353,6,0,B|164:40|104:48,1,100
344,104,59797,2,0,B|408:95|400:36,1,100,0|2
348,276,60242,2,0,B|356:340|416:332,1,100
172,276,60686,2,0,B|108:284|116:344,1,100,0|2
48,268,61131,5,0
52,168,61353,1,0
112,88,61575,2,0,B|224:88,1,100,0|2
260,176,62019,2,0,B|152:176,1,100
172,276,62464,5,0
244,344,62686,1,2
344,348,62908,1,0
440,320,63131,1,0
476,228,63353,2,0,B|496:176|476:132,1,100,0|2
388,84,63797,2,0,B|368:136|388:180,1,100
288,184,64242,6,0,B|236:164|192:184,1,100,0|2
144,272,64686,2,0,B|196:292|240:272,1,100
332,312,65131,1,0
428,288,65353,1,2
456,192,65575,1,0
356,192,65797,2,0,B|240:192,1,100
252,92,66242,5,2
164,140,66464,1,0
144,236,66686,1,0
144,336,66908,2,0,B|252:336,1,100,0|2
444,332,67353,2,0,B|344:332,1,100
288,248,67797,6,0,B|288:192,2,50,0|0|2
188,252,68242,2,0,B|140:252,2,50,0|0|2
192,148,68686,2,0,B|192:88,2,50,0|0|2
92,148,69131,1,0
68,148,69242,1,0
44,148,69353,1,2
76,52,69575,5,0
100,52,69686,1,0
124,52,69797,1,2
224,52,70019,2,0,B|284:52,2,50,0|0|2
224,152,70464,1,0
224,176,70575,1,0
224,200,70686,1,2
224,300,70908,2,0,B|224:360,2,50,0|0|4
256,192,76464,12,4,78242
256,196,78464,5,0
188,268,78686,2,0,B|140:292|88:264,1,100,2|0
140,180,79131,2,0,B|140:128,2,50
188,268,79575,1,2
256,344,79797,1,0
324,272,80019,5,4
324,272,80242,2,0,B|372:296|424:268,2,100,0|2|0
256,200,80908,2,0,B|256:148,2,50,4|0|0
256,200,81354,2,0,B|204:192|204:192|164:164,1,100,2|0
256,200,81797,6,0,B|308:192|308:192|348:164,1,100
256,120,82242,1,2
192,44,82464,2,0,B|152:84|160:140,1,100
160,156,82797,1,0
160,176,82908,1,0
256,120,83131,1,2
352,134,83353,2,0,B|360:84|320:44,2,100,0|4|0
256,220,84019,5,2
204,304,84242,1,0
304,304,84464,1,0
324,304,84575,1,0
344,304,84686,1,0
256,220,84908,2,0,B|208:192|148:224,1,100,2|0
108,304,85353,5,4
88,304,85464,1,0
72,304,85575,1,0
92,204,85797,2,0,B|120:152|88:104,1,100,2|0
184,144,86242,1,0
192,160,86353,1,0
200,176,86464,1,0
208,52,86686,2,0,B|256:72|304:52,1,100,2|0
328,144,87131,5,4
320,160,87242,1,0
312,176,87353,1,0
420,108,87575,2,0,B|392:152|420:204,1,100,2|0
420,304,88019,2,0,B|372:272,2,50,4|0|0
308,316,88464,2,0,B|256:296|208:316,1,100,2|0
256,224,88908,5,0
184,156,89131,1,0
256,88,89353,1,2
328,156,89575,1,0
256,224,89797,1,0
256,208,89908,1,0
256,192,90019,1,0
184,156,90242,2,0,B|144:184|144:184|88:148,2,100,2|0|4
256,88,90908,5,0
256,88,91131,1,2
328,156,91353,2,0,B|368:184|368:184|424:148,1,100
428,140,91686,1,0
444,124,91797,1,0
368,56,92019,1,2
256,88,92242,2,0,B|264:92|264:92|252:96|252:96|264:104|264:104|252:108|252:108|264:116|264:116|252:120|252:120|264:128|264:128|252:132|260:132,1,100,0|4
256,232,92686,6,0,B|212:268|160:232,2,100,0|8|0
208,144,93353,2,0,B|104:144,1,100
208,144,93797,2,0,B|140:64,1,100,8|0
256,232,94242,1,4
256,232,94464,6,0,B|300:268|352:232,2,100,0|8|0
304,144,95131,2,0,B|408:144,1,100,4|0
304,144,95575,2,0,B|372:64,1,100,8|0
256,72,96019,5,0
304,144,96242,1,0
256,212,96464,1,8
212,144,96686,2,0,B|160:144,2,50
256,212,97131,2,0,B|224:256|256:304,1,100,0|8
340,252,97575,2,0,B|372:203|340:159,2,100,0|4|0
256,304,98242,5,8
172,252,98464,2,0,B|139:203|171:159,1,100
184,140,98797,1,0
200,128,98908,1,0
256,56,99131,1,8
256,56,99353,1,0
312,128,99575,5,4
328,140,99686,1,0
340,159,99797,2,0,B|372:203|340:252,1,100,0|8
256,304,100242,2,0,B|204:292|152:304,1,100
255,304,100686,2,0,B|308:292|360:304,1,100,0|8
256,224,101131,2,0,B|232:176|184:152,1,100,0|4
256,224,101575,6,0,B|280:176|328:152,1,100,0|8
256,80,102019,1,0
156,76,102242,2,0,B|104:76,2,50,4|0|0
256,80,102686,1,8
256,80,102908,1,0
356,76,103131,6,0,B|408:76,2,50
308,164,103575,2,0,B|332:216|308:264|308:264,1,100,8|0
202,261,104019,2,0,B|204:264|180:216|204:164,1,100
364,164,104464,2,0,B|388:216|364:264|364:264,1,100,8|0
146,261,104908,6,0,B|148:264|124:216|148:164,1,100,4|0
176,120,105242,1,0
220,96,105353,1,8
256,128,105464,1,0
292,96,105575,1,0
336,120,105686,1,0
336,120,105797,2,0,B|384:84,2,50
176,120,106242,2,0,B|128:84,2,50,8|0|0
256,180,106686,5,4
176,240,106908,2,0,B|152:288|176:340,1,100,0|2
256,288,107353,1,0
256,288,107575,1,0
337,336,107797,2,0,B|360:288|336:240,1,100,0|2
256,180,108242,1,0
256,180,108464,6,0,B|204:192|204:192|152:176,1,100,4|0
256,180,108908,2,0,B|308:192|308:192|360:176,1,100,2|0
256,180,109353,2,0,B|212:156|212:156|208:100,1,100,0|0
256,180,109797,2,0,B|300:156|300:156|304:100,1,100,2|0
404,108,110242,5,0
388,156,110353,1,0
404,204,110464,1,0
354,297,110686,2,0,B|312:312|256:300,1,100,2|0
157,297,111131,2,0,B|200:312|256:300,1,100
208,212,111575,2,0,B|184:168|208:116,1,100,2|0
304,116,112019,6,0,B|328:168|304:212,1,100,4|0
208,212,112464,2,0,B|152:216|112:192,1,100,2|0
304,212,112908,2,0,B|360:216|400:192,1,100
208,212,113353,2,0,B|216:268|180:304,1,100,2|0
304,212,113797,6,0,B|296:268|332:304,1,100
396,228,114242,6,0,B|436:192|420:136,1,100
304,40,114686,2,0,B|256:8|212:40,1,100
92,136,115131,2,0,B|76:192|116:228,1,100
212,204,115575,5,4
212,104,115797,1,0
300,152,116019,1,0
300,252,116242,1,2
112,316,116686,5,0
76,224,116908,1,0
44,128,117130,1,2
400,316,117575,5,0
436,224,117797,1,0
468,128,118019,1,2
256,340,118464,5,0
256,240,118686,1,0
256,140,118909,1,2
148,308,119353,6,0,B|100:336|100:336|48:336,1,100
52,236,119797,1,2
364,76,120242,6,0,B|412:48|412:48|464:48,1,100
460,148,120686,1,2
456,248,120908,6,0,B|332:248,1,100,4|0
308,336,121353,2,0,B|200:336,1,100,8|0
156,248,121797,2,0,B|56:248,1,100,8|0
104,160,122242,5,8
32,88,122464,1,0
192,156,122686,1,8
144,68,122908,1,0
280,168,123131,1,8
248,72,123353,1,0
360,200,123575,1,8
352,100,123797,1,0
432,160,124019,6,0,B|476:204|428:248,1,100,8|0
348,304,124464,1,8
256,344,124686,1,0
164,304,124908,1,8
82,246,125131,2,0,B|36:204|80:160,1,100,0|8
164,104,125575,1,0
256,64,125797,1,8
348,104,126019,1,0
356,204,126242,6,0,B|420:288,1,100,8|0
256,196,126686,2,0,B|256:300,1,100,8|0
156,204,127131,2,0,B|92:288,1,100,8|0
40,200,127575,5,8
80,108,127797,1,0
156,44,128019,1,8
256,24,128242,1,0
356,44,128464,1,8
432,108,128686,1,0
472,200,128908,1,8
256,192,129131,2,0,B|256:304,2,100,0|8|0
256,192,129797,12,12,134686
256,128,135131,6,0,B|280:76|256:28,1,100,4|0
192,192,135575,2,0,B|140:168|92:192,1,100,8|0
256,256,136019,2,0,B|232:308|256:356,1,100
320,192,136464,2,0,B|372:215|420:192,1,100,8|0
372,104,136908,5,0
304,28,137131,1,0
256,116,137353,1,8
212,28,137575,1,0
140,104,137797,1,0
188,192,138019,5,0
256,328,138242,1,8
324,192,138464,1,0
188,192,138686,5,4
256,56,138908,1,0
324,192,139131,1,8
188,192,139353,6,0,B|80:192,1,100
324,192,139797,2,0,B|432:192,1,100,0|8
188,128,140242,2,0,B|76:128,1,100
324,128,140686,2,0,B|436:128,1,100,0|8
256,40,141131,1,0
256,140,141353,1,0
256,344,141575,5,0
256,244,141797,1,8
256,244,142019,1,0
160,68,142242,6,0,B|92:68|76:136,1,100,4|0
352,316,142686,2,0,B|420:316|436:248,1,100,8|0
160,316,143131,2,0,B|92:316|76:248,1,100
352,68,143575,2,0,B|420:68|436:136,1,100,8|0
436,220,144019,5,0
348,168,144242,1,0
268,228,144464,1,8
184,172,144686,1,0
100,228,144908,1,0
104,128,145131,2,0,B|104:68|164:56,1,100,0|8
408,128,145575,2,0,B|408:68|348:56,1,100,0|4
256,84,146019,6,0,B|256:184,1,100,0|8
256,284,146464,1,0
204,368,146686,1,0
308,368,146908,1,0
256,284,147131,1,8
372,296,147353,2,0,B|444:224,1,100
140,296,147797,2,0,B|68:224,1,100,0|8
372,88,148242,2,0,B|442:158,1,100
140,88,148686,2,0,B|69:158,1,100,0|8
256,56,149131,5,0
256,72,149242,1,0
256,88,149353,2,0,B|256:192,1,100,4|0
88,192,149797,2,0,B|100:244|160:260,1,100,8|0
256,188,150242,1,0
256,336,150464,1,0
256,188,150686,1,8
256,336,150908,1,0
424,192,151131,6,0,B|412:244|352:260,1,100
424,124,151575,2,0,B|412:72|352:56,1,100,8|0
88,192,152019,2,0,B|100:244|155:258,1,100
88,124,152463,2,0,B|100:72|155:57,1,100,8|0
256,168,152908,5,4
256,120,153019,1,0
256,68,153131,1,0
340,120,153353,1,8
172,120,153575,1,0
160,268,153797,1,0
208,268,153908,1,0
256,268,154019,1,0
208,356,154242,1,8
208,184,154464,1,0
308,184,154686,5,0
260,96,154908,2,0,B|312:64|368:104,1,100,0|8
260,96,155353,2,0,B|208:64|152:104,1,100
208,184,155797,2,0,B|164:216|112:180,1,100,0|8
304,184,156242,2,0,B|348:216|400:180,1,100,0|4
256,136,156686,5,0
256,284,156908,1,8
300,256,157019,1,0
340,284,157131,1,0
256,136,157353,1,0
256,136,157575,1,0
256,284,157797,1,8
212,256,157908,1,0
172,284,158020,1,0
80,164,158242,6,0,B|128:144|128:144|184:168,1,100,0|0
432,164,158686,2,0,B|384:144|384:144|328:168,1,100,8|0
128,228,159131,1,0
196,324,159353,1,0
384,228,159575,1,8
312,324,159797,1,0
256,232,160019,5,4
256,180,160131,1,0
256,132,160242,1,0
108,136,160464,2,0,B|128:88|188:80,1,100,8|0
404,136,160908,2,0,B|384:88|324:80,1,100
108,248,161353,2,0,B|128:296|188:304,1,100,8|0
404,248,161797,6,0,B|384:296|324:304,1,100
308,308,162131,1,0
288,308,162242,1,8
256,160,162464,1,0
376,72,162686,1,0
256,160,162908,1,0
136,72,163131,1,8
256,160,163353,1,0
256,308,163575,5,4
188,232,163797,2,0,B|132:232,2,50,0|0|2
256,160,164242,2,0,B|256:108,2,50
320,236,164686,2,0,B|376:236,2,50,0|0|2
256,308,165131,1,0
256,320,165242,1,0
256,332,165353,1,0
156,320,165575,6,0,B|104:320|60:288,2,100,0|2|0
204,232,166242,1,0
256,148,166464,1,0
308,232,166686,1,2
356,320,166908,2,0,B|408:320|452:288,2,100,0|4|0
308,232,167575,6,0,B|364:228|384:176,1,100,2|0
204,232,168019,2,0,B|148:228|128:176,1,100,0|0
256,180,168464,2,0,B|212:152|208:84,1,100,2|0
256,180,168908,6,0,B|300:152|304:84,1,100
256,180,169353,2,0,B|268:224|248:244|260:288,1,100,2|0
164,316,169797,1,0
164,216,170019,1,0
348,316,170242,1,2
348,216,170464,1,0
256,180,170686,5,4
84,76,171131,1,0
256,180,171575,1,4
428,76,172019,1,0
256,180,172464,5,4
84,308,172908,1,0
256,180,173353,1,4
428,308,173797,1,0
460,112,174242,5,4
420,96,174353,1,0
380,112,174464,1,0
340,96,174575,1,0
296,112,174686,2,0,B|296:56,3,50,2|0|0|0
260,92,175131,5,4
220,116,175242,1,0
184,92,175353,1,0
148,116,175464,1,0
112,92,175575,1,2
76,120,175686,2,0,B|76:168,2,50
256,192,176019,12,12,177353
208,48,177797,6,0,B|160:80,2,50
308,48,178242,2,0,B|356:80,2,50,8|0|0
256,132,178686,1,0
256,232,178908,1,0
316,312,179131,2,0,B|376:328|400:272,1,100,8|0
196,312,179575,2,0,B|136:328|112:272,1,100
104,76,180019,1,8
104,76,180242,6,0,B|104:192,1,100
256,172,180686,2,0,B|256:72,1,100,0|8
408,76,181131,2,0,B|408:192,1,100,0|4
372,268,181575,1,0
308,344,181797,1,8
208,344,182019,1,0
140,268,182242,1,0
252,104,182464,5,0
252,252,182686,1,8
120,180,182908,1,0
252,104,183131,1,4
392,180,183353,1,0
252,104,183575,1,8
252,252,183797,1,0
72,336,184242,5,0
28,192,184464,1,8
72,48,184686,1,0
256,36,184908,5,4
440,48,185131,1,0
484,192,185353,1,8
440,336,185575,1,0
256,348,185797,1,0
256,348,186019,1,0
256,188,186241,1,8
256,36,186464,1,0
92,232,186908,6,0,B|40:196|40:196|40:156,1,100,0|8
40,60,187353,1,0
248,80,187575,1,0
420,152,187797,6,0,B|472:188|472:188|472:228,1,100,0|8
472,324,188242,1,0
272,332,188464,6,0,B|240:224,1,100,4|0
240,52,188908,2,0,B|272:160,1,100,8|0
396,176,189353,2,0,B|288:208,1,100
116,208,189797,2,0,B|224:176,1,100,8|0
256,192,190242,12,12,191575
256,352,192019,6,0,B|256:248,2,100,0|0|8
356,336,192686,1,0
388,244,192908,1,0
156,336,193131,1,0
124,244,193353,1,8
204,188,193575,2,0,B|308:188,1,100,0|4
348,44,194019,5,0
196,44,194242,1,8
200,192,194464,1,0
348,192,194686,1,0
276,124,194908,5,0
276,276,195131,1,8
424,276,195353,1,0
420,128,195575,1,4
348,60,195797,6,0,B|312:16|252:32,1,100,0|8
160,32,196242,1,0
164,324,196686,6,0,B|200:368|260:352,1,100,0|8
352,352,197131,1,0
472,192,197575,5,0
256,192,197797,1,8
40,192,198019,1,0
256,32,198464,5,0
256,192,198686,1,8
256,352,198908,1,0
344,304,199131,5,4
428,248,199353,2,0,B|456:192|456:192|456:152,1,100,0|8
408,76,199797,1,0
316,40,200019,1,0
216,36,200242,1,0
132,88,200464,1,8
80,176,200686,1,0
84,276,200908,6,0,B|104:328|176:336,1,100
260,316,201353,2,0,B|240:264|168:256,1,100,8|0
428,108,201797,6,0,B|408:56|336:48,1,100
252,68,202242,2,0,B|272:120|344:128,1,100,8|0
448,284,202908,5,0
256,348,203131,1,8
64,284,203353,1,0
448,100,203797,5,0
256,36,204019,1,8
64,100,204242,1,0
256,192,204464,12,0,206242
