osu file format v14

[General]
AudioFilename: corn.mp3
AudioLeadIn: 0
PreviewTime: 48232
Countdown: 0
SampleSet: Soft
StackLeniency: 0.2
Mode: 0
LetterboxInBreaks: 0
WidescreenStoryboard: 1

[Editor]
DistanceSpacing: 1.2
BeatDivisor: 4
GridSize: 4
TimelineZoom: 1.6

[Metadata]
Title:Ymir
TitleUnicode:ユミル
Artist:MYTHOLOGIA by MLREC.
ArtistUnicode:MYTHOLOGIA by MLREC.
Creator:Kitami Erika
Version:Beginner
Source:beatmania IIDX
Tags:SYMPHONIC TEK iidx19 Lincle S.S.D. SSD NIHILISTICA ERi yumiru
BeatmapID:750104
BeatmapSetID:322481

[Difficulty]
HPDrainRate:2
CircleSize:2.4
OverallDifficulty:1
ApproachRate:2
SliderMultiplier:0.8
SliderTickRate:1

[Events]
//Background and Video events
0,0,"corn.jpg",0,0
//Break Periods
2,95687,104111
//Storyboard Layer 0 (Background)
//Storyboard Layer 1 (Fail)
//Storyboard Layer 2 (Pass)
//Storyboard Layer 3 (Foreground)
//Storyboard Sound Samples

[TimingPoints]
1829,365.853658536585,4,2,0,60,1,0
1829,-200,4,2,0,60,0,0
13536,-100,4,2,0,60,0,0
48658,-100,4,2,0,65,0,1
58902,-200,4,2,0,65,0,0
60365,-100,4,2,0,60,0,0
107194,-90.9090909090909,4,2,0,68,0,1
117438,-200,4,2,0,68,0,0

[Colours]
Combo1 : 255,201,174
Combo2 : 129,254,217
Combo3 : 255,206,255
Combo4 : 191,198,255

[HitObjects]
56,280,1829,6,0,P|96:296|184:232,1,160,0|2,0:0|0:0,0:0:0:0:
456,280,4755,6,0,P|416:296|328:232,1,160,0|2,0:0|0:0,0:0:0:0:
56,104,7682,6,0,P|96:88|184:152,1,160,0|2,0:0|0:0,0:0:0:0:
456,104,10608,6,0,P|416:88|328:152,1,160,0|2,0:0|0:0,0:0:0:0:
312,312,13536,6,0,L|472:320,2,160,4|2|4,0:0|0:0|0:0,0:0:0:0:
32,236,16097,1,0,0:0:0:0:
112,288,16463,2,0,P|140:212|112:124,1,160,4|2,0:0|0:0,0:0:0:0:
40,88,17560,1,0,0:0:0:0:
124,44,17926,1,4,0:0:0:0:
256,300,19024,5,0,0:0:0:0:
348,280,19389,2,0,P|256:172|164:280,1,320,4|0,0:0|0:0,0:0:0:0:
256,60,21950,5,0,0:0:0:0:
348,88,22316,2,0,P|376:180|352:244,1,160,4|2,0:0|0:0,0:0:0:0:
155,237,23780,2,0,P|135:161|164:88,1,160,4|2,0:0|0:0,0:0:0:0:
256,256,25243,6,0,P|328:320|392:308,1,160,4|2,0:0|0:0,0:0:0:0:
348,224,26341,1,0,0:0:0:0:
444,236,26707,2,0,L|460:68,1,160,0|2,0:0|0:0,0:0:0:0:
328,216,28170,6,0,P|240:268|184:252,1,160,4|2,0:0|0:0,0:0:0:0:
116,192,29268,1,0,0:0:0:0:
136,100,29633,2,0,P|197:51|274:60,1,160,0|2,0:0|0:0,0:0:0:0:
256,256,31097,6,0,P|184:320|120:308,1,160,4|2,0:0|0:0,0:0:0:0:
164,224,32195,1,0,0:0:0:0:
68,236,32561,2,0,L|52:68,1,160,0|2,0:0|0:0,0:0:0:0:
184,216,34024,6,0,P|272:268|328:252,1,160,4|2,0:0|0:0,0:0:0:0:
396,192,35122,1,0,0:0:0:0:
376,100,35487,2,0,P|314:51|237:60,1,160,0|2,0:0|0:0,0:0:0:0:
96,192,36950,6,0,P|104:248|184:304,1,160,4|2,0:0|0:0,0:0:0:0:
256,240,38048,1,0,0:0:0:0:
276,332,38414,2,0,L|436:332,1,160,0|2,0:0|0:0,0:0:0:0:
256,240,39877,6,0,L|80:240,1,160,4|2,0:0|0:0,0:0:0:0:
12,192,40975,1,0,0:0:0:0:
96,148,41341,2,0,L|272:148,1,160,0|2,0:0|0:0,0:0:0:0:
416,192,42804,6,0,P|408:248|328:304,1,160,4|2,0:0|0:0,0:0:0:0:
256,240,43902,1,0,0:0:0:0:
236,332,44268,2,0,L|76:332,1,160,0|2,0:0|0:0,0:0:0:0:
256,240,45731,6,0,L|432:240,1,160,4|2,0:0|0:0,0:0:0:0:
500,192,46829,1,0,0:0:0:0:
416,148,47195,2,0,L|240:148,1,160,0|2,0:0|0:0,0:0:0:0:
84,60,48658,6,0,B|164:60|164:60|208:60|208:136|164:136|164:136|60:136|60:136|48:136|48:152,1,320,4|4,0:0|0:0,0:0:0:0:
428,60,51585,6,0,B|348:60|348:60|304:60|304:136|348:136|348:136|452:136|452:136|464:136|464:152,1,320,4|4,0:0|0:0,0:0:0:0:
164,352,54511,6,0,B|136:324|96:324|96:324|88:288|88:260|104:236|128:220|156:212|156:212|214:252|256:236,1,320,4|4,0:0|0:0,0:0:0:0:
348,32,57438,6,0,B|376:60|416:60|416:60|424:96|424:124|408:148|384:164|356:172|356:172|298:132|256:148,1,320,4|4,0:0|0:0,0:0:0:0:
152,148,60365,6,0,P|104:136|28:144,2,120,4|0|2,0:0|0:0|0:0,0:0:0:0:
208,228,61828,2,0,L|156:336,2,120,2|0|2,0:0|0:0|0:0,0:0:0:0:
304,228,63292,2,0,L|356:336,2,120,2|0|2,0:0|0:0|0:0,0:0:0:0:
360,147,64755,2,0,P|418:135|477:142,2,120,2|0|2,0:0|0:0|0:0,0:0:0:0:
304,228,66219,6,0,P|320:292|356:336,2,120,6|0|2,0:0|0:0|0:0,0:0:0:0:
256,144,67682,2,0,L|256:16,2,120,2|0|2,0:0|0:0|0:0,0:0:0:0:
208,228,69146,2,0,P|192:292|156:336,2,120,2|0|2,0:0|0:0|0:0,0:0:0:0:
256,144,70609,2,0,L|256:16,2,120,2|2|2,0:0|0:0|0:0,0:0:0:0:
312,224,72072,6,0,L|444:228,2,120,4|0|2,0:0|0:0|0:0,0:0:0:0:
348,136,73536,2,0,L|480:136,2,120,2|0|2,0:0|0:0|0:0,0:0:0:0:
308,48,74999,2,0,L|440:44,2,120,2|0|2,0:0|0:0|0:0,0:0:0:0:
208,48,76463,1,2,0:0:0:0:
376,140,77194,1,0,0:0:0:0:
200,224,77926,6,0,L|68:228,2,120,4|0|2,0:0|0:0|0:0,0:0:0:0:
164,136,79390,2,0,L|32:136,2,120,4|0|2,0:0|0:0|0:0,0:0:0:0:
204,48,80853,2,0,L|72:44,2,120,4|2|2,0:0|0:0|0:0,0:0:0:0:
304,48,82317,1,6,0:0:0:0:
316,320,83780,6,0,P|392:328|464:272,2,160,4|2|0,0:0|0:0|0:0,0:0:0:0:
256,136,85975,1,2,0:0:0:0:
228,228,86341,1,0,0:0:0:0:
196,320,86707,6,0,P|120:328|48:272,2,160,0|2|0,0:0|0:0|0:0,0:0:0:0:
256,136,88902,1,2,0:0:0:0:
284,228,89268,1,0,0:0:0:0:
316,320,89634,6,0,P|392:328|464:272,1,160,4|2,0:0|0:0,0:0:0:0:
397,98,91097,2,0,P|319:90|256:136,1,160,0|2,0:0|0:0,0:0:0:0:
256,192,92560,12,4,95487,0:0:0:0:
176,320,105731,6,0,B|256:336|256:336|336:320,1,160,0|0,1:0|1:0,0:0:0:0:
468,160,107194,6,0,B|400:160|400:160|376:192|376:192|304:192|304:192|248:108|352:120|304:32,1,352.000010742188,4|4,0:0|0:0,0:0:0:0:
44,224,110121,6,0,B|112:224|112:224|136:192|136:192|208:192|208:192|264:276|160:264|208:352,1,352.000010742188,4|4,0:0|0:0,0:0:0:0:
468,224,113048,6,0,B|400:224|400:224|376:192|376:192|304:192|304:192|248:276|352:264|304:352,1,352.000010742188,4|4,0:0|0:0,0:0:0:0:
256,192,115975,5,4,0:0:0:0:
256,192,117438,12,0,118719,0:0:0:0:
