osu file format v14

[General]
AudioFilename: audio.mp3
AudioLeadIn: 0
PreviewTime: 59224
Countdown: 1
SampleSet: Normal
StackLeniency: 0.7
Mode: 0
LetterboxInBreaks: 0
WidescreenStoryboard: 0

[Editor]
Bookmarks: 7284
DistanceSpacing: 0.5
BeatDivisor: 4
GridSize: 4
TimelineZoom: 3.899998

[Metadata]
Title:Paradisus-Paradoxum
TitleUnicode:Paradisus-Paradoxum
Artist:MYTH & ROID
ArtistUnicode:MYTH & ROID
Creator:H i k a r i
Version:
Source:Re:ゼロから始める異世界生活
Tags:MYTH ROID Paradisus Paradoxum re:zero h_i_k_a_r_i lol idk why i made this map lul
BeatmapID:1053633
BeatmapSetID:494861

[Difficulty]
HPDrainRate:6
CircleSize:4.3
OverallDifficulty:7
ApproachRate:9.5
SliderMultiplier:1.6
SliderTickRate:1

[Events]
//Background and Video events
0,0,"1920.jpg",0,0
Video,0,"VideoOP.flv"
//Break Periods
//Storyboard Layer 0 (Background)
//Storyboard Layer 1 (Fail)
//Storyboard Layer 2 (Pass)
//Storyboard Layer 3 (Foreground)
//Storyboard Sound Samples

[TimingPoints]
120,298.507462686567,4,1,0,60,1,0
9075,-200,4,2,0,40,0,0
9672,-100,4,1,0,70,0,0
16836,-100,4,1,0,60,0,0
18328,-100,4,1,0,70,0,0
28776,-133.333333333333,4,1,0,50,0,0
29075,-133.333333333333,4,2,0,50,0,0
38030,-200,4,2,0,50,0,0
38328,-100,4,2,0,50,0,0
46687,-66.6666666666667,4,2,0,80,0,0
46886,-200,4,2,0,80,0,0
47088,-100,4,2,0,80,0,0
47582,-100,4,2,0,60,0,0
59224,-200,4,2,0,60,0,0
59821,-100,4,1,0,80,0,1
76537,-100,4,1,0,60,0,1
78030,-100,4,1,0,80,0,1
87881,-50,4,1,0,80,0,1
88328,-200,4,1,0,50,0,0

[HitObjects]
64,104,7284,5,0,0:0:0:0:
60,200,7433,2,0,P|72:240|80:304,1,80,0|0,0:0|2:0,0:0:0:0:
140,56,7731,1,0,0:0:0:0:
144,152,7881,1,0,0:0:0:0:
164,380,8030,2,0,B|160:340|160:340|168:316|168:316|160:252,1,120,0|0,0:0|2:0,0:0:0:0:
260,180,8328,6,0,B|288:192|304:216|304:216|272:308,1,120,0|0,0:0|2:0,0:0:0:0:
280,284,8627,1,0,0:0:0:0:
328,128,8776,1,0,0:0:0:0:
248,96,8925,1,0,0:0:0:0:
336,352,9075,6,0,L|420:344,1,80,0|2,0:0|0:0,0:0:0:0:
432,352,9672,6,0,P|448:300|424:192,1,160,4|8,0:0|0:0,0:0:0:0:
328,128,10119,1,2,3:2:0:0:
196,236,10269,2,0,L|284:244,1,80,0|2,3:0|0:2,0:0:0:0:
352,252,10567,1,8,0:0:0:0:
128,288,10717,2,0,B|112:224|112:224|128:176|128:176|116:116,1,160,0|2,3:0|0:2,0:0:0:0:
72,352,11164,2,0,P|128:372|168:360,1,80,8|0,0:0|0:0,0:0:0:0:
204,312,11388,1,0,1:0:0:0:
200,300,11463,1,0,0:0:0:0:
36,40,11612,2,0,L|28:140,1,80,2|8,0:2|0:0,0:0:0:0:
24,212,11911,1,0,0:0:0:0:
273,117,12060,6,0,B|233:101|193:125|193:125|153:149|97:125,1,160,0|8,0:0|0:0,0:0:0:0:
152,52,12508,1,2,3:2:0:0:
312,216,12657,2,0,L|408:212,1,80,0|2,0:0|3:2,0:0:0:0:
252,324,12955,2,0,L|156:320,1,80,8|0,0:0|0:0,0:0:0:0:
84,344,13179,5,0,0:0:0:0:
80,324,13254,1,4,3:0:0:0:
76,304,13328,1,4,3:0:0:0:
84,216,13403,1,4,3:0:0:0:
103,222,13478,1,4,3:0:0:0:
122,229,13552,1,4,3:0:0:0:
203,294,13627,1,4,3:0:0:0:
188,307,13702,1,4,3:0:0:0:
172,320,13776,1,4,3:0:0:0:
100,192,13851,5,0,0:0:0:0:
140,184,13925,1,0,0:0:0:0:
180,192,14000,1,0,0:0:0:0:
212,216,14075,1,0,0:0:0:0:
232,252,14149,1,0,0:0:0:0:
231,259,14224,1,0,0:0:0:0:
230,266,14299,1,0,0:0:0:0:
229,273,14373,1,0,0:0:0:0:
236,377,14448,6,0,B|224:277|224:277|240:233,1,120,4|0,0:2|2:0,0:0:0:0:
280,164,14746,1,2,2:0:0:0:
352,240,14896,1,0,3:0:0:0:
100,192,15045,1,0,0:0:0:0:
100,192,15642,6,0,B|84:108|84:108|64:156,1,120,4|0,0:2|2:0,0:0:0:0:
56,264,15940,2,0,P|100:280|136:272,1,80,0|0,2:0|2:0,2:0:0:0:
184,80,16239,5,0,0:0:0:0:
336,296,16836,2,2,B|344:260|344:224|316:216|284:188|284:188|256:156|216:128|292:16|364:88|364:88|424:24|488:72|504:148|436:184,1,560,0|2,0:0|0:0,0:0:0:0:
160,156,18328,6,0,P|160:88|176:52,2,80,2|0|0,0:0|0:0|0:0,0:0:0:0:
196,344,18776,2,0,P|137:378|97:382,2,80,2|0|0,0:0|0:0|0:0,0:0:0:0:
180,248,19224,6,0,P|256:272|344:248,1,160,4|8,0:2|3:2,0:0:0:0:
296,348,19672,1,0,0:0:0:0:
256,192,19821,1,0,2:0:0:0:
484,284,19970,2,0,P|428:288|388:304,1,80,0|8,0:0|0:2,0:0:0:0:
380,380,20269,1,0,0:0:0:0:
448,172,20418,2,0,L|456:80,2,80,2|0|8,0:0|2:0|3:2,0:0:0:0:
340,48,20866,1,0,0:0:0:0:
344,64,20940,1,0,0:0:0:0:
348,80,21015,1,0,0:0:0:0:
256,192,21164,2,0,L|164:188,1,80,2|8,0:2|0:2,0:0:0:0:
115,122,21463,1,0,0:0:0:0:
84,197,21612,6,2,B|68:144|88:85|88:85|120:129,1,160,2|8,1:2|0:2,0:0:0:0:
136,268,22060,1,0,0:0:0:0:
72,372,22209,2,0,L|64:320,1,40,0|0,0:0|2:0,0:0:0:0:
28,256,22358,1,0,0:0:0:0:
160,348,22508,2,0,L|252:352,1,80,8|0,0:2|0:0,0:0:0:0:
344,304,22731,1,0,0:0:0:0:
340,312,22806,1,2,0:0:0:0:
336,176,22955,2,0,L|340:112,2,40,0|0|8,0:0|0:0|0:2,0:0:0:0:
240,240,23254,1,0,3:0:0:0:
396,240,23403,5,0,0:0:0:0:
408,244,23478,1,0,0:0:0:0:
420,248,23552,1,0,0:0:0:0:
252,320,23702,1,8,3:2:0:0:
245,280,23776,1,0,1:0:0:0:
239,240,23851,1,4,0:2:0:0:
233,201,23925,1,0,3:0:0:0:
216,120,24000,6,0,P|300:152|320:192,1,120,4|0,0:2|2:0,0:0:0:0:
320,192,24299,1,8,0:2:0:0:
152,200,24448,2,0,L|92:208,1,40,0|0,0:0|2:0,0:0:0:0:
4,220,24597,1,0,0:0:0:0:
12,184,24672,1,0,2:0:0:0:
20,152,24746,1,0,0:0:0:0:
112,8,24896,2,0,B|120:112|120:112|92:88,1,120,8|0,0:2|2:0,0:0:0:0:
0,60,25194,2,0,L|48:52,1,40,0|0,0:0|2:0,0:0:0:0:
196,40,25343,1,2,0:2:0:0:
212,36,25418,1,0,2:0:0:0:
228,32,25493,1,8,2:0:0:0:
352,160,25642,5,0,0:0:0:0:
320,156,25717,1,0,0:0:0:0:
288,152,25791,1,0,2:0:0:0:
192,144,25940,1,2,0:2:0:0:
328,56,26090,1,12,0:2:0:0:
283,221,26239,2,0,B|270:130|270:130|299:165,1,120,4|0,2:2|2:0,0:0:0:0:
416,256,26537,6,0,L|360:248,1,40,0|0,0:0|2:0,0:0:0:0:
196,300,26687,2,0,P|268:300|312:348,1,120,12|0,0:2|2:0,0:0:0:0:
100,340,26985,2,0,L|104:244,1,80,2|0,0:2|0:0,0:0:0:0:
64,144,27209,1,0,0:0:0:0:
68,160,27284,1,12,0:2:0:0:
48,64,27433,1,0,0:0:0:0:
192,208,27582,5,4,3:0:0:0:
181,196,27657,1,0,3:0:0:0:
182,180,27731,1,4,3:0:0:0:
194,169,27806,1,0,3:0:0:0:
210,170,27881,1,4,3:0:0:0:
220,182,27955,1,0,3:0:0:0:
219,198,28030,1,4,3:0:0:0:
207,208,28105,1,0,3:0:0:0:
204,62,28179,5,0,0:0:0:0:
218,79,28253,1,0,0:0:0:0:
228,100,28328,1,0,0:0:0:0:
233,122,28402,1,0,0:0:0:0:
233,145,28477,1,0,0:0:0:0:
229,167,28552,1,0,0:0:0:0:
220,188,28626,1,0,0:0:0:0:
206,207,28701,1,0,0:0:0:0:
144,136,28776,5,4,0:0:0:0:
64,280,29075,2,0,L|76:352,1,60.0000022888184,2|0,0:0|0:0,0:0:0:0:
156,344,29373,1,0,0:0:0:0:
100,204,29522,2,0,B|4:196|4:196|32:224,1,120.000004577637,2|0,0:0|0:0,0:0:0:0:
307,284,29970,2,0,L|248:288,1,60.0000022888184,2|0,0:0|0:0,0:0:0:0:
376,344,30269,1,0,0:0:0:0:
364,80,30418,2,0,P|368:132|356:164,1,60.0000022888184,2|0,0:0|0:0,0:0:0:0:
292,188,30717,1,2,0:0:0:0:
400,240,30866,2,0,L|463:243,1,60.0000022888184,2|0,0:0|0:0,0:0:0:0:
260,108,31164,6,0,P|211:74|152:75,1,120.000004577637,2|0,1:2|0:0,0:0:0:0:
188,156,31612,1,0,0:0:0:0:
60,92,31761,2,0,L|64:32,1,60.0000022888184,2|0,0:0|0:0,0:0:0:0:
136,252,32060,1,0,0:0:0:0:
136,252,32209,2,0,B|160:296|140:344|140:344|108:372,1,120.000004577637,2|0,0:0|0:0,0:0:0:0:
4,288,32657,2,0,L|68:296,1,60.0000022888184,2|0,0:0|0:0,0:0:0:0:
276,220,32955,1,0,0:0:0:0:
240,360,33105,2,0,P|232:328|232:288,1,60.0000022888184,2|0,0:0|0:0,0:0:0:0:
320,300,33403,1,0,0:0:0:0:
364,104,33552,6,2,P|376:168|356:240,1,120.000004577637,2|2,1:0|0:0,0:1:0:0:
280,112,34000,1,0,0:0:0:0:
420,288,34149,2,0,L|492:296,1,60.0000022888184
216,184,34448,2,2,L|76:192,1,120.000004577637,2|0,0:1|0:0,0:0:0:0:
28,140,34896,1,0,0:0:0:0:
20,276,35045,2,0,B|12:240|12:240|20:204,1,60.0000022888184,2|0,0:0|0:0,0:0:0:0:
116,16,35343,2,2,L|108:84,1,60.0000022888184,2|0,0:0|0:0,0:0:0:0:
176,268,35642,1,0,0:0:0:0:
216,184,35791,1,0,0:0:0:0:
196,92,35940,6,2,B|284:116|276:52|376:80,1,180.000006866455,2|0,0:0|0:0,0:1:0:0:
380,176,36537,2,2,P|420:188|360:196,1,180.000006866455,2|0,0:1|0:0,0:0:0:0:
256,308,37134,6,2,L|240:304,8,15.0000005722046,2|0|0|0|0|0|0|0|0,0:0|0:0|0:0|0:0|0:0|0:0|0:0|0:0|0:0,0:0:0:0:
152,160,37508,1,0,0:0:0:0:
152,160,37582,6,2,L|176:156,8,15.0000005722046,2|0|0|0|0|0|0|0|0,0:0|0:0|0:0|0:0|0:0|0:0|0:0|0:0|0:0,1:0:0:0:
260,32,38030,6,0,L|256:104,1,60
248,108,38328,6,0,P|300:124|376:84,1,120,0|0,1:0|2:0,1:0:0:0:
388,32,38627,1,8,3:2:0:0:
292,276,38776,1,2,0:0:0:0:
291,267,38851,1,2,0:0:0:0:
290,259,38925,1,2,0:0:0:0:
400,168,39075,1,0,1:0:0:0:
328,340,39224,2,0,L|224:332,1,80,8|0,0:0|0:0,0:0:0:0:
72,272,39522,6,0,B|172:252|172:252|140:292,1,120,0|0,1:0|0:0,0:0:0:0:
152,272,39821,1,8,0:0:0:0:
240,204,39970,1,2,0:0:0:0:
248,216,40045,1,2,0:0:0:0:
252,228,40119,1,2,0:0:0:0:
144,144,40269,2,0,L|152:56,1,80,0|8,1:0|0:0,0:0:0:0:
72,32,40567,1,0,0:0:0:0:
0,220,40717,6,0,B|40:216|40:216|72:224|72:224|132:216,1,120,0|0,1:0|0:0,0:0:0:0:
240,204,41015,2,0,L|244:160,1,40,8|0,0:0|0:0,0:0:0:0:
256,52,41164,1,2,0:0:0:0:
260,64,41239,1,2,0:0:0:0:
264,76,41314,1,2,0:0:0:0:
368,168,41463,2,0,L|412:172,2,40,0|0|8,1:0|0:0|0:0,0:0:0:0:
424,280,41761,1,0,0:0:0:0:
280,304,41911,6,0,P|252:340|240:376,1,80,0|0,1:0|0:0,0:0:0:0:
360,344,42209,1,8,0:0:0:0:
340,256,42358,2,0,P|252:276|164:264,1,160,0|0,0:0|1:0,0:0:0:0:
132,216,42731,5,0,1:0:0:0:
133,202,42805,1,0,1:0:0:0:
135,189,42880,1,0,1:0:0:0:
136,176,42955,2,0,L|128:116,1,40,0|0,1:0|0:0,0:0:0:0:
48,64,43105,6,0,L|224:52,1,160,4|8,0:0|0:0,0:0:0:0:
292,44,43552,1,0,0:0:0:0:
404,228,43702,2,0,P|352:224|312:200,1,80,0|2,0:0|0:0,0:0:0:0:
376,152,44000,1,8,0:0:0:0:
324,312,44149,1,2,0:0:0:0:
328,324,44224,1,2,0:0:0:0:
332,336,44299,1,2,1:2:0:0:
256,256,44448,5,0,0:0:0:0:
184,328,44597,2,0,L|80:324,1,80,8|0,0:0|0:0,0:0:0:0:
64,240,44896,1,0,0:0:0:0:
128,72,45045,2,0,L|136:124,2,40,0|0|8,1:0|1:0|1:2,1:0:0:0:
148,188,45343,1,0,0:0:0:0:
252,32,45493,5,4,3:0:0:0:
248,48,45567,1,0,3:0:0:0:
244,64,45642,1,0,3:0:0:0:
240,80,45717,1,0,3:0:0:0:
328,76,45791,5,4,3:0:0:0:
312,72,45865,1,0,3:0:0:0:
296,68,45940,1,0,3:0:0:0:
280,64,46015,1,0,3:0:0:0:
292,152,46090,5,4,3:0:0:0:
296,136,46164,1,0,3:0:0:0:
300,120,46239,1,0,3:0:0:0:
304,104,46314,1,0,3:0:0:0:
216,108,46388,5,4,3:0:0:0:
232,112,46462,1,0,3:0:0:0:
248,115,46537,1,0,3:0:0:0:
264,120,46612,1,0,3:0:0:0:
32,316,46687,6,0,L|176:308,1,80.0000030517579,0|0,1:0|2:0,1:0:0:0:
284,264,46886,6,0,L|232:260,1,26.6666666666667,0|0,1:0|2:0,1:0:0:0:
72,204,47085,6,0,P|64:172|64:136,1,53.3333333333333,0|0,1:0|0:0,0:0:0:0:
104,28,47582,1,2,0:0:0:0:
276,32,47881,6,0,L|104:40,1,160,4|0,0:0|1:0,0:0:0:0:
356,80,48328,2,0,L|368:40,2,40,0|0|2,0:0|0:0|0:0,0:0:0:0:
264,124,48627,1,0,0:0:0:0:
264,124,48776,2,0,P|252:180|268:224,1,80,0|0,1:0|0:0,0:0:0:0:
328,316,49075,2,0,B|204:292|204:292|232:324,1,160,2|0,0:0|1:0,0:0:0:0:
408,252,49522,1,0,0:0:0:0:
40,350,49672,2,0,L|120:344,1,80,2|0,0:0|0:0,0:0:0:0:
172,144,49970,2,0,L|80:132,1,80,0|0,1:0|0:0,0:0:0:0:
12,157,50269,6,0,L|196:141,1,160,2|0,0:0|1:0,0:0:0:0:
248,88,50717,1,0,0:0:0:0:
216,312,50866,2,0,P|200:268|204:212,1,80,2|0,0:0|0:0,0:0:0:0:
332,64,51164,2,0,P|329:103|315:140,1,80,2|0,1:2|0:0,0:0:0:0:
340,236,51463,5,2,0:0:0:0:
353,237,51537,1,0,0:0:0:0:
365,242,51612,1,0,0:0:0:0:
375,251,51686,1,0,0:0:0:0:
424,308,51761,1,0,1:0:0:0:
410,306,51835,1,0,0:0:0:0:
398,301,51910,1,0,0:0:0:0:
388,292,51984,1,0,0:0:0:0:
280,308,52060,6,8,L|232:312,3,40,8|8|8|8,3:0|3:0|3:0|3:0,3:0:0:0:
128,348,52358,1,4,3:0:0:0:
132,321,52432,1,4,3:0:0:0:
137,295,52507,1,4,3:0:0:0:
142,269,52581,1,4,3:0:0:0:
212,184,52657,6,0,B|168:172|168:172|72:196,1,120,4|0,0:0|0:0,0:0:0:0:
80,200,52955,1,0,1:0:0:0:
244,64,53105,1,2,0:0:0:0:
243,56,53179,1,2,0:0:0:0:
242,47,53254,1,2,0:0:0:0:
376,112,53403,1,0,0:0:0:0:
376,112,53552,2,0,L|368:216,1,80,0|0,1:0|0:0,0:0:0:0:
296,352,53851,6,0,B|280:288|280:288|288:248|288:248|276:176,1,160,2|0,0:0|1:0,0:0:0:0:
128,100,54299,2,0,L|76:92,2,40,2|0|0,0:0|0:0|0:0,0:0:0:0:
232,88,54597,1,0,0:0:0:0:
80,308,54746,2,0,B|72:260|72:260|76:220,1,80,12|0,1:2|0:0,0:0:0:0:
144,20,55045,5,0,1:0:0:0:
336,52,55194,2,0,L|368:56,4,20,0|0|0|0|8,1:0|1:0|1:0|1:0|1:0,1:0:0:0:
224,172,55493,1,0,1:0:0:0:
248,360,55642,1,8,1:0:0:0:
444,96,55791,1,0,1:0:0:0:
173,261,55940,1,8,1:0:0:0:
52,32,56090,1,0,1:0:0:0:
392,260,56239,1,8,1:0:0:0:
252,40,56388,1,0,1:0:0:0:
100,344,56537,5,10,1:0:0:0:
97,317,56611,1,0,3:0:0:0:
95,290,56686,1,0,3:0:0:0:
93,264,56760,1,0,3:0:0:0:
127,200,56836,5,10,1:0:0:0:
125,226,56910,1,0,3:0:0:0:
123,253,56985,1,0,3:0:0:0:
120,280,57060,1,0,3:0:0:0:
64,92,57134,6,0,L|60:32,4,40,10|0|0|0|2,1:0|1:0|1:0|1:0|1:0,1:0:0:0:
404,160,57582,1,0,1:0:0:0:
48,216,57881,5,0,1:0:0:0:
364,88,58030,1,0,1:0:0:0:
364,88,58179,2,0,B|412:64|412:64|428:104|396:148,1,120,0|0,1:0|0:0,1:0:0:0:
224,312,58478,6,0,P|200:248|216:176,1,120,0|0,1:0|0:0,0:0:0:0:
264,128,58776,2,0,L|256:72,1,40,0|0,1:0|0:0,0:0:0:0:
176,0,58925,2,0,L|188:60,1,40,0|0,1:0|0:0,0:0:0:0:
184,116,59075,1,0,1:0:0:0:
24,240,59224,6,0,B|32:224|56:216|56:216|80:220|96:232,1,80,0|2,0:0|0:0,0:0:0:0:
136,288,59821,6,0,L|124:148,1,120,4|0,0:0|2:0,0:0:0:0:
152,52,60119,2,0,P|196:72|212:92,1,40,8|0,0:0|2:0,0:0:0:0:
70,89,60269,1,2,0:2:0:0:
68,80,60343,1,2,0:2:0:0:
66,70,60418,1,2,0:2:0:0:
256,184,60567,1,0,0:0:0:0:
292,76,60717,2,0,L|284:168,1,80,8|0,0:0|0:0,0:0:0:0:
372,264,61015,6,0,B|328:240|280:264|280:264|312:272,1,120,0|0,0:0|2:0,0:0:0:0:
456,316,61314,2,0,L|460:264,1,40,8|0,0:0|2:0,0:0:0:0:
404,156,61463,1,2,0:2:0:0:
405,175,61537,1,2,0:2:0:0:
407,195,61612,1,2,0:2:0:0:
392,24,61761,1,0,0:0:0:0:
292,76,61911,2,0,P|232:92|188:84,1,80,8|0,0:0|0:0,0:0:0:0:
136,28,62209,6,0,B|156:64|156:64|144:168,1,120,2|0,0:0|2:0,0:0:0:0:
144,156,62508,1,8,0:0:0:0:
64,228,62657,2,2,L|172:240,1,80,2|0,0:2|0:0,0:2:0:0:
280,336,62955,2,2,L|200:344,1,80,2|8,0:2|0:0,0:2:0:0:
328,256,63254,2,0,B|320:156|320:156|348:188,1,120,0|0,0:0|2:0,0:0:0:0:
340,180,63552,1,0,0:0:0:0:
488,240,63702,2,0,P|452:252|400:236,1,80,8|0,0:0|0:0,0:0:0:0:
368,80,64000,5,12,3:0:0:0:
339,76,64074,1,12,3:0:0:0:
311,77,64149,1,12,3:0:0:0:
284,88,64223,1,12,3:0:0:0:
260,103,64298,1,10,3:0:0:0:
234,115,64373,1,10,3:0:0:0:
206,119,64447,1,10,3:0:0:0:
178,116,64522,1,10,3:0:0:0:
80,56,64597,6,0,P|64:144|80:192,1,120,4|0,0:2|2:0,0:0:0:0:
156,208,64896,1,8,0:0:0:0:
88,320,65045,2,2,L|84:268,2,40,2|2|2,0:2|0:2|0:2,0:2:0:0:
260,328,65343,1,0,0:0:0:0:
260,328,65493,2,0,P|228:340|168:324,1,80,8|0,0:0|0:0,0:0:0:0:
356,196,65791,2,0,B|456:188|456:188|440:216,1,120,2|0,0:2|0:0,0:0:0:0:
288,240,66090,2,0,B|276:196|276:196|288:124,1,80,8|0,0:0|0:0,0:0:0:0:
360,276,66388,1,2,0:0:0:0:
344,116,66537,1,0,0:0:0:0:
343,107,66612,1,0,0:0:0:0:
342,98,66687,1,8,0:0:0:0:
364,296,66836,1,0,0:0:0:0:
44,64,66985,5,10,0:3:0:0:
208,128,67134,1,0,0:0:0:0:
96,132,67284,5,10,0:3:0:0:
260,68,67433,1,0,0:0:0:0:
210,256,67582,5,10,0:3:0:0:
134,61,67731,1,0,0:0:0:0:
139,195,67881,5,10,0:3:0:0:
216,0,68030,1,0,0:0:0:0:
84,320,68179,5,10,3:0:0:0:
106,316,68253,1,0,3:0:0:0:
129,317,68328,1,0,3:0:0:0:
151,323,68402,1,0,3:0:0:0:
171,334,68477,1,10,3:0:0:0:
192,342,68552,1,0,3:0:0:0:
215,346,68626,1,0,3:0:0:0:
238,344,68701,1,0,3:0:0:0:
336,316,68776,5,8,3:0:0:0:
333,302,68850,1,8,3:0:0:0:
331,289,68925,1,8,3:0:0:0:
329,276,68999,1,8,3:0:0:0:
320,160,69075,2,4,L|328:212,1,40,4|4,3:0|3:0,3:0:0:0:
268,80,69224,2,4,L|309:47,1,40,4|4,3:0|3:0,3:0:0:0:
224,160,69373,6,0,B|176:164|176:164|148:148|148:148|84:152,1,120,4|0,0:2|2:0,0:0:0:0:
32,160,69672,2,0,L|40:216,1,40,8|0,0:0|2:0,0:0:0:0:
80,340,69821,1,2,0:2:0:0:
82,332,69896,1,2,0:2:0:0:
84,324,69970,1,2,0:2:0:0:
116,240,70119,1,0,0:0:0:0:
252,300,70269,2,0,L|144:308,1,80,8|0,0:0|0:0,0:0:0:0:
320,228,70567,6,0,P|348:280|332:368,1,120,2|0,0:2|2:0,0:0:0:0:
224,212,70866,2,0,P|220:168|232:104,1,80,8|0,0:0|0:0,0:0:0:0:
184,8,71164,2,0,P|224:26|273:68,1,80,2|0,0:0|0:0,0:0:0:0:
384,72,71463,2,0,P|347:97|286:119,1,80,8|0,0:0|0:0,0:0:0:0:
224,212,71761,2,0,P|280:188|344:236,1,120,0|0,0:0|2:0,0:0:0:0:
152,112,72060,2,0,L|144:184,1,40,8|0,0:0|2:0,0:0:0:0:
60,188,72209,1,2,0:2:0:0:
56,168,72284,1,2,0:2:0:0:
52,148,72358,1,2,0:2:0:0:
128,248,72508,1,0,0:0:0:0:
128,248,72657,2,0,L|112:344,1,80,8|0,0:0|0:0,0:0:0:0:
204,316,72955,5,8,3:0:0:0:
226,312,73029,1,8,3:0:0:0:
249,309,73104,1,8,3:0:0:0:
271,312,73178,1,8,3:0:0:0:
293,319,73253,1,8,3:0:0:0:
315,316,73328,1,8,3:0:0:0:
337,311,73402,1,8,3:0:0:0:
360,307,73477,1,8,3:0:0:0:
304,232,73552,5,0,0:0:0:0:
304,226,73626,1,0,0:0:0:0:
305,220,73701,1,0,0:0:0:0:
305,214,73775,1,0,0:0:0:0:
306,209,73850,1,0,0:0:0:0:
307,203,73925,1,0,0:0:0:0:
307,197,73999,1,0,0:0:0:0:
308,192,74074,1,0,0:0:0:0:
413,206,74149,6,0,P|357:114|309:194,1,240,4|0,0:2|0:0,0:0:0:0:
492,236,74746,2,0,P|508:156|504:136,1,80,8|0,0:0|2:0,0:0:0:0:
413,206,75343,6,0,P|438:101|347:123,1,240,4|0,0:2|0:0,0:0:0:0:
244,160,75940,2,0,L|256:52,1,80,8|0,0:0|2:0,0:0:0:0:
349,121,76537,6,2,B|351:157|362:192|391:191|430:209|430:209|466:231|512:246|472:375|383:328|383:328|344:406|269:379|231:311|286:257,1,560,4|2,0:2|0:0,0:0:0:0:
137,77,78030,6,0,P|205:40|276:72,1,160,2|0,0:0|0:0,0:0:0:0:
64,184,78478,2,0,B|44:80|44:80|68:108,1,120,2|0,0:0|2:0,0:0:0:0:
156,208,78776,1,0,0:0:0:0:
156,208,78851,1,0,0:0:0:0:
156,208,78925,6,0,L|148:304,1,80,4|0,0:2|0:0,0:0:0:0:
100,352,79224,1,8,3:2:0:0:
256,336,79373,2,0,P|308:344|384:268,1,160,0|0,3:0|0:0,0:0:0:0:
292,160,79821,2,0,P|280:204|288:248,1,80,8|0,3:2|0:0,0:0:0:0:
368,88,80119,2,0,L|364:-4,1,80
384,184,80418,1,8,0:2:0:0:
280,72,80567,2,0,B|220:68|220:68|188:80|188:80|120:72,1,160,0|2,0:0|0:0,0:0:0:0:
28,24,81015,2,0,L|36:120,1,80,12|0,0:2|0:0,0:0:0:0:
24,216,81239,1,0,0:0:0:0:
24,216,81314,6,0,P|88:236|152:196,1,120,4|0,0:2|2:0,0:0:0:0:
180,144,81612,1,8,3:2:0:0:
320,320,81761,2,0,B|264:324|264:324|228:304|228:304|148:312,1,160
296,224,82209,2,0,L|300:136,1,80,8|0,3:2|0:0,0:0:0:0:
348,52,82508,1,2,0:0:0:0:
408,240,82657,2,0,L|460:248,2,40,0|0|8,0:0|0:0|3:2,0:0:0:0:
248,56,82955,1,0,0:0:0:0:
48,172,83105,5,4,3:0:0:0:
61,170,83179,1,4,3:0:0:0:
74,168,83254,1,4,3:0:0:0:
87,166,83328,1,4,3:0:0:0:
112,144,83403,1,0,0:0:0:0:
142,169,83477,1,0,0:0:0:0:
150,207,83552,1,0,0:0:0:0:
134,242,83626,1,0,0:0:0:0:
44,256,83702,5,4,0:2:0:0:
208,324,83851,2,0,L|300:320,1,80,0|8,0:0|0:2,0:0:0:0:
348,248,84149,1,0,0:0:0:0:
452,256,84299,2,0,L|360:252,1,80,0|0,0:0|0:2,0:0:0:0:
268,196,84522,1,0,0:0:0:0:
272,208,84597,1,8,0:2:0:0:
348,128,84746,1,0,0:0:0:0:
192,276,84896,6,0,P|132:272|104:244,1,80
44,120,85194,1,8,0:2:0:0:
40,12,85343,2,0,L|56:108,1,80
184,192,85642,2,0,L|196:96,1,80,0|8,0:0|0:2,0:0:0:0:
136,20,85940,1,0,0:0:0:0:
44,220,86090,5,4,0:2:0:0:
68,328,86239,1,0,0:0:0:0:
228,320,86388,1,10,0:0:0:0:
0,284,86537,1,0,0:0:0:0:
264,184,86687,1,2,0:0:0:0:
152,360,86836,1,0,0:0:0:0:
292,92,86985,1,10,0:0:0:0:
300,268,87134,1,0,0:0:0:0:
32,120,87284,5,8,3:0:0:0:
45,121,87358,1,8,3:0:0:0:
58,123,87433,1,8,3:0:0:0:
71,124,87507,1,8,3:0:0:0:
152,156,87582,5,12,3:0:0:0:
139,157,87656,1,12,3:0:0:0:
126,159,87731,1,12,3:0:0:0:
113,160,87805,1,12,3:0:0:0:
216,280,87881,6,0,B|208:320|208:320|216:376,1,80
308,224,88030,2,0,B|277:197|277:197|224:176,1,80
308,328,88179,2,0,B|346:314|346:314|391:280,1,80
384,152,88328,6,0,L|388:208,1,40,4|0,0:2|2:0,0:0:0:0:
