osu file format v14

[General]
AudioFilename: HYDRA but its over 5 minutes.mp3
AudioLeadIn: 0
PreviewTime: 118738
Countdown: 0
SampleSet: Soft
StackLeniency: 0.7
Mode: 2
LetterboxInBreaks: 0
WidescreenStoryboard: 0

[Editor]
Bookmarks: 21885,36343,47909,59475,71042,97065,108596,120162,131764,137533,143294,154861,166463,177993,189595,201140,215619,227150,238716,244513,250318,261862,273450,284981
DistanceSpacing: 2
BeatDivisor: 4
GridSize: 4
TimelineZoom: 2.5

[Metadata]
Title:HYDRA
TitleUnicode:HYDRA
Artist:MYTH & ROID
ArtistUnicode:MYTH & ROID
Creator:Sinnoh
Version:Overdose
Source:オーバーロードII
Tags:overlord myth&roid anime full ver schoolboy komore
BeatmapID:1546258
BeatmapSetID:732901

[Difficulty]
HPDrainRate:6
CircleSize:4
OverallDifficulty:9.4
ApproachRate:9.4
SliderMultiplier:2.1
SliderTickRate:2

[Events]
//Background and Video events
0,0,"bg 3.jpg",0,0
//Break Periods
//Storyboard Layer 0 (Background)
//Storyboard Layer 1 (Fail)
//Storyboard Layer 2 (Pass)
//Storyboard Layer 3 (Foreground)
//Storyboard Sound Samples

[TimingPoints]
181,361.44578313253,4,2,1,25,1,0
8855,357.142857142857,4,2,1,25,1,0
11765,361.44578313253,4,2,1,30,1,0
11765,-133.333333333333,4,2,1,30,0,0
11945,-133.333333333333,4,2,1,10,0,0
12487,-133.333333333333,4,2,1,35,0,0
12668,-133.333333333333,4,2,1,10,0,0
13210,-100,4,2,1,40,0,0
18993,-100,4,2,1,40,0,0
19016,-100,4,2,1,30,0,0
19174,-100,4,2,1,30,0,0
19197,-100,4,2,1,30,0,0
19355,-100,4,2,1,30,0,0
19377,-100,4,2,1,40,0,0
19536,-100,4,2,1,40,0,0
21865,360.36036036036,4,1,1,70,1,0
21865,-83.3333333333333,4,1,1,70,0,0
23486,-76.9230769230769,4,1,1,70,0,0
24777,361.44578313253,4,2,2,35,1,0
24777,-100,4,2,2,35,0,0
36343,-90.9090909090909,4,2,2,35,0,0
45018,-90.9090909090909,4,2,1,60,0,0
45740,-90.9090909090909,4,2,1,70,0,0
46463,-133.333333333333,4,2,1,30,0,0
46644,-133.333333333333,4,2,1,10,0,0
47186,-133.333333333333,4,2,1,30,0,0
47367,-133.333333333333,4,2,1,10,0,0
47909,-100,4,2,1,30,0,0
56584,357.142857142857,4,2,1,30,1,0
58012,362.537764350453,4,2,1,30,1,0
58012,-133.333333333333,4,2,1,30,0,0
58193,-133.333333333333,4,2,1,10,0,0
58737,-133.333333333333,4,2,1,30,0,0
58918,-133.333333333333,4,2,1,10,0,0
59467,359.281437125748,4,3,1,70,1,0
59467,-76.9230769230769,4,3,1,70,0,0
65215,365.853658536586,4,2,1,70,1,0
65215,-76.9230769230769,4,2,1,70,0,0
66851,-71.4285714285714,4,2,1,70,0,0
67396,-76.9230769230769,4,2,1,70,0,0
68141,357.142857142857,4,2,1,60,1,0
68141,-76.9230769230769,4,2,1,60,0,0
68855,352.941176470588,4,2,1,60,1,0
68855,-76.9230769230769,4,2,1,60,0,0
69560,365.853658536585,4,2,3,70,1,0
69560,-76.9230769230769,4,2,3,70,0,0
69926,-76.9230769230769,4,2,3,30,0,0
70108,-76.9230769230769,4,2,3,50,0,0
70291,-76.9230769230769,4,2,3,70,0,0
71027,361.44578313253,4,2,2,70,1,1
71027,-76.9230769230769,4,2,2,70,0,1
71207,-76.9230769230769,4,2,1,70,0,1
76448,-76.9230769230769,4,2,1,60,0,1
76809,-76.9230769230769,4,2,1,70,0,1
78255,-76.9230769230769,4,2,1,50,0,1
78978,-76.9230769230769,4,2,1,60,0,1
79701,-71.4285714285714,4,2,1,70,0,1
80785,-76.9230769230769,4,2,1,70,0,1
81859,350.877192982456,4,2,1,70,1,1
81859,-76.9230769230769,4,2,1,70,0,1
82209,379.746835443038,4,2,1,70,1,1
82209,-76.9230769230769,4,2,1,70,0,0
82589,361.44578313253,4,2,1,70,1,1
82589,-76.9230769230769,4,2,1,70,0,1
89998,-76.9230769230769,4,2,3,70,0,1
90540,-76.9230769230769,4,2,1,70,0,1
90902,-76.9230769230769,4,2,3,70,0,1
91263,-76.9230769230769,4,2,1,70,0,1
91986,-76.9230769230769,4,2,1,50,0,1
92709,-133.333333333333,4,2,1,40,0,0
92890,-133.333333333333,4,2,1,10,0,0
93432,-133.333333333333,4,2,1,40,0,0
93613,-133.333333333333,4,2,1,10,0,0
94155,-76.9230769230769,4,2,1,70,0,1
95781,-66.6666666666667,4,2,1,70,0,1
96323,-66.6666666666667,4,2,1,60,0,1
96866,-76.9230769230769,4,2,1,70,0,0
97052,361.44578313253,4,2,1,70,1,0
97413,-100,4,2,2,35,0,0
103399,-100,4,2,2,10,0,0
103558,-100,4,2,2,35,0,0
108256,-100,4,2,2,15,0,0
108618,-100,4,2,2,45,0,0
110064,-100,4,2,2,25,0,0
110244,-100,4,2,2,45,0,0
110786,-100,4,2,2,25,0,0
110967,-100,4,2,2,45,0,0
111509,-100,4,2,2,25,0,0
111690,-100,4,2,2,45,0,0
112232,-100,4,2,2,25,0,0
112413,-100,4,2,2,45,0,0
112955,-100,4,2,2,25,0,0
113136,-100,4,2,2,45,0,0
113678,-100,4,2,2,25,0,0
113859,-100,4,2,2,45,0,0
114401,-100,4,2,2,25,0,0
114582,-100,4,2,2,45,0,0
115124,-100,4,2,2,25,0,0
115305,-100,4,2,2,45,0,0
115847,-100,4,2,2,25,0,0
116027,-100,4,2,2,45,0,0
116570,-100,4,2,2,25,0,0
116750,-100,4,2,2,45,0,0
117292,-100,4,2,3,55,0,0
117383,-100,4,2,2,55,0,0
117473,-100,4,2,2,25,0,0
117654,-100,4,2,2,30,0,0
117835,-100,4,2,2,35,0,0
118015,-100,4,2,2,40,0,0
118196,-100,4,2,2,45,0,0
118377,-100,4,2,2,50,0,0
118558,-100,4,2,2,55,0,0
118738,-133.333333333333,4,2,2,40,0,0
118919,-100,4,2,2,10,0,0
119461,-133.333333333333,4,2,2,40,0,0
119642,-133.333333333333,4,2,2,10,0,0
120184,-100,4,2,1,60,0,0
121630,-66.6666666666667,4,2,1,60,0,0
131208,-66.6666666666667,4,2,3,60,0,0
131750,-76.9230769230769,4,2,1,70,0,0
138617,-71.4285714285714,4,3,1,70,0,0
139160,-76.9230769230769,4,3,1,70,0,0
140786,-76.9230769230769,4,3,1,60,0,0
141871,368.098159509202,4,2,1,50,1,0
141871,-76.9230769230769,4,2,1,50,0,0
142052,-76.9230769230769,4,2,1,70,0,0
142413,-76.9230769230769,4,2,1,90,0,0
142607,359.281437125748,4,2,1,70,1,0
142774,-76.9230769230769,4,2,3,70,0,0
142966,350.877192982456,4,2,3,70,1,0
143317,361.44578313253,4,2,2,70,1,1
143317,-71.4285714285714,4,2,2,70,0,1
143497,-71.4285714285714,4,2,1,70,0,1
143859,-76.9230769230769,4,2,1,70,0,1
146208,-71.4285714285714,4,2,1,70,0,1
147654,357.142857142857,4,2,1,70,1,1
147654,-76.9230769230769,4,2,1,70,0,1
149082,365.853658536585,4,2,1,70,1,1
149082,-76.9230769230769,4,2,1,70,0,1
150546,357.142857142857,4,2,1,70,1,1
151260,-100,4,2,1,70,0,1
151974,361.44578313253,4,2,1,70,1,1
153419,363.636363636363,4,2,1,70,1,1
154146,-100,4,2,1,70,0,1
154509,-100,4,2,1,70,0,0
154875,361.44578313253,4,2,1,70,1,1
154875,-76.9230769230769,4,2,1,70,0,1
157766,363.636363636363,4,2,1,70,1,1
157947,-76.9230769230769,4,2,1,70,0,1
163584,355.029585798816,4,2,1,70,1,1
163584,-100,4,2,1,70,0,1
164294,342.857142857143,4,2,1,60,1,1
164294,-76.9230769230769,4,2,1,60,0,1
164979,377.358490566037,4,2,1,40,1,0
164979,-76.9230769230769,4,2,1,40,0,0
165733,361.44578313253,4,2,1,40,1,0
165733,-76.9230769230769,4,2,1,40,0,0
165989,-76.9230769230769,4,2,1,20,0,0
166079,-76.9230769230769,4,2,3,70,0,0
166260,-76.9230769230769,4,2,1,70,0,0
166459,361.44578313253,4,2,1,70,1,0
166459,-76.9230769230769,4,2,1,70,0,0
179471,359.281437125748,4,2,1,70,1,0
179650,-76.9230769230769,4,2,1,70,0,0
180908,365.853658536585,4,2,1,70,1,0
180908,-76.9230769230769,4,2,1,70,0,0
182371,357.142857142857,4,2,1,70,1,0
182371,-76.9230769230769,4,2,1,70,0,0
185406,365.853658536585,4,2,1,70,1,0
185406,-76.9230769230769,4,2,1,70,0,0
187418,355.029585798817,4,2,1,70,1,0
187418,-76.9230769230769,4,2,1,70,0,0
188128,362.537764350453,4,2,1,40,1,0
188128,-100,4,2,1,40,0,0
189581,362.537764350453,4,2,1,40,1,0
189581,-125,4,2,1,40,0,0
189754,-125,4,2,1,10,0,0
191019,-125,4,2,1,20,0,0
191200,-125,4,2,1,10,0,0
191742,-125,4,2,1,20,0,0
191923,-125,4,2,1,10,0,0
192465,-100,4,2,1,20,0,0
192646,-125,4,2,1,10,0,0
193911,-125,4,2,1,20,0,0
194091,-125,4,2,1,10,0,0
194634,-125,4,2,1,20,0,0
194814,-125,4,2,1,10,0,0
195356,-125,4,2,1,20,0,0
195537,-125,4,2,1,10,0,0
196079,-125,4,2,1,20,0,0
196260,-125,4,2,1,10,0,0
196802,-125,4,2,1,20,0,0
196983,-125,4,2,1,10,0,0
197525,-125,4,2,1,20,0,0
197706,-125,4,2,1,10,0,0
198248,-125,4,2,1,20,0,0
198429,-125,4,2,1,10,0,0
199694,-125,4,2,1,20,0,0
199875,-125,4,2,1,10,0,0
200457,348.837209302325,4,2,1,20,1,0
200457,-125,4,2,1,20,0,0
200597,-125,4,2,1,10,0,0
201140,-100,4,2,1,30,0,0
201154,361.44578313253,4,2,1,30,1,0
215597,361.44578313253,4,2,1,50,1,0
215597,-100,4,2,1,50,0,0
217057,363.636363636364,4,2,1,50,1,0
218510,361.44578313253,4,2,1,50,1,0
219935,-100,4,2,1,60,0,0
221200,-100,4,2,3,60,0,0
221394,361.44578313253,4,2,1,50,1,0
221394,-100,4,2,1,60,0,0
222839,357.142857142857,4,2,1,50,1,0
224267,361.44578313253,4,2,1,50,1,0
224267,-76.9230769230769,4,2,1,70,0,0
224989,370.37037037037,4,2,1,25,1,0
224989,-76.9230769230769,4,2,1,50,0,0
225731,361.44578313253,4,2,1,50,1,0
225731,-76.9230769230769,4,2,1,40,0,0
226441,-76.9230769230769,4,2,1,50,0,0
226802,-76.9230769230769,4,2,1,60,0,0
227176,-66.6666666666667,4,2,2,80,0,1
227435,-66.6666666666667,4,2,1,80,0,1
235838,-66.6666666666667,4,2,1,80,0,1
236742,-66.6666666666667,4,2,3,80,0,1
237284,-66.6666666666667,4,2,1,80,0,1
238021,-66.6666666666667,4,2,1,80,0,1
238744,-66.6666666666667,4,2,1,80,0,1
244513,-66.6666666666667,4,2,1,80,0,1
250218,-66.6666666666667,4,2,1,80,0,0
250309,-66.6666666666667,4,2,1,80,0,1
260409,361.44578313253,4,2,1,80,1,1
260409,-66.6666666666667,4,2,1,80,0,1
261875,361.44578313253,4,2,1,80,1,1
261875,-71.4285714285715,4,2,1,70,0,0
266214,352.941176470588,4,2,1,70,1,0
266214,-71.4285714285714,4,2,1,70,0,0
267271,375,4,2,1,70,1,0
267645,361.44578313253,4,2,1,80,1,0
267645,-58.8235294117647,4,2,1,80,0,1
270536,-55.5555555555556,4,1,1,90,0,1
270559,-55.5555555555556,4,1,1,5,0,1
270898,-55.5555555555556,4,1,1,90,0,1
270920,-55.5555555555556,4,1,1,5,0,1
271259,-55.5555555555556,4,1,1,90,0,1
271282,-55.5555555555556,4,1,1,5,0,1
271620,-55.5555555555556,4,1,1,90,0,1
271643,-55.5555555555556,4,1,1,5,0,1
271982,-55.5555555555556,4,1,1,100,0,1
272004,-55.5555555555556,4,1,1,5,0,1
272343,-55.5555555555556,4,1,1,100,0,1
272366,-55.5555555555556,4,1,1,5,0,1
272705,-55.5555555555556,4,1,1,100,0,1
273337,-100,4,1,1,100,0,0
273428,362.537764350453,4,2,2,20,1,0
273428,-100,4,2,2,20,0,0
273608,-100,4,2,2,30,0,0
285029,-100,4,2,1,30,0,0
285035,710.059171597633,4,2,1,20,1,0
285035,-50,4,2,1,20,0,0
286457,722.89156626506,4,2,1,20,1,0
286457,-55.5555555555556,4,2,1,20,0,0
286620,-55.5555555555556,4,2,4,10,0,0
287902,-55.5555555555556,4,2,1,20,0,0
290794,764.331210191083,4,2,1,20,1,0
290794,-50,4,2,1,20,0,0
291558,810.810810810811,4,2,1,20,1,0
291963,-50,4,2,2,20,0,0
292368,909.090909090909,4,2,1,20,1,0
292368,-50,4,2,1,20,0,0
293958,-50,4,2,4,5,0,0
294186,1071.42857142857,4,2,1,20,1,0
294186,-50,4,2,1,20,0,0
294721,1034.48275862069,4,2,1,16,1,0
295238,1200,4,2,1,12,1,11764
297638,-100,4,2,1,10,0,0
299438,-100,4,2,4,5,0,0

[Colours]
Combo1 : 184,184,184
Combo2 : 204,158,154
Combo3 : 96,96,96
Combo4 : 232,213,78

[HitObjects]
347,297,181,5,2,0:0:0:0:
427,238,361,1,0,0:0:0:0:
419,137,542,1,0,0:0:0:0:
330,92,723,1,0,0:0:0:0:
200,148,903,2,0,L|312:120,1,105,0|0,0:0|0:0,0:0:0:0:
403,148,1265,2,0,L|291:120,1,105,0|0,0:0|0:0,0:0:0:0:
140,296,1626,5,2,0:0:0:0:
60,237,1807,1,0,0:0:0:0:
68,136,1988,1,0,0:0:0:0:
157,91,2168,1,0,0:0:0:0:
287,147,2349,2,0,L|296:4,1,105,0|0,0:0|0:0,0:0:0:0:
160,280,2711,2,0,L|151:137,1,105,0|0,0:0|0:0,0:0:0:0:
304,264,3072,5,2,0:0:0:0:
215,219,3253,1,0,0:0:0:0:
207,118,3434,1,0,0:0:0:0:
287,59,3614,1,0,0:0:0:0:
424,136,3795,2,0,L|284:132,3,105,0|0|0|0,0:0|0:0|0:0|0:0,0:0:0:0:
180,296,4518,5,2,0:0:0:0:
100,237,4699,1,0,0:0:0:0:
108,136,4879,1,0,0:0:0:0:
197,91,5060,1,0,0:0:0:0:
324,264,5241,1,0,0:0:0:0:
235,219,5421,1,0,0:0:0:0:
227,118,5602,1,0,0:0:0:0:
307,59,5783,1,0,0:0:0:0:
436,144,5964,5,2,0:0:0:0:
322,144,6144,1,0,0:0:0:0:
209,144,6325,1,0,0:0:0:0:
95,144,6506,1,0,0:0:0:0:
220,316,6687,1,2,0:0:0:0:
280,235,6867,1,0,0:0:0:0:
243,141,7048,1,0,0:0:0:0:
145,122,7229,1,0,0:0:0:0:
284,320,7409,5,2,0:0:0:0:
371,269,7590,1,0,0:0:0:0:
378,168,7771,1,0,0:0:0:0:
299,105,7952,1,0,0:0:0:0:
144,292,8132,1,2,0:0:0:0:
65,229,8313,1,0,0:0:0:0:
72,128,8494,1,0,0:0:0:0:
159,77,8674,1,0,0:0:0:0:
320,252,8855,5,2,0:0:0:0:
217,237,9033,1,0,0:0:0:0:
141,167,9212,1,0,0:0:0:0:
120,66,9390,1,0,0:0:0:0:
264,328,9569,1,0,0:0:0:0:
326,244,9747,1,0,0:0:0:0:
330,141,9926,1,0,0:0:0:0:
273,55,10105,1,0,0:0:0:0:
196,352,11765,6,0,P|264:264|216:136,1,236.250009012223
116,213,12487,2,0,P|76:135|193:37,1,236.250009012223
420,229,13210,6,0,L|424:105,1,105,2|0,0:1|0:0,0:0:0:0:
288,229,13572,2,0,L|292:105,1,105
152,284,13933,1,2,0:0:0:0:
64,236,14114,1,0,0:0:0:0:
64,136,14295,1,2,0:0:0:0:
151,88,14475,1,0,0:0:0:0:
304,168,14656,6,0,L|180:164,3,105,2|0|0|0,0:0|0:0|0:0|0:0,0:0:0:0:
320,288,15379,2,0,L|324:160,1,105,2|0,0:0|0:0,0:0:0:0:
188,240,15740,2,0,L|192:112,1,105,2|0,0:0|0:0,0:0:0:0:
356,272,16102,5,2,0:1:0:0:
440,241,16283,1,0,0:0:0:0:
486,193,16463,1,0,0:0:0:0:
481,140,16644,1,0,0:0:0:0:
426,94,16825,1,2,0:0:0:0:
335,68,17005,1,0,0:0:0:0:
230,64,17186,2,0,L|366:68,1,105,2|0,0:0|0:0,0:0:0:0:
184,312,17548,5,2,0:0:0:0:
103,250,17728,1,0,0:0:0:0:
104,149,17909,1,0,0:0:0:0:
185,89,18090,1,0,0:0:0:0:
320,216,18271,2,0,L|328:80,1,105,2|0,0:0|0:0,0:0:0:0:
192,212,18632,2,0,L|200:76,1,105,2|0,0:0|0:0,0:0:0:0:
371,307,18993,5,2,0:1:0:0:
453,225,19174,1,0,0:0:0:0:
441,126,19355,1,0,0:0:0:0:
326,100,19536,1,0,0:0:0:0:
206,287,19716,6,0,L|174:223,2,52.5,2|0|0,0:0|0:0|0:0,0:0:0:0:
330,259,20078,2,0,L|434:199,1,105,2|0,0:0|0:0,0:0:0:0:
149,291,20439,5,2,0:0:0:0:
71,224,20620,1,0,0:0:0:0:
70,122,20801,1,0,0:0:0:0:
146,54,20981,1,0,0:0:0:0:
277,287,21162,2,0,L|284:177,1,105,2|0,0:0|0:0,0:0:0:0:
159,167,21524,2,0,L|39:99,1,105,2|0,0:0|0:0,0:0:0:0:
448,120,21865,6,0,L|320:120,2,125.999996154785,12|0|0,0:0|0:0|0:0,0:0:0:0:
152,136,22405,1,12,0:0:0:0:
288,140,22585,2,0,L|424:140,1,125.999996154785
136,256,22946,2,0,L|16:204,2,125.999996154785,12|0|0,0:0|0:0|0:0,0:0:0:0:
456,124,23486,6,0,L|288:132,1,136.499993751526,12|0,0:0|0:0,0:0:0:0:
156,164,23846,1,0,0:0:0:0:
320,224,24027,1,8,0:0:0:0:
152,236,24207,1,8,0:0:0:0:
404,312,24387,1,8,0:0:0:0:
28,313,24567,1,12,0:0:0:0:
313,278,24777,6,0,P|397:204|343:92,1,210,8|0,0:0|0:0,0:0:0:0:
240,232,25499,1,0,3:0:0:0:
238,179,25590,1,0,0:0:0:0:
236,127,25680,1,0,0:0:0:0:
364,104,25861,1,0,0:0:0:0:
168,344,26222,5,0,0:0:0:0:
77,294,26403,1,0,3:0:0:0:
45,196,26584,1,8,0:0:0:0:
88,103,26764,1,0,0:0:0:0:
183,64,26945,2,0,L|296:48,2,105,0|0|8,0:0|3:0|0:0,0:0:0:0:
412,320,27668,6,0,L|416:108,1,210,8|0,0:0|0:0,0:0:0:0:
288,128,28210,1,8,0:0:0:0:
164,240,28391,2,0,L|152:184,2,52.5,0|0|0,3:0|0:0|0:0,0:0:0:0:
284,240,28752,2,0,L|388:200,1,105,0|0,0:0|0:0,0:0:0:0:
248,296,29114,5,0,3:0:0:0:
239,191,29295,1,0,0:0:0:0:
233,86,29475,1,8,0:0:0:0:
452,52,29837,1,0,3:0:0:0:
399,50,29927,1,0,0:0:0:0:
347,49,30018,1,0,0:0:0:0:
460,160,30198,1,8,0:0:0:0:
192,304,30560,5,8,0:0:0:0:
120,231,30740,1,0,3:0:0:0:
123,129,30921,1,0,0:0:0:0:
199,61,31102,1,8,0:0:0:0:
301,306,31283,2,0,L|64:304,1,210,0|2,3:0|0:0,0:0:0:0:
284,268,32005,6,0,L|292:132,1,105,0|0,0:0|3:0,0:0:0:0:
160,180,32367,2,0,L|168:44,1,105,8|0,0:0|0:0,0:0:0:0:
296,76,32728,1,0,3:0:0:0:
348,74,32819,1,0,0:0:0:0:
400,72,32909,1,0,0:0:0:0:
252,228,33090,1,8,0:0:0:0:
240,124,33271,1,0,0:0:0:0:
368,300,33451,5,8,0:0:0:0:
425,215,33632,1,0,0:0:0:0:
401,116,33813,1,0,0:0:0:0:
312,68,33993,1,8,0:0:0:0:
184,276,34174,2,0,L|120:240,2,70,8|0|0,0:0|0:0|0:0,0:0:0:0:
268,236,34536,2,0,L|388:208,1,105,0|0,3:0|0:0,0:0:0:0:
224,224,34897,6,0,B|136:240|112:176|188:60,1,210
276,64,35439,1,0,0:0:0:0:
148,224,35620,2,0,L|160:104,1,105,0|0,3:0|3:0,3:0:0:0:
20,152,35981,2,0,L|30:48,1,105,8|0,0:0|0:0,0:0:0:0:
332,276,36343,6,0,P|388:248|372:144,1,173.250005287171,8|0,0:0|0:0,0:0:0:0:
324,144,36704,2,0,L|292:88,2,57.7500017623902
476,224,37066,2,0,P|480:136|320:80,1,231.000007049561,0|8,3:0|0:0,0:0:0:0:
112,264,37789,6,0,L|416:40,1,346.500010574341,8|8,0:0|0:0,0:0:0:0:
268,264,38511,2,0,L|24:148,1,231.000007049561,0|8,3:0|0:0,0:0:0:0:
328,312,39234,6,0,L|332:72,1,231.000007049561,8|0,0:0|3:0,0:0:0:0:
208,80,39777,1,8,0:0:0:0:
88,80,39957,1,0,3:0:0:0:
328,112,40319,5,0,3:0:0:0:
222,110,40499,1,0,3:0:0:0:
111,114,40680,2,0,L|431:273,1,346.500010574341,8|8,0:0|0:0,0:0:0:0:
316,283,41403,2,0,P|304:172|404:124,1,231.000007049561,0|8,3:0|0:0,0:0:0:0:
160,289,42126,6,0,P|160:211|308:152,1,231.000007049561,8|0,0:0|3:0,0:0:0:0:
184,128,42668,1,8,0:0:0:0:
72,264,42849,2,0,P|21:193|96:72,1,231.000007049561,0|8,3:0|0:0,0:0:0:0:
364,154,43572,6,0,L|144:40,1,231.000007049561,8|0,0:0|0:0,0:0:0:0:
268,252,44114,1,8,0:0:0:0:
392,264,44295,2,0,P|464:224|416:80,1,231.000007049561,0|8,3:0|0:0,0:0:0:0:
328,84,44837,1,0,0:0:0:0:
28,152,45018,6,0,L|156:148,1,115.50000352478,4|0,1:2|1:2,0:0:0:0:
312,176,45379,1,8,1:2:0:0:
188,168,45560,1,0,1:2:0:0:
448,136,45740,1,8,1:2:0:0:
308,116,45921,1,8,1:2:0:0:
52,84,46102,1,8,1:2:0:0:
332,64,46283,1,8,1:2:0:0:
488,248,46463,6,0,L|220:252,1,236.250009012223
380,320,47186,2,0,P|428:240|348:112,1,236.250009012223
216,252,47909,5,2,0:1:0:0:
136,192,48090,1,0,0:0:0:0:
153,94,48271,1,0,0:0:0:0:
304,264,48451,1,2,0:0:0:0:
321,166,48632,1,0,0:0:0:0:
241,106,48813,1,0,0:0:0:0:
104,216,48993,2,0,L|96:88,1,105,2|0,0:0|0:0,0:0:0:0:
280,295,49355,5,2,0:1:0:0:
365,242,49536,1,0,0:0:0:0:
361,142,49716,1,0,0:0:0:0:
271,98,49897,1,0,0:0:0:0:
148,279,50078,2,0,L|44:211,1,105,2|0,0:0|0:0,0:0:0:0:
196,187,50439,2,0,L|300:127,1,105,2|0,0:0|0:0,0:0:0:0:
133,140,50801,6,0,L|21:84,2,105,2|0|0,0:0|0:0|0:0,0:0:0:0:
281,144,51343,2,0,L|393:88,2,105,2|0|0,0:0|0:0|0:0,0:0:0:0:
165,148,51885,2,0,L|285:144,1,105,2|0,0:0|0:0,0:0:0:0:
109,284,52246,6,0,P|48:197|141:144,1,210,2|0,0:1|0:0,0:0:0:0:
263,155,52789,1,0,0:0:0:0:
147,299,52969,1,0,0:0:0:0:
72,229,53150,1,0,0:0:0:0:
75,127,53331,1,0,0:0:0:0:
153,62,53511,1,0,0:0:0:0:
316,123,53692,6,0,L|434:99,2,105,2|0|0,0:0|0:0|0:0,0:0:0:0:
197,303,54234,2,0,P|142:266|218:168,1,210,2|0,0:0|0:0,0:0:0:0:
330,194,54777,2,0,L|462:165,1,105,2|0,0:0|0:0,0:0:0:0:
297,300,55138,5,2,0:0:0:0:
220,233,55319,1,0,0:0:0:0:
222,131,55499,1,0,0:0:0:0:
301,67,55680,1,0,0:0:0:0:
414,223,55861,2,0,P|404:97|297:80,1,210,2|0,0:0|0:0,0:0:0:0:
108,304,56584,5,2,0:0:0:0:
185,237,56762,1,0,0:0:0:0:
181,136,56941,1,0,0:0:0:0:
100,75,57119,1,0,0:0:0:0:
224,101,57298,1,0,0:0:0:0:
279,187,57476,1,0,0:0:0:0:
248,284,57655,1,0,0:0:0:0:
154,323,57834,1,0,0:0:0:0:
260,340,58012,6,0,P|327:286|276:129,1,236.250009012223
199,277,58737,2,0,P|149:206|194:42,1,236.250009012223
425,291,59467,5,12,0:0:0:0:
473,243,59556,1,0,0:0:0:0:
491,178,59646,1,0,0:0:0:0:
473,113,59736,1,0,0:0:0:0:
424,67,59826,1,8,0:0:0:0:
359,51,59916,1,0,0:0:0:0:
159,190,60006,2,0,L|151:101,1,68.2499968757631
311,287,60185,5,8,0:0:0:0:
370,257,60275,1,0,0:0:0:0:
384,193,60365,1,0,0:0:0:0:
343,141,60455,1,0,0:0:0:0:
162,132,60544,2,0,L|80:118,1,68.2499968757631,8|0,0:0|0:0,0:0:0:0:
275,129,60724,2,0,L|357:143,1,68.2499968757631
81,277,60904,5,12,0:0:0:0:
42,222,60994,1,0,0:0:0:0:
57,158,61083,1,0,0:0:0:0:
114,125,61173,1,0,0:0:0:0:
284,160,61263,2,0,L|276:81,1,68.2499968757631,8|0,0:0|0:0,0:0:0:0:
107,192,61443,2,0,L|115:113,1,68.2499968757631
303,108,61622,6,0,L|378:92,1,68.2499968757631,12|0,0:0|0:0,0:0:0:0:
290,57,61802,2,0,L|185:55,1,68.2499968757631
452,267,61982,1,8,0:0:0:0:
475,205,62071,1,0,0:0:0:0:
445,145,62161,1,0,0:0:0:0:
381,128,62251,1,0,0:0:0:0:
173,266,62341,5,12,0:0:0:0:
113,241,62431,1,0,0:0:0:0:
113,177,62521,1,0,0:0:0:0:
167,154,62610,1,0,0:0:0:0:
242,142,62700,2,0,L|369:148,1,68.2499968757631,8|0,0:0|0:0,0:0:0:0:
135,240,62880,2,0,L|133:145,1,68.2499968757631
201,177,63059,6,0,L|283:177,1,68.2499968757631,8|0,0:0|0:0,0:0:0:0:
345,192,63239,2,0,L|348:108,1,68.2499968757631
168,60,63419,2,0,L|82:62,1,68.2499968757631,8|0,0:0|0:0,0:0:0:0:
279,122,63598,2,0,L|365:124,1,68.2499968757631
108,255,63778,5,12,0:0:0:0:
49,227,63868,1,0,0:0:0:0:
45,163,63958,1,0,0:0:0:0:
101,129,64047,1,0,0:0:0:0:
263,114,64137,2,0,L|347:97,1,68.2499968757631,8|0,0:0|0:0,0:0:0:0:
252,65,64317,2,0,L|162:63,2,68.2499968757631,0|0|12,0:0|0:0|0:0,0:0:0:0:
323,163,64586,6,0,L|401:120,2,68.2499968757631
121,122,64856,2,0,L|208:91,1,68.2499968757631,8|0,0:0|0:0,0:0:0:0:
378,274,65035,2,0,L|442:251,1,68.2499968757631
179,248,65215,6,0,P|96:212|196:112,1,272.999987503052,4|0,0:0|0:0,0:0:0:0:
454,92,65763,2,0,L|175:88,1,272.999987503052,4|0,0:0|0:0,0:0:0:0:
467,274,66312,6,0,P|486:195|337:116,1,272.999987503052,4|0,0:0|0:0,0:0:0:0:
43,201,66861,2,0,L|364:232,1,293.999991027832,4|0,0:0|0:0,0:0:0:0:
53,282,67410,2,0,L|44:138,1,136.499993751526,4|0,0:0|0:0,0:0:0:0:
397,249,67775,2,0,L|408:68,1,136.499993751526,4|0,0:0|0:0,0:0:0:0:
145,127,68141,6,8,L|36:107,1,68.2499968757631
337,123,68319,2,8,L|416:112,1,68.2499968757631
184,150,68498,2,8,L|112:88,1,68.2499968757631
320,148,68676,2,8,L|373:85,1,68.2499968757631
207,237,68855,5,8,0:0:0:0:
332,260,69031,2,8,L|320:144,1,68.2499968757631
228,176,69207,2,8,L|164:104,1,68.2499968757631
348,144,69384,2,8,L|424:96,1,68.2499968757631
132,352,69560,6,0,P|84:290|161:89,1,272.999987503052,0|8,0:0|0:3,0:0:0:0:
272,96,70108,1,8,0:3:0:0:
24,96,70291,2,0,L|142:78,2,90.9999958343508,8|8|8,0:3|0:3|0:3,0:0:0:0:
212,152,70657,2,8,L|323:137,2,90.9999958343508,8|8|8,0:3|0:3|0:3,0:3:0:0:
488,232,71027,6,0,P|492:148|352:44,1,272.999987503052,6|0,1:0|0:0,0:0:0:0:
472,48,71569,1,0,1:0:0:0:
152,264,71749,2,0,L|144:116,1,136.499993751526,12|0,0:0|0:0,0:0:0:0:
304,116,72111,2,0,L|440:52,1,136.499993751526
120,84,72472,5,4,1:2:0:0:
400,248,72653,1,8,0:0:0:0:
256,208,72833,2,0,L|116:156,1,136.499993751526,0|0,0:0|1:0,0:0:0:0:
200,132,73104,1,0,1:0:0:0:
452,268,73195,2,0,L|456:100,1,136.499993751526,12|0,0:0|0:0,0:0:0:0:
200,160,73556,1,0,1:0:0:0:
352,108,73737,1,0,0:0:0:0:
104,112,73918,6,0,L|392:40,1,272.999987503052,4|0,1:0|0:0,0:0:0:0:
92,204,74460,1,0,1:0:0:0:
392,244,74641,2,0,L|264:140,1,136.499993751526,12|0,0:0|0:0,0:0:0:0:
124,208,75002,2,0,L|4:100,1,136.499993751526,0|0,1:0|0:0,0:0:0:0:
468,115,75363,5,12,1:1:0:0:
168,288,75544,2,0,P|72:200|176:96,1,272.999987503052,8|0,0:0|1:0,0:0:0:0:
188,96,75996,1,0,0:0:0:0:
336,200,76086,2,0,L|420:152,1,68.2499968757631,12|0,0:0|0:0,0:0:0:0:
204,200,76267,2,0,L|120:152,1,68.2499968757631,0|0,1:0|0:0,0:0:0:0:
343,157,76448,2,0,L|414:116,1,68.2499968757631,4|0,1:0|0:0,0:0:0:0:
181,144,76628,2,0,L|109:103,1,68.2499968757631
488,148,76809,6,0,L|344:120,1,136.499993751526,4|0,1:0|1:0,1:0:0:0:
24,148,77171,2,0,L|168:120,1,136.499993751526,0|0,1:0|1:0,1:0:0:0:
464,280,77532,2,0,L|472:112,1,136.499993751526,0|0,1:0|1:0,1:0:0:0:
144,276,77894,2,0,L|136:108,1,136.499993751526,0|0,1:0|1:0,1:0:0:0:
316,180,78255,5,8,1:0:0:0:
184,144,78436,1,8,1:0:0:0:
348,175,78616,1,8,1:0:0:0:
163,124,78797,1,8,1:0:0:0:
408,188,78978,5,8,1:0:0:0:
85,101,79159,1,8,1:0:0:0:
484,176,79339,1,8,1:0:0:0:
35,55,79520,1,8,1:0:0:0:
456,100,79701,6,0,L|300:102,2,146.999995513916,12|0|0,1:1|1:0|1:0,0:0:0:0:
56,100,80243,2,0,L|213:103,2,146.999995513916,12|0|0,1:0|1:0|1:0,1:0:0:0:
380,244,80785,2,0,L|468:240,1,68.2499968757631,12|0,1:0|0:0,0:0:0:0:
232,196,80966,2,0,L|140:192,1,68.2499968757631,0|0,1:0|0:0,0:0:0:0:
452,176,81147,6,8,L|440:104,1,68.2499968757631
244,112,81327,2,0,L|172:112,1,68.2499968757631,0|0,1:0|1:0,1:0:0:0:
371,182,81508,2,8,L|358:102,1,68.2499968757631
208,132,81689,2,0,L|119:132,1,68.2499968757631,0|0,1:0|1:0,1:0:0:0:
311,217,81859,6,8,L|307:139,1,68.2499968757631
240,136,82034,2,0,L|174:90,1,68.2499968757631,0|0,1:0|1:0,1:0:0:0:
431,246,82209,2,0,L|444:8,1,204.749990627289,4|0,1:0|0:0,0:0:0:0:
217,122,82589,6,0,L|391:107,1,136.499993751526,4|0,1:0|0:0,0:0:0:0:
49,181,82950,2,0,L|234:166,1,136.499993751526,12|0,0:0|0:0,0:0:0:0:
268,164,83221,1,0,0:0:0:0:
452,127,83311,2,0,L|278:112,1,136.499993751526,4|0,1:0|1:0,1:0:0:0:
72,87,83673,2,0,L|246:72,1,136.499993751526,12|0,0:0|1:0,0:0:0:0:
281,54,83944,1,0,1:0:0:0:
51,284,84034,6,0,L|41:147,1,136.499993751526,4|0,1:0|0:0,0:0:0:0:
461,284,84396,2,0,L|470:147,1,136.499993751526,12|0,0:0|0:0,0:0:0:0:
219,267,84757,2,0,P|129:241|81:124,1,204.749990627289,4|0,1:0|0:0,0:0:0:0:
322,201,85119,2,0,L|204:111,1,136.499993751526,12|0,0:0|1:2,0:0:0:0:
268,111,85390,1,0,1:0:0:0:
459,120,85480,6,0,L|305:116,2,136.499993751526,4|0|12,1:0|0:0|0:0,0:0:0:0:
149,182,86022,1,0,0:0:0:0:
410,261,86203,2,0,L|417:118,1,136.499993751526,4|0,1:0|1:0,0:0:0:0:
129,95,86564,1,12,0:0:0:0:
416,124,86745,1,0,1:0:0:0:
129,231,86926,6,0,L|-15:155,1,136.499993751526,4|0,1:0|0:0,0:0:0:0:
343,241,87287,2,0,L|346:75,1,136.499993751526,12|0,0:0|0:0,0:0:0:0:
80,159,87649,2,0,L|83:52,1,68.2499968757631,12|8,0:0|0:0,0:0:0:0:
270,79,87829,2,0,L|375:63,1,68.2499968757631,0|0,1:0|1:0,1:0:0:0:
135,89,88010,2,8,L|53:88,2,68.2499968757631
481,202,88372,6,0,L|189:184,1,272.999987503052,12|0,1:0|0:0,0:0:0:0:
468,285,88914,2,0,P|478:181|335:98,1,272.999987503052,12|0,1:0|0:0,0:0:0:0:
70,234,89456,2,8,P|62:126|81:85,1,136.499993751526,12|0,1:0|0:0,1:0:0:0:
366,185,89817,5,0,1:0:0:0:
72,207,89998,2,8,L|65:124,1,68.2499968757631,8|8,0:3|0:3,0:3:0:0:
204,149,90269,2,8,L|196:71,1,68.2499968757631,8|8,0:3|0:3,0:3:0:0:
496,106,90540,2,0,L|288:63,1,204.749990627289,0|0,1:0|1:0,1:0:0:0:
75,108,90902,2,8,L|159:102,1,68.2499968757631,8|8,0:3|0:3,0:3:0:0:
327,154,91082,2,8,L|401:151,1,68.2499968757631,8|8,0:3|0:3,0:3:0:0:
110,338,91263,6,0,P|82:235|315:78,1,409.499981254579,4|0,0:0|0:0,0:0:0:0:
21,222,91986,6,8,L|27:154,1,68.2499968757631
178,229,92167,2,8,L|184:161,1,68.2499968757631
335,231,92348,2,8,L|341:163,1,68.2499968757631
490,232,92528,2,8,L|496:164,1,68.2499968757631
304,341,92709,6,0,P|217:268|289:170,1,236.250009012223
389,259,93432,2,0,P|447:186|381:47,1,236.250009012223
53,101,94155,5,12,1:0:0:0:
209,85,94335,1,0,1:0:0:0:
368,70,94516,1,0,1:0:0:0:
56,209,94697,5,12,1:0:0:0:
230,191,94878,1,0,1:0:0:0:
407,175,95058,1,0,1:0:0:0:
71,296,95239,5,12,1:0:0:0:
245,279,95420,1,0,1:0:0:0:
419,262,95601,1,0,1:0:0:0:
114,199,95781,6,0,L|438:184,1,315.000012016297,12|0,1:0|1:0,0:0:0:0:
140,93,96323,1,8,0:0:0:0:
428,89,96504,1,8,0:0:0:0:
72,170,96685,1,8,0:0:0:0:
512,175,96866,1,12,0:0:0:0:
208,324,97413,6,0,L|198:194,1,105,0|8,0:0|0:0,0:0:0:0:
342,239,97774,2,0,B|496:244|397:188|372:84,1,210,0|0,3:0|0:0,0:0:0:0:
141,322,98497,5,0,0:0:0:0:
51,271,98678,1,0,0:0:0:0:
18,174,98859,1,8,0:0:0:0:
58,79,99039,1,0,0:0:0:0:
151,35,99220,2,0,L|269:80,1,105
152,35,99582,2,0,L|269:80,1,105,8|0,0:0|0:0,0:0:0:0:
387,254,99943,6,0,L|373:104,1,105
220,161,100305,2,0,P|100:112|79:23,2,210,0|0|0,0:0|3:0|0:0,0:0:0:0:
474,312,101389,5,0,0:0:0:0:
381,266,101570,1,0,0:0:0:0:
346,170,101750,1,0,3:0:0:0:
386,76,101931,1,0,0:0:0:0:
479,35,102112,2,0,L|340:-1,1,105
479,35,102473,2,0,L|340:-1,1,105,8|0,0:0|0:0,0:0:0:0:
225,313,102835,5,8,0:0:0:0:
147,247,103015,1,0,0:0:0:0:
149,145,103196,1,0,0:0:0:0:
230,83,103377,2,0,L|231:65,1,13.125
96,149,103558,2,0,L|90:115,6,26.25
177,169,103919,2,0,L|303:149,1,105,2|0,0:0|0:0,0:0:0:0:
145,354,104280,5,0,0:0:0:0:
63,290,104461,1,0,0:0:0:0:
37,190,104642,1,8,0:0:0:0:
77,95,104823,1,0,0:0:0:0:
170,162,105003,2,0,L|287:89,1,105,0|0,3:0|0:0,0:0:0:0:
144,276,105365,2,8,L|140:148,1,105
320,224,105726,6,0,P|376:184|296:80,1,210,8|0,0:0|0:0,0:0:0:0:
192,84,106268,1,8,0:0:0:0:
296,156,106449,2,0,L|192:156,2,70,8|0|0,0:0|0:0|0:0,0:0:0:0:
384,164,106811,2,0,L|480:96,1,105
344,320,107172,6,0,L|123:316,1,210,2|0,0:0|0:0,0:0:0:0:
267,212,107714,1,0,0:0:0:0:
119,213,107895,1,0,3:0:0:0:
262,288,108076,1,0,3:0:0:0:
258,235,108166,1,0,0:0:0:0:
254,183,108256,2,0,L|127:184,1,105,4|0,0:0|0:0,0:0:0:0:
423,279,108618,6,0,P|480:241|386:161,1,210,12|0,0:0|0:0,0:0:0:0:
291,152,109160,1,8,0:0:0:0:
34,288,109341,2,0,L|30:57,1,210,8|0,0:3|0:0,0:0:0:0:
312,128,109883,1,8,0:3:0:0:
189,165,110064,6,0,L|429:161,1,210,4|8,0:0|0:0,0:0:0:0:
168,267,110786,1,12,0:3:0:0:
413,278,110967,2,0,P|465:243|370:148,1,210,8|8,0:0|0:0,0:0:0:0:
121,301,111509,6,0,P|42:258|79:137,1,210,12|0,0:0|0:0,0:0:0:0:
387,199,112052,1,8,0:0:0:0:
360,171,112142,1,8,0:0:0:0:
199,159,112232,2,0,P|129:121|212:41,1,210,12|0,0:3|0:0,0:0:0:0:
462,135,112774,5,8,0:3:0:0:
320,148,112955,2,0,L|87:153,1,210,4|8,0:0|0:0,0:0:0:0:
322,257,113678,1,12,0:3:0:0:
193,230,113859,1,8,0:0:0:0:
322,257,114039,1,8,0:0:0:0:
60,132,114401,6,0,L|369:9,1,315,12|8,0:0|0:0,0:0:0:0:
199,320,115124,2,0,P|92:221|222:104,1,315,12|8,0:3|0:3,0:0:0:0:
442,286,115847,6,0,P|463:149|417:64,1,210,4|0,0:0|1:0,0:0:0:0:
161,98,116570,2,0,L|27:88,2,105,12|8|0,0:3|0:0|0:0,0:0:0:0:
420,177,117292,6,0,L|424:111,1,52.5,8|8,0:3|0:0,0:0:0:0:
333,120,117473,2,8,L|252:117,1,52.5,8|8,0:3|0:3,0:3:0:0:
431,237,117654,2,8,L|437:138,1,52.5,8|8,0:3|0:3,0:3:0:0:
271,151,117835,2,8,L|170:146,1,52.5,8|8,0:3|0:3,0:3:0:0:
466,277,118015,6,8,L|368:279,1,52.5,8|8,0:3|0:3,0:3:0:0:
179,273,118196,2,8,L|78:268,1,52.5,8|8,0:3|0:3,0:3:0:0:
392,173,118377,2,8,L|321:171,1,52.5,8|8,0:3|0:3,0:3:0:0:
77,157,118558,2,8,L|168:154,1,52.5,8|8,0:3|0:3,0:3:0:0:
325,274,118738,6,0,P|380:232|299:102,1,236.250009012223
194,81,119461,2,0,L|451:28,1,236.250009012223
30,199,120184,5,4,1:0:0:0:
174,197,120365,1,0,1:0:0:0:
325,195,120545,1,0,1:0:0:0:
473,194,120726,1,0,1:0:0:0:
209,162,120907,1,0,1:0:0:0:
64,144,121088,1,0,1:0:0:0:
209,162,121268,1,0,1:0:0:0:
349,179,121449,1,0,1:0:0:0:
42,216,121630,6,0,L|221:210,3,157.500006008148,8|0|0|0,1:3|1:0|1:0|1:0,1:0:0:0:
470,216,122353,2,0,L|306:208,3,157.500006008148,0|0|0|0,1:3|1:0|1:0|1:0,1:0:0:0:
29,152,123076,5,4,1:0:0:0:
201,143,123256,1,0,1:0:0:0:
375,156,123437,1,0,1:0:0:0:
201,143,123618,1,0,1:0:0:0:
482,253,123798,1,0,1:0:0:0:
324,241,123979,1,0,1:0:0:0:
33,189,124160,1,0,1:0:0:0:
191,177,124341,1,0,1:0:0:0:
458,228,124521,6,0,L|462:67,1,157.500006008148,8|0,1:3|1:0,1:0:0:0:
130,237,124883,2,0,L|118:78,1,157.500006008148,0|0,1:0|1:0,1:0:0:0:
379,54,125244,2,0,L|211:52,1,157.500006008148,0|0,1:0|1:0,1:0:0:0:
489,221,125606,2,0,L|321:219,1,157.500006008148,0|0,1:0|1:0,1:0:0:0:
34,200,125967,5,4,1:0:0:0:
179,196,126148,1,0,1:0:0:0:
334,199,126329,1,0,1:0:0:0:
179,196,126509,1,0,1:0:0:0:
478,200,126690,1,0,1:0:0:0:
333,196,126871,1,0,1:0:0:0:
178,199,127051,1,0,1:0:0:0:
333,196,127232,1,0,1:0:0:0:
50,120,127413,5,8,1:3:0:0:
332,105,127594,1,0,1:0:0:0:
45,198,127774,1,0,1:0:0:0:
331,194,127955,1,0,1:0:0:0:
49,286,128136,2,0,L|46:93,1,157.500006008148,0|0,1:0|1:0,1:0:0:0:
315,98,128497,2,0,L|485:78,1,157.500006008148,0|0,1:0|1:0,1:0:0:0:
130,165,128859,5,4,1:0:0:0:
280,172,129039,1,0,1:0:0:0:
436,257,129220,2,0,L|447:76,1,157.500006008148,0|0,1:0|1:0,1:0:0:0:
181,120,129582,1,0,1:0:0:0:
33,124,129762,1,0,1:0:0:0:
447,268,129943,2,0,L|449:108,1,157.500006008148,0|0,1:0|1:0,1:0:0:0:
96,132,130305,5,8,1:3:0:0:
231,88,130485,1,0,1:0:0:0:
490,134,130666,1,0,1:0:0:0:
336,96,130847,1,0,1:0:0:0:
16,109,131027,1,12,1:0:0:0:
306,268,131208,2,8,L|305:151,1,78.7500030040742,8|8,0:3|0:3,0:3:0:0:
109,153,131389,2,8,L|16:132,1,78.7500030040742,8|8,0:3|0:3,0:3:0:0:
199,225,131570,2,8,L|302:195,1,78.7500030040742,8|8,0:3|0:3,0:3:0:0:
474,249,131750,5,12,3:0:0:0:
488,183,131841,1,0,3:0:0:0:
459,122,131931,1,0,3:0:0:0:
400,91,132021,1,0,3:0:0:0:
237,200,132112,2,0,L|136:153,1,68.2499968757631,8|0,3:0|3:0,3:0:0:0:
400,91,132292,2,0,L|299:44,1,68.2499968757631,0|0,3:0|3:0,3:0:0:0:
144,247,132473,5,8,3:0:0:0:
84,220,132564,1,0,3:0:0:0:
79,155,132654,1,0,3:0:0:0:
133,119,132744,1,0,3:0:0:0:
323,122,132835,2,0,L|408:100,1,68.2499968757631,8|0,3:0|3:0,3:0:0:0:
165,98,133015,2,0,L|80:76,1,68.2499968757631,0|0,3:0|3:0,3:0:0:0:
417,350,133196,5,12,3:0:0:0:
471,310,133286,1,0,3:0:0:0:
500,249,133377,1,0,3:0:0:0:
497,182,133467,1,0,3:0:0:0:
462,124,133558,1,8,3:0:0:0:
403,90,133648,1,0,3:0:0:0:
210,142,133738,1,0,3:0:0:0:
145,108,133829,1,0,3:0:0:0:
419,275,133919,5,12,3:0:0:0:
463,227,134009,1,0,3:0:0:0:
445,164,134100,1,0,3:0:0:0:
382,147,134190,1,0,3:0:0:0:
226,156,134280,2,0,L|121:132,1,68.2499968757631,8|0,3:0|3:0,3:0:0:0:
236,104,134461,2,0,L|315:112,1,68.2499968757631,0|0,3:0|3:0,3:0:0:0:
106,261,134642,5,12,3:0:0:0:
48,228,134732,1,0,3:0:0:0:
43,163,134823,1,0,3:0:0:0:
95,122,134913,1,0,3:0:0:0:
252,100,135003,2,0,L|334:88,1,68.2499968757631,8|0,3:0|3:0,3:0:0:0:
164,96,135184,2,0,L|165:14,1,68.2499968757631,0|0,3:0|3:0,3:0:0:0:
373,184,135365,6,0,L|461:162,1,68.2499968757631,8|0,3:0|3:0,3:0:0:0:
196,181,135545,2,0,L|103:168,1,68.2499968757631,0|0,3:0|3:0,3:0:0:0:
360,160,135726,2,0,L|352:82,1,68.2499968757631,8|0,3:0|3:0,3:0:0:0:
136,96,135907,2,0,L|127:8,1,68.2499968757631,0|0,3:0|3:0,3:0:0:0:
384,168,136088,6,0,L|392:88,1,68.2499968757631,12|0,3:0|3:0,3:0:0:0:
300,92,136268,2,0,L|208:72,1,68.2499968757631,0|0,3:0|3:0,3:0:0:0:
456,256,136449,1,0,3:0:0:0:
465,190,136539,1,0,3:0:0:0:
426,136,136629,1,0,3:0:0:0:
360,126,136720,1,0,3:0:0:0:
148,136,136811,6,0,L|146:27,1,68.2499968757631,12|0,3:0|3:0,3:0:0:0:
371,145,136991,2,0,L|270:147,1,68.2499968757631,0|0,3:0|3:0,3:0:0:0:
76,271,137172,2,0,L|75:189,1,68.2499968757631,8|0,3:0|3:0,3:0:0:0:
280,176,137353,2,0,L|376:168,1,68.2499968757631,0|0,3:0|3:0,3:0:0:0:
44,124,137533,6,0,L|197:92,2,136.499993751526,12|0|0,1:0|1:0|1:0,1:0:0:0:
405,222,138076,1,12,1:0:0:0:
242,211,138256,1,0,1:0:0:0:
79,200,138437,1,0,1:0:0:0:
477,124,138618,6,0,L|308:117,2,146.999995513916,12|0|0,1:0|1:0|1:0,1:0:0:0:
107,222,139160,1,12,1:0:0:0:
272,208,139341,1,0,1:0:0:0:
436,196,139521,1,0,1:0:0:0:
53,238,139702,6,0,L|46:68,1,136.499993751526,12|0,1:0|1:0,1:0:0:0:
495,75,140064,2,0,L|315:64,1,136.499993751526,12|0,1:0|1:0,1:0:0:0:
60,155,140425,6,8,L|141:141,1,68.2499968757631,8|8,2:0|2:0,2:0:0:0:
415,143,140606,2,8,L|332:126,1,68.2499968757631,8|8,2:0|2:0,2:0:0:0:
118,166,140786,2,8,L|199:152,1,68.2499968757631,8|8,2:0|2:0,2:0:0:0:
367,157,140967,2,8,L|289:141,1,68.2499968757631,8|8,2:0|2:0,2:0:0:0:
89,264,141148,2,8,L|79:118,1,136.499993751526,8|8,2:1|2:1,2:1:0:0:
428,130,141509,1,8,2:1:0:0:
119,68,141690,1,8,2:1:0:0:
364,71,141871,5,12,1:3:0:0:
177,162,142484,2,8,L|222:155,1,45.4999979171754,8|8,1:3|1:3,1:0:0:0:
465,159,142607,1,8,0:0:0:0:
327,214,142786,1,8,0:3:0:0:
312,109,142966,1,8,0:3:0:0:
447,72,143141,1,8,0:3:0:0:
16,149,143317,6,0,L|340:147,1,293.999991027832,6|0,1:1|0:0,0:0:0:0:
160,184,143859,1,0,1:0:0:0:
464,199,144039,2,0,L|302:173,1,136.499993751526,12|0,0:0|0:0,0:0:0:0:
32,180,144401,2,0,L|206:153,1,136.499993751526,0|0,1:0|0:0,0:0:0:0:
455,114,144762,5,4,1:0:0:0:
174,62,144943,1,8,0:0:0:0:
457,218,145124,2,0,L|461:66,1,136.499993751526,0|0,0:0|1:0,0:0:0:0:
373,77,145395,1,0,1:0:0:0:
162,100,145485,2,0,L|24:52,1,136.499993751526,12|0,0:0|0:0,0:0:0:0:
301,123,145847,2,0,L|473:98,1,136.499993751526,4|0,1:0|0:0,0:0:0:0:
52,128,146208,6,0,L|375:125,1,293.999991027832,4|0,1:0|0:0,0:0:0:0:
108,252,146750,1,0,1:0:0:0:
476,184,146931,2,0,L|292:184,1,146.999995513916,12|0,0:0|0:0,0:0:0:0:
192,180,147292,2,0,L|200:88,1,73.4999977569581,0|0,1:0|1:0,1:0:0:0:
360,84,147473,2,0,L|448:28,1,73.4999977569581,0|0,1:0|1:0,1:0:0:0:
156,288,147654,6,0,L|148:140,1,136.499993751526,12|8,1:1|0:0,0:0:0:0:
316,195,148011,2,0,L|326:50,1,136.499993751526,0|0,0:0|1:0,0:0:0:0:
36,68,148368,1,12,0:0:0:0:
360,120,148546,2,0,L|256:116,1,68.2499968757631,8|8,0:0|1:0,0:0:0:0:
116,116,148725,2,0,L|28:112,2,68.2499968757631,0|0|0,1:0|1:0|1:0,1:0:0:0:
496,104,149082,6,0,L|336:88,1,136.499993751526,12|0,1:0|1:0,1:0:0:0:
16,104,149447,2,0,L|176:88,1,136.499993751526,0|0,1:0|1:0,1:0:0:0:
317,179,149813,1,0,1:0:0:0:
168,144,149996,1,0,1:0:0:0:
332,175,150179,1,0,1:0:0:0:
147,124,150362,1,0,1:0:0:0:
496,112,150545,5,12,1:0:0:0:
208,184,150724,1,8,1:0:0:0:
452,152,150903,1,8,1:0:0:0:
208,128,151081,1,8,1:0:0:0:
384,88,151260,1,0,1:0:0:0:
200,72,151438,1,0,1:0:0:0:
352,36,151617,1,0,1:0:0:0:
204,152,151796,1,0,1:0:0:0:
484,216,151974,5,8,1:0:0:0:
479,171,152034,1,8,1:0:0:0:
453,133,152094,1,8,1:0:0:0:
224,208,152154,1,0,1:0:0:0:
204,180,152214,1,0,1:0:0:0:
384,216,152335,1,8,1:0:0:0:
376,168,152395,1,8,1:0:0:0:
192,148,152455,1,8,1:0:0:0:
159,106,152516,1,8,1:0:0:0:
157,61,152576,1,0,1:0:0:0:
369,123,152696,6,0,L|451:114,2,70,0|0|0,1:0|1:0|1:0,1:0:0:0:
321,91,152998,1,0,1:0:0:0:
123,242,153058,1,0,1:0:0:0:
105,209,153118,1,0,1:0:0:0:
116,174,153178,1,0,1:0:0:0:
265,174,153239,1,0,1:0:0:0:
292,144,153299,1,0,1:0:0:0:
271,106,153359,1,0,1:0:0:0:
48,272,153419,6,0,P|48:140|92:88,1,157.5,4|0,1:0|0:0,0:0:0:0:
292,144,153782,2,0,L|120:108,1,157.5,4|0,1:0|0:0,0:0:0:0:
416,252,154146,2,0,L|424:64,1,157.5,4|0,1:0|0:0,0:0:0:0:
180,64,154509,2,0,L|344:68,1,157.5,4|0,1:0|0:0,0:0:0:0:
40,160,154875,6,0,L|192:128,1,136.499993751526,4|0,1:0|0:0,0:0:0:0:
440,176,155236,2,0,L|284:140,1,136.499993751526,12|0,0:0|0:0,0:0:0:0:
240,144,155507,1,0,1:0:0:0:
48,276,155597,2,0,B|40:198|40:198|61:136,1,136.499993751526,4|0,1:0|1:0,0:0:0:0:
460,268,155959,2,0,L|464:116,1,136.499993751526,12|0,0:0|0:0,0:0:0:0:
400,120,156230,1,0,1:0:0:0:
160,76,156320,5,4,1:0:0:0:
316,80,156501,1,0,0:0:0:0:
48,192,156682,1,12,0:0:0:0:
204,196,156862,1,0,0:0:0:0:
464,192,157043,1,4,1:0:0:0:
308,196,157224,2,0,L|220:200,1,68.2499968757631,0|0,0:0|1:0,0:0:0:0:
456,216,157405,2,0,P|480:149|432:92,1,136.499993751526,12|0,0:0|0:0,0:0:0:0:
112,72,157766,5,4,1:0:0:0:
444,80,157947,2,0,L|296:76,1,136.499993751526,0|12,0:0|0:0,0:0:0:0:
156,172,158311,1,0,0:0:0:0:
436,224,158493,2,0,P|464:160|428:96,1,136.499993751526,4|0,1:0|1:0,0:0:0:0:
188,68,158856,1,12,0:0:0:0:
348,72,159038,1,0,1:0:0:0:
52,180,159220,6,0,L|44:28,1,136.499993751526,4|0,1:0|0:0,0:0:0:0:
308,160,159584,2,8,L|400:144,1,68.2499968757631,12|8,0:0|0:0,0:0:0:0:
296,88,159766,2,0,L|212:84,1,68.2499968757631,0|0,1:0|1:0,1:0:0:0:
464,248,159947,1,8,0:0:0:0:
476,204,160038,2,0,P|464:140|400:96,1,136.499993751526,0|0,1:0|1:0,0:0:0:0:
128,156,160311,2,0,L|344:56,1,204.749990627289,12|0,0:0|0:0,0:0:0:0:
48,84,160675,6,0,L|212:84,2,136.499993751526,12|0|0,1:0|1:0|1:0,1:0:0:0:
468,88,161220,2,0,L|304:88,2,136.499993751526,12|0|0,1:0|1:0|1:0,1:0:0:0:
180,300,161766,2,0,L|174:143,1,136.499993751526,12|0,1:0|1:0,1:0:0:0:
461,167,162129,5,0,1:0:0:0:
117,151,162311,2,0,L|309:155,1,136.499993751526,12|0,1:0|1:0,1:0:0:0:
402,89,162675,1,8,1:3:0:0:
121,225,162856,1,8,1:0:0:0:
426,239,163038,1,8,1:0:0:0:
121,225,163220,2,0,L|217:221,1,68.2499968757631,8|0,1:0|1:0,0:0:0:0:
408,200,163402,2,0,L|476:200,1,68.2499968757631,8|0,1:0|1:0,0:0:0:0:
52,328,163584,6,0,P|16:264|120:32,1,315,12|0,1:0|0:0,0:0:0:0:
492,220,164294,6,8,L|486:152,1,68.2499968757631
335,227,164465,2,8,L|329:159,1,68.2499968757631
178,229,164636,2,8,L|172:161,1,68.2499968757631
23,230,164808,2,8,L|17:162,1,68.2499968757631
208,384,164979,6,0,P|296:324|184:68,1,409.499981254579
148,88,165639,1,0,0:0:0:0:
220,220,165733,6,0,L|404:88,1,204.749990627289
124,344,166094,2,0,L|116:156,1,136.499993751526,8|0,0:3|0:0,0:0:0:0:
188,184,166365,1,0,0:0:0:0:
468,164,166459,6,0,L|464:80,1,68.2499968757631,4|0,1:0|0:0,0:0:0:0:
368,88,166639,2,0,L|288:84,1,68.2499968757631,0|0,1:0|0:0,0:0:0:0:
384,160,166820,2,0,L|468:160,1,68.2499968757631,0|0,1:0|0:0,0:0:0:0:
118,245,167001,6,0,L|114:149,1,68.2499968757631,12|0,1:0|0:0,0:0:0:0:
206,149,167181,2,0,L|314:153,1,68.2499968757631,0|0,1:0|0:0,0:0:0:0:
194,97,167362,2,0,L|114:97,1,68.2499968757631,0|0,1:0|0:0,0:0:0:0:
281,216,167543,1,12,1:0:0:0:
164,208,167724,2,0,L|164:176,1,17.0624992189408,0|0,1:0|0:0,0:0:0:0:
384,152,167904,5,0,1:0:0:0:
94,142,168084,1,12,1:0:0:0:
254,111,168265,1,0,1:0:0:0:
94,142,168446,1,0,1:0:0:0:
464,152,168627,6,0,L|324:148,1,136.499993751526,12|0,1:0|1:0,0:0:0:0:
64,216,168989,2,0,L|208:216,1,136.499993751526,12|0,1:0|1:0,0:0:0:0:
463,126,169349,5,12,1:0:0:0:
296,122,169531,1,0,1:0:0:0:
131,120,169712,1,0,1:0:0:0:
460,204,169892,2,0,L|316:204,2,136.499993751526,12|0|0,1:0|1:0|1:0,0:0:0:0:
136,288,170434,6,0,P|47:202|133:114,1,272.999987503052,12|0,1:0|0:0,0:0:0:0:
411,50,170977,1,12,1:0:0:0:
260,50,171157,1,0,1:0:0:0:
110,50,171338,1,0,1:0:0:0:
436,260,171519,2,0,L|436:106,1,136.499993751526,12|0,1:0|1:0,0:0:0:0:
281,103,171880,1,12,1:3:0:0:
433,63,172061,1,0,1:0:0:0:
68,203,172242,6,0,L|251:184,2,136.499993751526,12|0|0,1:0|1:0|1:0,0:0:0:0:
378,194,172784,1,12,1:0:0:0:
245,121,172965,2,0,L|407:80,1,136.499993751526,0|0,1:0|1:0,1:0:0:0:
110,232,173326,2,0,L|105:80,1,136.499993751526,12|0,1:0|1:0,1:0:0:0:
422,157,173688,5,0,1:0:0:0:
122,105,173868,2,0,L|272:88,1,136.499993751526,12|0,1:0|1:0,1:0:0:0:
409,76,174230,1,0,1:0:0:0:
158,154,174411,2,0,L|24:102,1,136.499993751526,12|0,1:0|1:0,1:0:0:0:
269,119,174772,2,0,L|403:67,1,136.499993751526,12|0,1:0|1:0,1:0:0:0:
96,131,175133,5,12,1:0:0:0:
436,251,175314,1,0,1:0:0:0:
419,136,175495,1,0,1:0:0:0:
96,131,175676,1,12,1:0:0:0:
436,251,175857,1,0,1:0:0:0:
419,136,176038,1,0,1:0:0:0:
103,194,176218,1,12,1:0:0:0:
421,181,176399,2,8,L|503:175,1,68.2499968757631,0|8,1:3|1:3,1:3:0:0:
275,120,176579,6,0,L|119:111,1,136.499993751526,8|0,1:0|1:0,1:0:0:0:
408,236,176941,1,0,1:0:0:0:
402,168,177031,1,0,1:0:0:0:
398,99,177121,1,8,1:0:0:0:
155,101,177302,1,8,2:3:0:0:
469,85,177483,6,8,L|365:76,1,68.2499968757631,8|8,1:0|1:0,1:0:0:0:
165,77,177664,2,0,L|90:67,1,68.2499968757631,0|0,1:0|1:0,1:0:0:0:
326,191,177844,2,0,L|326:97,1,68.2499968757631,0|0,1:0|1:0,1:0:0:0:
76,308,178025,6,0,L|67:141,1,136.499993751526,4|0,1:0|1:0,1:0:0:0:
364,147,178387,1,0,1:0:0:0:
63,112,178567,1,12,1:0:0:0:
361,84,178748,1,0,1:0:0:0:
211,71,178929,1,0,1:0:0:0:
470,72,179109,1,12,1:0:0:0:
174,261,179290,6,0,L|18:211,1,136.499993751526,0|0,1:0|1:0,1:0:0:0:
338,211,179650,2,0,L|338:179,1,17.0624992189408,12|0,1:0|0:0,1:0:0:0:
474,146,179830,2,0,L|335:128,1,136.499993751526,0|0,1:0|1:0,1:0:0:0:
34,90,180189,2,0,L|188:75,1,136.499993751526,12|0,1:0|1:0,1:0:0:0:
476,74,180548,2,0,L|326:60,1,136.499993751526,12|0,1:0|1:0,1:0:0:0:
52,133,180908,6,0,L|204:133,2,136.499993751526,12|0|0,1:0|1:0|1:0,1:0:0:0:
374,89,181456,1,12,1:0:0:0:
229,79,181639,1,0,1:0:0:0:
93,71,181822,1,0,1:0:0:0:
396,191,182005,1,12,1:0:0:0:
117,290,182188,6,0,L|104:112,1,136.499993751526,0|0,1:0|1:0,1:0:0:0:
447,98,182549,1,12,1:0:0:0:
209,74,182728,2,0,L|374:88,1,136.499993751526,0|0,1:0|1:0,1:0:0:0:
60,258,183085,2,0,L|45:111,1,136.499993751526,12|0,1:0|1:0,1:0:0:0:
489,224,183442,2,0,L|474:77,1,136.499993751526,12|0,1:0|1:0,1:0:0:0:
201,91,183799,6,0,L|14:93,1,136.499993751526,4|0,1:0|1:0,1:0:0:0:
267,226,184067,1,0,1:0:0:0:
336,188,184156,1,0,1:0:0:0:
280,184,184246,1,0,1:0:0:0:
51,262,184335,2,0,P|53:135|80:89,1,136.499993751526,12|0,1:0|1:0,1:0:0:0:
242,107,184603,1,0,1:0:0:0:
243,29,184693,1,0,1:0:0:0:
171,22,184781,1,0,1:0:0:0:
395,271,184871,5,12,1:0:0:0:
458,256,184960,1,0,1:0:0:0:
476,194,185049,1,0,1:0:0:0:
304,123,185138,1,0,1:0:0:0:
321,60,185228,1,0,1:0:0:0:
385,46,185317,1,0,1:0:0:0:
151,105,185406,6,0,L|283:31,1,136.499993751526,12|0,1:0|1:0,1:0:0:0:
99,239,185680,1,0,1:0:0:0:
39,211,185771,1,0,1:0:0:0:
32,146,185863,1,0,1:0:0:0:
250,117,185954,5,12,1:0:0:0:
99,84,186137,1,0,1:0:0:0:
486,84,186320,1,12,1:0:0:0:
330,69,186503,1,0,1:0:0:0:
32,153,186686,6,0,L|117:123,1,68.2499968757631,12|0,1:0|1:0,1:0:0:0:
452,153,186869,2,0,L|367:123,1,68.2499968757631,0|0,1:0|1:0,1:0:0:0:
109,81,187052,2,0,L|198:58,1,68.2499968757631,0|0,1:0|1:0,1:0:0:0:
376,79,187235,2,0,L|287:56,1,68.2499968757631,0|0,1:0|1:0,1:0:0:0:
129,54,187418,6,0,L|118:15,2,34.1249984378815,0|0|0,1:0|1:0|1:0,1:0:0:0:
383,56,187595,2,0,L|393:17,2,34.1249984378815,0|0|0,1:0|1:0|1:0,1:0:0:0:
63,121,187773,2,0,L|52:83,2,34.1249984378815,0|0|0,1:0|1:0|1:0,1:0:0:0:
460,113,187950,2,0,L|470:74,2,34.1249984378815,0|0|0,1:0|1:0|1:0,1:0:0:0:
250,383,188128,6,0,B|41:347|153:22|389:114|389:114|314:90|268:100|224:124|224:124|208:136|188:160,1,735,4|0,1:0|0:0,0:0:0:0:
438,344,189581,6,0,B|501:303|508:246|493:37|231:187|270:300|270:300|310:277|344:257|417:250,1,588,6|0,0:1|0:0,0:0:0:0:
253,373,191031,2,0,B|154:331|192:201|274:132,1,252,2|0,0:0|0:0,0:0:0:0:
336,134,191756,2,0,B|292:88|246:87|246:87|189:88|144:188,1,252
301,320,192481,6,0,P|357:247|247:338,1,735,2|0,0:0|0:0,0:0:0:0:
378,334,193931,2,0,B|448:246|439:181|351:156|305:108,1,252,2|0,0:0|0:0,0:0:0:0:
453,353,194656,2,0,B|489:292|500:245|499:191|473:151|411:102,1,252,2|0,0:0|0:0,0:0:0:0:
123,294,195381,6,0,B|-31:277|40:107|123:112,1,252,2|0,0:1|0:0,0:0:0:0:
219,288,196106,2,0,B|231:175|199:110|59:119,1,252
219,288,196831,2,0,B|322:378|350:206|462:313,1,252,2|0,0:0|0:0,0:0:0:0:
278,239,197556,2,0,B|185:204|157:91|316:58,1,252,2|0,0:0|0:0,0:0:0:0:
430,54,198281,6,0,B|337:52|300:144|343:180|394:221|435:225|463:205|460:175|434:153|400:160|361:175|295:213|275:302|208:131|79:206,1,588,2|0,0:0|0:0,0:0:0:0:
221,312,199732,2,0,B|323:247|262:111|209:90,1,252,2|0,0:0|0:0,0:0:0:0:
111,189,200457,2,0,B|218:256|251:141|356:206,1,252,2|0,0:0|0:0,0:0:0:0:
110,271,201154,5,6,0:1:0:0:
37,240,201334,1,0,0:0:0:0:
39,161,201515,1,0,0:0:0:0:
114,135,201696,1,0,0:0:0:0:
229,123,201876,2,0,L|326:83,1,105
204,52,202238,2,0,L|95:27,1,105
276,264,202598,5,2,0:0:0:0:
180,218,202779,1,0,0:0:0:0:
182,118,202960,1,0,0:0:0:0:
279,76,203141,1,0,0:0:0:0:
408,222,203322,2,0,L|414:101,1,105
280,150,203684,2,0,L|285:34,1,105
146,256,204045,5,2,0:0:0:0:
59,207,204225,1,0,0:0:0:0:
65,108,204406,1,0,0:0:0:0:
158,71,204587,1,0,0:0:0:0:
272,270,204768,1,0,0:0:0:0:
364,233,204949,1,0,0:0:0:0:
371,134,205130,1,0,0:0:0:0:
284,85,205310,1,0,0:0:0:0:
156,78,205491,6,0,L|27:43,3,105,2|0|0|0,0:0|0:0|0:0|0:0,0:0:0:0:
170,334,206213,1,0,0:0:0:0:
230,254,206393,1,0,0:0:0:0:
184,166,206574,1,0,0:0:0:0:
85,147,206755,1,0,0:0:0:0:
328,270,206936,5,2,0:1:0:0:
400,200,207116,1,0,0:0:0:0:
381,101,207297,1,0,0:0:0:0:
288,63,207478,1,0,0:0:0:0:
165,108,207660,1,0,0:0:0:0:
268,92,207840,1,0,0:0:0:0:
372,76,208021,1,0,0:0:0:0:
476,60,208202,1,0,0:0:0:0:
310,314,208382,5,2,0:0:0:0:
210,288,208562,1,0,0:0:0:0:
150,205,208743,1,0,0:0:0:0:
158,102,208924,1,0,0:0:0:0:
307,93,209105,1,2,0:0:0:0:
167,68,209286,1,0,0:0:0:0:
326,155,209467,1,2,0:0:0:0:
149,167,209648,1,0,0:0:0:0:
256,192,209829,12,0,212720,1:0:0:0:
131,192,215597,5,4,1:3:0:0:
380,192,217057,5,4,1:3:0:0:
105,134,217784,2,0,L|389:-15,1,315,4|0,1:0|0:0,0:0:0:0:
26,265,218511,6,0,L|21:150,1,105,4|0,1:0|1:0,1:0:0:0:
176,265,218871,2,0,L|171:150,1,105,0|0,1:0|1:0,1:0:0:0:
486,265,219233,2,0,L|490:160,1,105,0|0,1:0|1:0,1:0:0:0:
340,263,219594,2,0,L|344:158,1,105,0|0,1:0|1:0,1:0:0:0:
61,98,219956,6,0,L|194:82,1,105,0|0,1:0|1:0,1:0:0:0:
451,98,220317,2,0,L|318:82,1,105,0|0,1:0|1:0,1:0:0:0:
67,164,220678,1,0,1:0:0:0:
351,178,220858,1,0,1:0:0:0:
63,109,221039,1,0,1:0:0:0:
419,147,221220,2,8,L|399:90,1,52.5,8|8,0:3|0:3,0:3:0:0:
152,176,221394,6,0,P|100:223|293:176,1,735,4|0,0:0|0:0,0:0:0:0:
86,319,222840,2,0,P|27:261|119:76,1,315,4|0,0:0|0:0,0:0:0:0:
409,319,223553,2,0,P|468:261|376:76,1,315,4|0,0:0|0:0,0:0:0:0:
134,153,224267,6,8,L|100:84,2,45.4999979171754,8|8|8,1:0|1:0|1:0,1:0:0:0:
390,153,224507,1,0,1:0:0:0:
207,64,224628,2,8,L|159:-4,2,45.4999979171754,8|8|8,1:0|1:0|1:0,1:0:0:0:
396,67,224869,1,0,1:0:0:0:
151,219,224989,6,8,L|256:215,2,90.9999958343508,8|8|8,1:0|1:0|1:0,1:0:0:0:
426,184,225359,2,8,L|321:180,2,90.9999958343508,8|8|8,1:0|1:0|1:0,1:0:0:0:
179,336,225731,5,0,0:0:0:0:
135,323,225791,1,0,0:0:0:0:
96,300,225852,1,0,0:0:0:0:
64,267,225912,1,0,0:0:0:0:
43,227,225972,1,0,0:0:0:0:
32,183,226032,1,0,0:0:0:0:
33,138,226093,1,0,0:0:0:0:
46,94,226153,1,0,0:0:0:0:
70,56,226213,1,0,0:0:0:0:
104,25,226273,1,0,0:0:0:0:
144,4,226334,1,0,0:0:0:0:
188,0,226394,1,0,0:0:0:0:
392,295,226454,5,0,0:0:0:0:
420,259,226514,1,0,0:0:0:0:
431,216,226575,1,0,0:0:0:0:
421,171,226635,1,0,0:0:0:0:
394,135,226695,1,0,0:0:0:0:
355,114,226755,1,0,0:0:0:0:
104,291,226816,1,0,0:0:0:0:
75,255,226876,1,0,0:0:0:0:
64,212,226936,1,0,0:0:0:0:
74,167,226996,1,0,0:0:0:0:
101,131,227057,1,0,0:0:0:0:
140,110,227117,1,0,0:0:0:0:
403,170,227176,6,0,L|173:78,1,236.250009012223,6|0,1:1|0:0,0:0:0:0:
402,250,227539,2,0,L|428:63,1,157.500006008148,12|0,1:0|0:0,0:0:0:0:
163,70,227900,1,4,1:0:0:0:
420,38,228080,1,0,1:0:0:0:
71,203,228262,2,0,L|267:176,1,157.500006008148,12|0,0:0|0:0,0:0:0:0:
476,149,228623,6,0,L|293:131,1,157.500006008148,4|0,1:0|0:0,0:0:0:0:
56,266,228985,2,0,L|52:88,1,157.500006008148,12|0,0:0|0:0,0:0:0:0:
426,278,229346,2,0,P|456:182|439:80,1,157.500006008148,4|0,1:0|1:0,0:0:0:0:
379,101,229617,1,0,1:0:0:0:
172,175,229706,2,0,B|31:124|31:124|30:78,1,157.500006008148,12|0,0:0|0:0,0:0:0:0:
476,128,230069,6,0,L|313:62,1,157.500006008148,4|0,1:0|0:0,0:0:0:0:
56,172,230430,2,0,L|215:114,1,157.500006008148,12|0,0:0|1:0,0:0:0:0:
280,100,230700,1,0,1:0:0:0:
63,247,230792,2,0,L|55:63,1,157.500006008148,4|0,1:0|1:0,0:0:0:0:
311,176,231152,1,12,0:0:0:0:
65,53,231334,1,0,1:0:0:0:
385,291,231515,6,0,L|395:106,1,157.500006008148,12|0,0:3|0:0,0:0:0:0:
208,211,231876,2,0,L|61:117,1,157.500006008148,8|0,0:0|0:0,0:0:0:0:
357,313,232238,2,0,P|445:211|401:113,1,236.250009012223,4|0,1:0|1:0,0:0:0:0:
215,101,232599,2,0,L|126:-5,1,78.7500030040742,8|0,0:0|0:0,0:0:0:0:
329,120,232780,2,0,L|399:38,1,78.7500030040742,0|0,1:0|1:0,1:0:0:0:
145,297,232959,6,0,P|42:249|186:166,1,315.000012016297,4|8,1:0|0:0,0:0:0:0:
314,150,233503,1,0,0:0:0:0:
58,225,233682,2,0,L|49:38,1,157.500006008148,4|0,1:0|0:0,0:0:0:0:
309,79,234045,2,0,L|495:50,1,157.500006008148,12|0,0:0|0:0,0:0:0:0:
176,260,234405,6,0,L|493:91,1,315.000012016297,4|12,1:0|0:0,0:0:0:0:
342,213,234947,1,0,0:0:0:0:
36,120,235128,2,0,L|208:28,1,157.500006008148,4|0,1:0|1:0,0:0:0:0:
255,20,235399,1,0,1:0:0:0:
476,120,235490,2,0,L|306:5,1,157.500006008148,12|0,0:0|0:0,0:0:0:0:
29,154,235852,6,0,L|235:150,1,157.500006008148,4|0,1:0|0:0,0:0:0:0:
479,155,236212,2,0,L|312:151,1,157.500006008148,12|0,0:0|0:0,0:0:0:0:
24,117,236575,1,0,1:0:0:0:
485,223,236756,2,8,L|464:116,1,78.7500030040742,8|8,0:3|0:3,0:3:0:0:
299,112,236935,2,8,L|200:108,1,78.7500030040742,8|8,0:3|0:3,0:3:0:0:
33,132,237116,2,8,L|43:17,1,78.7500030040742,8|8,0:3|0:3,0:3:0:0:
368,256,237297,6,0,L|469:215,1,78.7500030040742,4|0,1:0|0:0,0:0:0:0:
156,239,237477,2,8,L|141:126,1,78.7500030040742
346,174,237658,2,0,L|445:140,1,78.7500030040742,4|0,1:0|0:0,0:0:0:0:
161,216,237839,2,8,L|144:92,1,78.7500030040742
317,100,238020,6,0,L|409:72,1,78.7500030040742,4|0,1:0|0:0,0:0:0:0:
171,206,238201,2,8,L|157:112,1,78.7500030040742
313,54,238381,2,8,L|415:6,1,78.7500030040742,12|8,0:0|0:0,0:0:0:0:
187,88,238562,2,8,L|92:36,1,78.7500030040742
424,264,238744,6,0,P|473:199|387:124,1,157.500006008148,4|0,1:0|0:0,0:0:0:0:
176,221,239105,2,0,L|24:76,1,157.500006008148,12|0,0:0|0:0,0:0:0:0:
196,136,239465,2,0,L|344:44,1,157.500006008148,4|0,1:0|0:0,0:0:0:0:
84,318,239827,2,0,P|71:222|101:52,1,236.250009012223,12|0,0:0|0:0,0:0:0:0:
284,256,240188,6,0,L|423:155,1,157.500006008148,4|0,1:0|0:0,0:0:0:0:
256,184,240550,2,0,L|96:44,1,157.500006008148,12|0,0:0|0:0,0:0:0:0:
192,84,240822,1,0,1:0:0:0:
454,260,240911,2,0,L|461:37,1,157.500006008148,4|0,1:0|0:0,0:0:0:0:
187,71,241273,2,0,L|373:202,1,157.500006008148,12|0,0:0|0:0,0:0:0:0:
47,184,241634,5,4,1:0:0:0:
339,210,241815,1,0,0:0:0:0:
52,230,241997,2,0,P|32:136|116:48,1,157.500006008148,12|0,0:0|0:0,0:0:0:0:
484,144,242358,2,0,L|300:48,1,157.500006008148,4|0,1:0|1:0,1:0:0:0:
41,138,242718,2,0,L|249:124,1,157.500006008148,12|0,0:0|0:0,0:0:0:0:
481,138,243080,6,0,B|340:66|340:66|291:44,2,157.500006008148,4|0|12,1:0|0:0|0:0,0:0:0:0:
120,227,243623,2,0,L|295:91,2,157.500006008148,0|4|0,0:0|1:0|0:0,0:0:0:0:
469,294,244165,2,0,P|471:178|419:111,1,157.500006008148,8|0,0:0|0:0,0:0:0:0:
185,254,244526,5,12,1:0:0:0:
121,220,244616,1,0,1:0:0:0:
120,128,244706,1,0,1:0:0:0:
169,71,244797,1,0,1:0:0:0:
258,63,244888,2,0,L|390:26,1,78.7500030040742,0|0,1:0|1:0,1:0:0:0:
160,221,245069,2,0,L|39:152,1,78.7500030040742,0|0,1:0|1:0,1:0:0:0:
248,169,245250,2,0,L|339:135,1,78.7500030040742,8|0,1:0|1:0,1:0:0:0:
257,110,245429,2,0,L|156:69,1,78.7500030040742,0|0,1:0|1:0,1:0:0:0:
378,320,245610,5,8,1:0:0:0:
458,286,245700,1,0,1:0:0:0:
483,209,245791,1,0,1:0:0:0:
470,126,245881,1,0,1:0:0:0:
390,93,245970,1,0,1:0:0:0:
295,94,246061,1,0,1:0:0:0:
108,207,246152,1,0,1:0:0:0:
41,148,246243,1,0,1:0:0:0:
291,274,246333,2,0,L|302:161,1,78.7500030040742,8|0,1:0|1:0,1:0:0:0:
146,182,246514,2,0,L|159:64,1,78.7500030040742,0|0,1:0|1:0,1:0:0:0:
339,161,246695,6,0,L|433:87,1,78.7500030040742,8|0,1:0|1:0,1:0:0:0:
173,161,246875,2,0,L|64:85,1,78.7500030040742,0|0,1:0|1:0,1:0:0:0:
427,252,247055,2,0,L|455:146,1,78.7500030040742,8|0,1:0|1:0,1:0:0:0:
85,252,247236,2,0,L|57:146,1,78.7500030040742,0|0,1:0|1:0,1:0:0:0:
265,128,247417,6,0,L|429:13,1,157.500006008148,4|0,1:0|1:0,1:0:0:0:
246,222,247780,2,0,L|85:101,1,157.500006008148,0|0,1:0|1:0,1:0:0:0:
442,254,248141,2,8,L|447:54,1,157.500006008148,8|8,1:0|1:0,1:0:0:0:
164,83,248503,1,8,1:0:0:0:
446,65,248682,1,8,1:0:0:0:
190,261,248863,6,0,L|153:150,1,78.7500030040742,4|0,1:0|1:0,1:0:0:0:
322,260,249044,2,0,L|359:149,1,78.7500030040742,0|0,1:0|1:0,1:0:0:0:
190,261,249225,2,0,L|153:150,1,78.7500030040742,0|0,1:0|1:0,1:0:0:0:
322,260,249406,2,0,L|359:149,1,78.7500030040742,0|0,1:0|1:0,1:0:0:0:
96,279,249585,6,0,L|202:209,1,78.7500030040742,0|0,1:0|1:0,1:0:0:0:
416,279,249767,2,0,L|310:209,1,78.7500030040742,0|0,1:0|1:0,1:0:0:0:
96,279,249948,2,0,L|202:209,1,78.7500030040742,0|0,1:0|1:0,1:0:0:0:
416,279,250128,2,0,L|310:209,1,78.7500030040742,0|0,1:0|1:0,1:0:0:0:
29,128,250309,6,0,L|207:99,1,157.500006008148,4|0,1:0|0:0,0:0:0:0:
483,128,250670,2,0,L|298:119,1,157.500006008148,12|0,0:0|0:0,0:0:0:0:
50,298,251033,2,0,L|43:103,1,157.500006008148,4|0,1:0|1:0,0:0:0:0:
289,177,251393,1,12,0:0:0:0:
37,74,251573,1,0,1:0:0:0:
458,246,251754,6,0,L|459:51,1,157.500006008148,4|0,1:0|0:0,0:0:0:0:
215,171,252116,2,0,L|422:133,1,157.500006008148,12|0,0:0|0:0,0:0:0:0:
62,116,252477,2,0,P|249:186|292:269,1,236.250009012223,4|0,1:0|1:0,0:0:0:0:
55,233,252839,2,0,P|24:177|53:69,1,157.500006008148,12|0,0:0|1:0,0:0:0:0:
322,128,253200,6,0,B|445:81|445:81|432:24,1,157.500006008148,4|0,1:0|0:0,0:0:0:0:
268,216,253563,2,0,P|172:148|148:68,1,157.500006008148,12|0,0:0|0:0,0:0:0:0:
464,256,253923,2,0,L|467:46,1,157.500006008148,4|0,1:0|1:0,0:0:0:0:
224,104,254285,1,12,0:0:0:0:
468,36,254466,1,0,1:0:0:0:
56,312,254647,6,0,P|24:216|72:32,1,236.250009012223,4|0,1:0|0:0,0:0:0:0:
205,166,255008,2,0,L|363:55,1,157.500006008148,12|0,0:0|0:0,0:0:0:0:
187,210,255369,2,0,L|44:64,1,157.500006008148,4|0,1:0|0:0,0:0:0:0:
367,292,255731,2,8,L|360:169,1,78.7500030040742
135,178,255912,2,0,L|14:132,1,78.7500030040742,0|0,1:0|1:0,1:0:0:0:
342,215,256092,6,0,L|544:109,1,157.500006008148,4|0,1:0|0:0,0:0:0:0:
135,142,256453,2,0,L|310:80,1,157.500006008148,12|0,0:0|0:0,0:0:0:0:
129,302,256816,2,0,L|112:116,1,157.500006008148,4|0,1:0|0:0,0:0:0:0:
289,224,257176,2,0,L|428:87,1,157.500006008148,12|0,0:0|0:0,0:0:0:0:
58,310,257539,6,0,L|50:102,1,157.500006008148,4|0,1:0|0:0,0:0:0:0:
328,77,257899,2,0,L|140:33,1,157.500006008148,12|0,0:0|0:0,0:0:0:0:
433,211,258262,1,4,1:0:0:0:
153,168,258441,1,0,1:0:0:0:
452,254,258622,2,0,P|473:132|455:52,1,157.500006008148,12|0,0:0|1:0,0:0:0:0:
374,39,258893,1,0,1:0:0:0:
172,277,258985,6,0,P|77:218|201:96,1,315.000012016297,4|8,1:0|0:0,0:0:0:0:
320,120,259527,2,8,L|214:38,1,78.7500030040742
79,266,259706,2,0,L|74:79,1,157.500006008148,4|0,1:0|1:0,0:0:0:0:
336,219,260069,2,0,L|475:74,1,157.500006008148,8|0,0:0|1:0,0:0:0:0:
54,247,260409,6,0,P|40:146|99:91,1,157.500006008148,4|0,1:0|1:0,0:0:0:0:
159,80,260680,1,0,1:0:0:0:
353,264,260770,2,0,L|192:108,1,157.500006008148,4|0,0:0|1:0,0:0:0:0:
164,80,261041,1,0,1:0:0:0:
420,312,261131,2,0,P|476:219|407:155,1,157.500006008148,4|0,1:0|1:0,0:0:0:0:
392,104,261403,1,0,1:0:0:0:
160,169,261493,1,4,1:0:0:0:
235,141,261582,1,0,1:0:0:0:
310,114,261674,1,0,1:0:0:0:
386,87,261764,1,0,1:0:0:0:
177,331,261875,6,0,P|100:295|203:153,1,293.999991027832,4|0,0:0|0:0,0:0:0:0:
311,158,262417,1,0,1:0:0:0:
68,297,262597,2,0,L|61:135,1,146.999995513916,12|0,0:0|0:0,0:0:0:0:
362,291,262959,2,0,L|367:118,1,146.999995513916,12|0,0:0|0:0,0:0:0:0:
55,128,263320,6,0,L|341:21,1,293.999991027832,4|0,1:0|0:0,0:0:0:0:
209,186,263862,1,0,1:0:0:0:
481,146,264043,1,12,0:0:0:0:
206,102,264224,1,12,0:0:0:0:
476,264,264405,2,0,P|482:174|406:62,1,220.499993270874,12|0,0:0|0:0,0:0:0:0:
128,296,264766,6,0,P|133:212|309:112,1,293.999991027832,4|0,1:0|0:0,0:0:0:0:
140,64,265308,1,0,1:0:0:0:
444,297,265489,2,0,L|451:135,1,146.999995513916,12|0,0:0|0:0,0:0:0:0:
150,291,265850,2,0,L|145:118,1,146.999995513916,12|0,0:0|0:0,0:0:0:0:
429,118,266214,5,4,1:0:0:0:
108,254,266390,2,0,P|23:204|139:87,1,293.999991027832,0|0,1:0|1:0,0:0:0:0:
469,158,266919,1,8,0:0:0:0:
139,122,267096,2,0,L|244:112,1,73.4999977569581,0|0,1:0|1:0,1:0:0:0:
408,192,267271,2,0,P|400:108|352:72,1,105,0|0,1:0|1:0,0:0:0:0:
133,136,267645,6,0,L|315:44,1,178.500003404617,12|0,1:0|1:0,1:0:0:0:
52,44,268006,1,0,1:0:0:0:
401,123,268187,1,12,1:0:0:0:
39,167,268368,2,0,L|231:134,1,178.500003404617,0|0,1:0|1:0,1:0:0:0:
482,168,268729,2,0,L|290:135,1,178.500003404617,12|0,1:0|1:0,1:0:0:0:
42,117,269090,5,12,1:0:0:0:
323,276,269271,2,0,P|346:196|301:91,1,178.500003404617,0|0,1:0|1:0,1:0:0:0:
43,81,269632,1,12,1:0:0:0:
290,92,269813,2,0,L|106:157,1,178.500003404617,0|0,1:0|1:0,1:0:0:0:
478,352,270175,2,0,P|488:157|462:68,1,267.750005106926,12|0,1:0|0:0,0:0:0:0:
142,189,270536,6,0,L|165:191,1,23.6249992790222,4|0,0:0|0:0,0:0:0:0:
395,186,270898,2,0,L|371:189,1,23.6249992790222
103,173,271259,2,0,L|126:169,1,23.6249992790222,0|0,0:0|0:0,0:0:0:0:
442,169,271620,2,0,L|418:167,1,23.6249992790222
18,179,271982,6,0,L|40:176,1,23.6249992790222,4|0,0:0|0:0,0:0:0:0:
484,180,272343,2,0,L|464:165,1,23.6249992790222
68,236,272705,2,0,L|72:118,1,94.499997116089
386,116,272885,2,0,L|372:-10,1,94.499997116089
50,145,273066,2,0,L|46:26,1,94.499997116089
280,228,273247,2,0,L|368:151,1,94.499997116089,0|0,0:0|1:0,0:0:0:0:
258,242,273428,6,0,P|192:156|257:81,1,210,4|0,0:0|3:0,0:0:0:0:
380,68,273970,1,8,0:0:0:0:
254,278,274153,2,0,L|52:154,1,210,0|0,3:0|0:0,0:0:0:0:
198,179,274696,1,0,0:0:0:0:
308,337,274878,5,0,3:0:0:0:
391,278,275059,1,0,0:0:0:0:
405,177,275240,1,8,0:0:0:0:
327,227,275421,2,0,P|248:199|275:57,1,210,0|0,3:0|0:0,0:0:0:0:
339,68,275965,1,8,0:0:0:0:
92,241,276328,6,0,L|77:162,2,52.5,8|0|0,0:0|0:0|0:0,0:0:0:0:
208,232,276690,2,0,L|338:166,1,105,0|8,0:0|0:0,0:0:0:0:
162,162,277053,2,0,L|159:40,1,105,0|0,3:0|0:0,0:0:0:0:
305,346,277415,5,0,0:0:0:0:
392,292,277597,1,0,3:0:0:0:
424,194,277778,1,0,0:0:0:0:
384,99,277959,1,0,0:0:0:0:
280,57,278140,2,0,L|137:16,1,105,8|0,0:0|0:0,0:0:0:0:
361,224,278503,2,0,L|381:161,2,52.5,0|0|0,3:0|0:0|0:0,0:0:0:0:
248,206,278866,6,0,L|32:137,1,210,8|8,0:0|0:0,0:0:0:0:
146,289,279409,1,0,0:0:0:0:
177,191,279591,1,0,0:0:0:0:
140,95,279772,1,8,0:0:0:0:
50,44,279953,2,0,L|245:121,1,210,0|2,3:0|0:0,0:0:0:0:
345,153,280497,1,0,0:0:0:0:
232,296,280678,6,0,L|220:176,1,105,0|0,3:0|3:0,0:0:0:0:
360,172,281041,2,0,L|468:112,1,105,8|0,0:0|0:0,0:0:0:0:
336,292,281403,1,0,3:0:0:0:
334,239,281493,1,0,0:0:0:0:
332,187,281585,1,0,0:0:0:0:
196,152,281766,2,8,L|80:108,1,105
224,332,282128,5,8,0:0:0:0:
302,267,282310,1,0,0:0:0:0:
300,166,282491,1,0,0:0:0:0:
219,105,282672,1,8,0:0:0:0:
108,88,282853,2,0,L|40:44,2,70
204,100,283216,2,0,L|320:92,1,105,0|0,3:0|3:0,3:0:0:0:
200,332,283579,6,0,P|136:272|224:192,1,210,2|0,0:0|3:0,0:0:0:0:
424,236,284304,2,0,L|428:88,1,105,0|0,3:0|3:0,3:0:0:0:
306,174,284666,6,0,L|90:78,1,210,0|2,0:0|0:1,0:0:0:0:
317,261,285390,1,0,0:0:0:0:
113,311,285745,2,0,L|108:92,1,210
354,325,286457,6,0,B|441:296|494:192|426:63|110:173|150:317|150:317|164:265|196:224|251:214,1,661.499979812623,2|0,0:0|0:0,0:0:0:0:
342,248,287902,6,0,P|358:97|346:17,1,188.999994232178,2|0,0:0|0:0,0:0:0:0:
167,234,288625,2,0,P|155:165|152:97,2,94.499997116089,2|0|0,0:0|0:0|0:0,0:0:0:0:
359,221,289348,2,0,B|262:187|269:258|165:217,2,188.999994232178,2|0|0,0:0|0:0|0:0,0:0:0:0:
68,272,290794,6,0,P|71:200|186:91,1,210,2|0,0:0|0:0,0:0:0:0:
348,200,291558,1,2,0:0:0:0:
152,152,291963,1,2,0:0:0:0:
374,289,292368,6,0,B|409:214|378:131|349:66|251:66|174:64|118:96|72:155|61:207|69:243|105:308|105:308|132:330|212:337|239:338|275:337|316:327,1,735,2|0,0:0|0:0,0:0:0:0:
396,251,294186,1,2,0:1:0:0:
142,209,294721,1,0,0:0:0:0:
396,136,295238,1,0,0:0:0:0:
101,113,295838,1,0,0:0:0:0:
256,192,296138,12,0,300638,0:0:0:0:
