osu file format v14

[General]
AudioFilename: MY FIRST STORY -The Story Is My Life - PV.mp3
AudioLeadIn: 0
PreviewTime: 75437
Countdown: 0
SampleSet: Soft
StackLeniency: 0.5
Mode: 0
LetterboxInBreaks: 1
WidescreenStoryboard: 0

[Editor]
DistanceSpacing: 1
BeatDivisor: 4
GridSize: 8
TimelineZoom: 2.2

[Metadata]
Title:The Story is My Life
TitleUnicode:The Story is My Life
Artist:MY FIRST STORY
ArtistUnicode:MY FIRST STORY
Creator:Makoa
Version:INSANE
Source:
Tags:Japanese rock
BeatmapID:416763
BeatmapSetID:172443

[Difficulty]
HPDrainRate:4
CircleSize:4
OverallDifficulty:7
ApproachRate:9
SliderMultiplier:1.6
SliderTickRate:1

[Events]
//Background and Video events
0,0,"Turtles.jpg",0,0
//Break Periods
2,21922,23266
2,230066,232695
//Storyboard Layer 0 (Background)
//Storyboard Layer 1 (Fail)
//Storyboard Layer 2 (Pass)
//Storyboard Layer 3 (Foreground)
//Storyboard Sound Samples

[TimingPoints]
295.058905854836,285.714285714286,4,2,0,50,1,0
12866,-100,4,2,0,50,0,0
23866,-200,4,2,0,50,0,0
26009,-100,4,2,0,50,0,0
35437,-200,4,2,0,50,0,0
36866,-100,4,2,0,50,0,0
39437,-66.6666666666667,4,2,0,50,0,0
40152,-100,4,2,0,50,0,0
46009,-133.333333333333,4,2,0,50,0,0
47437,-100,4,2,0,50,0,0
58437,-66.6666666666667,4,2,0,50,0,0
60866,-133.333333333333,4,2,0,50,0,0
63152,-66.6666666666667,4,2,0,50,0,0
65437,-133.333333333333,4,2,0,50,0,0
67723,-200,4,2,0,50,0,0
72295,-133.333333333333,4,2,0,50,0,0
76723,-100,4,2,0,50,0,1
84009,-200,4,2,0,50,0,0
84295,-133.333333333333,4,2,0,50,0,0
84580,-80,4,2,0,50,0,0
84866,-66.6666666666667,4,2,0,50,0,0
85152,-57.1428571428571,4,2,0,50,0,0
85437,-50,4,2,0,50,0,0
85723,-100,4,2,0,50,0,0
104152,-200,4,2,0,50,0,0
104723,-100,4,2,0,50,0,0
120866,-66.6666666666667,4,2,0,50,0,0
122009,-100,4,2,0,50,0,0
122580,-66.6666666666667,4,2,0,50,0,0
124437,-100,4,2,0,50,0,0
127152,-66.6666666666667,4,2,0,50,0,0
129009,-100,4,2,0,50,0,0
136295,-200,4,2,0,50,0,0
138580,-100,4,2,0,50,0,0
140723,-100,4,2,0,50,0,1
148009,-100,4,2,0,50,0,0
159152,-200,4,2,0,50,0,0
175580,-100,4,2,0,50,0,0
204866,-80,4,2,0,50,0,1
213866,-133.333333333333,4,2,0,50,0,0
223009,-100,4,2,0,50,0,0
233295,-90.9090909090909,4,2,0,50,0,1
252009,-66.6666666666667,4,2,0,50,0,1
254009,-100,4,2,0,5,0,1
260866,-100,4,2,0,5,0,0

[HitObjects]
256,192,12866,12,0,14866,0:0:0:0:
296,99,15152,6,0,B|296:112|296:112|296:96|296:96|288:112|288:112|288:96|288:96|280:112|280:112|280:96|280:96|272:112|272:112|272:96|272:96|264:112|264:112|264:96|264:96|256:112|256:112|256:96|256:96|248:112|248:112|248:96|248:96|240:112|240:112|240:96|240:96|232:112|232:112|232:96|232:96|224:112|224:112|224:96|224:96|216:104,1,320
324,208,16295,2,0,B|312:208|312:208|328:208|328:208|312:200|312:200|328:200|328:200|312:192|312:192|328:192|328:192|312:184|312:184|328:184|328:184|312:176|312:176|328:176|328:176|312:168|312:168|328:168|328:168|312:160|312:160|328:160|328:160|312:152|312:152|328:152|328:152|312:144|312:144|328:144|328:144|312:136|312:136|328:136|328:136|320:128,1,320
216,227,17437,2,0,B|216:240|216:240|216:224|216:224|224:240|224:240|224:224|224:224|232:240|232:240|232:224|232:224|240:240|240:240|240:224|240:224|248:240|248:240|248:224|248:224|256:240|256:240|256:224|256:224|264:240|264:240|264:224|264:224|272:240|272:240|272:224|272:224|280:240|280:240|280:224|280:224|288:240|288:240|288:224|288:224|296:232,1,320
184,200,18580,6,0,P|152:161|151:119,1,80
257,222,18866,2,0,P|206:217|176:188,1,80
329,203,19152,2,0,P|283:225|242:216,1,80
382,148,19437,2,0,P|354:190|315:204,1,80
307,279,19723,6,0,P|281:317|232:314,1,80
201,256,20009,1,0,0:0:0:0:
201,256,20080,1,0,0:0:0:0:
201,256,20152,2,0,P|145:240|133:257,1,80
136,169,20437,2,0,P|164:133|197:113,1,80
257,162,20723,2,0,P|303:137|346:131,1,80
357,207,21009,5,0,0:0:0:0:
357,207,21080,1,0,0:0:0:0:
357,207,21152,1,8,0:0:0:0:
293,255,21295,2,0,L|334:285,2,40,0|0|8,0:0|0:0|0:0,0:0:0:0:
201,256,21580,2,0,L|178:228,3,26.6666666666667,0|0|0|8,0:0|0:0|0:0|0:0,0:0:0:0:
185,147,23866,6,0,P|235:132|264:153,2,80
201,226,26009,5,0,0:0:0:0:
201,226,26152,1,0,0:0:0:0:
201,226,26437,2,0,P|218:278|318:270,1,160
338,203,26866,2,0,P|344:157|331:120,2,80
258,192,27295,1,0,0:0:0:0:
267,110,27437,2,0,P|221:104|184:117,2,80
258,192,27866,1,0,0:0:0:0:
174,181,28009,2,0,P|168:227|181:264,2,80
202,106,28437,1,0,0:0:0:0:
277,132,28580,1,0,0:0:0:0:
299,55,28723,6,0,P|356:100|317:196,1,160
422,178,29152,2,0,P|390:232|343:254,1,80
451,269,29437,2,0,P|411:303|367:316,1,80
306,297,29723,1,0,0:0:0:0:
234,260,29866,2,0,B|197:228|197:228|154:235|100:135,1,160
173,105,30295,1,0,0:0:0:0:
173,105,30437,1,0,0:0:0:0:
252,92,30580,2,0,P|303:70|343:84,1,80
345,147,30866,1,0,0:0:0:0:
348,150,31009,6,0,P|309:188|292:297,1,160
201,239,31437,2,0,P|170:225|142:175,2,80
219,160,31866,1,0,0:0:0:0:
212,80,32009,2,0,P|265:84|284:106,2,80
219,160,32437,1,0,0:0:0:0:
297,177,32580,2,0,P|364:203|380:206,1,80
394,127,32866,1,0,0:0:0:0:
448,185,33009,2,0,B|454:267|454:267|376:282|344:282,2,160
446,104,33723,6,0,P|420:71|383:48,2,80
379,150,34152,1,0,0:0:0:0:
326,89,34295,2,0,P|299:129|303:171,1,80
225,128,34580,2,0,P|223:176|238:211,2,80
294,169,35009,2,0,P|310:221|307:253,1,80
308,245,35295,1,0,0:0:0:0:
229,238,35580,6,0,P|194:272|130:245,2,120
242,200,36580,2,0,P|243:170|257:149,1,40
300,101,36866,5,0,0:0:0:0:
365,147,37009,2,0,P|398:197|401:220,1,80
320,217,37295,5,0,0:0:0:0:
385,171,37438,2,0,P|418:121|421:98,1,80
340,99,37723,5,0,0:0:0:0:
261,83,37866,2,0,P|182:90|190:233,1,240
227,162,38437,1,0,0:0:0:0:
260,234,38580,2,0,P|253:280|197:315,1,80
307,328,38866,1,0,0:0:0:0:
387,328,39009,2,0,L|399:160,1,160
301,96,39437,5,0,0:0:0:0:
257,208,39580,1,0,0:0:0:0:
358,144,39723,1,0,0:0:0:0:
238,138,39866,1,0,0:0:0:0:
332,212,40009,1,0,0:0:0:0:
239,288,40152,6,0,P|172:284|122:204,1,160
145,135,40580,1,0,0:0:0:0:
292,72,40866,1,0,0:0:0:0:
197,201,41152,1,0,0:0:0:0:
345,142,41437,1,0,0:0:0:0:
247,269,41723,1,0,0:0:0:0:
326,262,41866,1,0,0:0:0:0:
383,205,42009,1,0,0:0:0:0:
404,127,42152,1,0,0:0:0:0:
378,51,42295,1,0,0:0:0:0:
313,97,42437,6,0,P|294:169|191:181,1,160,0|0,0:0|0:0,0:0:0:0:
233,113,42866,1,0,0:0:0:0:
120,227,43152,1,0,0:0:0:0:
231,341,43437,1,0,0:0:0:0:
338,222,43723,2,0,L|268:294,1,80
376,151,44009,2,0,L|330:237,1,80
386,71,44295,2,0,L|375:159,1,80
308,108,44580,1,0,0:0:0:0:
267,38,44723,6,0,P|224:99|270:179,1,160
190,218,45152,1,0,0:0:0:0:
307,325,45437,1,0,0:0:0:0:
416,207,45723,1,0,0:0:0:0:
372,95,46009,2,0,P|332:71|255:103,1,120.000004577637
239,105,46437,1,0,0:0:0:0:
212,118,46580,1,0,0:0:0:0:
185,133,46723,1,0,0:0:0:0:
158,147,46866,1,0,0:0:0:0:
131,161,47009,2,0,P|119:198|168:269,1,120.000004577637
224,221,47437,5,0,0:0:0:0:
363,142,47723,2,0,L|311:225,1,80
281,139,48009,1,0,0:0:0:0:
249,65,48152,2,0,L|199:133,1,80
121,137,48437,2,0,L|164:60,1,80
159,228,48866,2,0,P|226:267|243:286,1,80
270,200,49152,1,0,0:0:0:0:
318,263,49295,2,0,P|351:207|303:129,1,160
228,123,49723,5,0,0:0:0:0:
384,88,50009,2,0,L|405:174,1,80
408,246,50295,1,0,0:0:0:0:
338,285,50438,2,0,L|258:240,1,80
198,206,50723,2,0,L|241:129,1,80
116,31,51152,2,0,P|49:70|32:89,1,80
65,149,51438,1,0,0:0:0:0:
61,229,51581,2,0,P|122:207|135:116,1,160
214,99,52009,5,0,0:0:0:0:
373,111,52295,2,0,L|321:194,1,80
261,220,52581,1,0,0:0:0:0:
191,179,52724,2,0,L|145:108,1,80
68,124,53009,2,0,L|122:205,1,80
237,291,53438,2,0,P|316:266|330:243,1,80
256,211,53724,1,0,0:0:0:0:
322,166,53867,2,0,P|269:127|187:166,1,160
254,209,54295,5,0,0:0:0:0:
115,130,54581,2,0,L|167:213,1,80
197,127,54867,1,0,0:0:0:0:
229,53,55010,2,0,L|279:121,1,80
357,125,55295,2,0,L|313:48,1,80
319,216,55724,2,0,P|252:255|235:274,1,80
208,188,56010,1,0,0:0:0:0:
160,251,56153,2,0,P|127:195|175:117,1,160
249,128,56580,6,0,P|281:178|271:219,1,80
349,154,56866,2,0,P|347:222|323:252,1,80
285,287,57152,1,0,0:0:0:0:
182,164,57437,1,0,0:0:0:0:
208,88,57580,1,0,0:0:0:0:
208,88,57652,1,0,0:0:0:0:
208,88,57723,2,0,L|271:162,1,80
293,75,58009,1,0,0:0:0:0:
293,75,58080,1,0,0:0:0:0:
293,75,58152,2,0,L|363:135,1,80
372,245,58437,6,0,L|237:245,1,120.000004577637
132,224,58723,2,0,P|89:174|66:118,2,120.000004577637
217,138,59152,1,0,0:0:0:0:
255,251,59295,1,0,0:0:0:0:
132,224,59437,1,0,0:0:0:0:
217,138,59580,2,0,B|303:106|398:88|398:88|372:140,2,240.000009155274
217,138,60437,2,0,L|115:62,1,120.000004577637
95,184,60723,1,0,0:0:0:0:
179,278,60866,5,0,0:0:0:0:
239,275,61009,2,0,L|309:237,1,60.0000022888184
333,106,61295,5,0,0:0:0:0:
273,109,61438,2,0,L|203:147,1,60.0000022888184
333,272,61723,2,0,L|351:195,1,60.0000022888184
146,141,62009,2,0,L|179:193,1,60.0000022888184
279,133,62295,2,0,P|326:150|345:220,1,120.000004577637
225,211,62723,2,0,L|156:187,2,60.0000022888184
368,251,63152,6,0,P|409:197|424:133,1,120.000004577637
305,120,63437,2,0,P|228:96|183:96,1,120.000004577637
79,146,63723,1,0,0:0:0:0:
154,239,63866,1,0,0:0:0:0:
54,147,64009,1,0,0:0:0:0:
165,218,64152,6,0,B|235:217|305:180|317:161|346:138|338:122|311:110|264:112,2,240.000009155274
165,218,65009,2,0,L|217:103,1,120.000004577637
289,203,65295,1,0,0:0:0:0:
405,197,65437,6,0,L|406:258,1,60.0000022888184
289,203,65723,1,0,0:0:0:0:
409,236,65866,2,0,L|373:299,1,60.0000022888184
289,203,66152,1,0,0:0:0:0:
417,275,66295,2,0,L|360:313,1,60.0000022888184
307,298,66580,1,0,0:0:0:0:
251,274,66723,2,0,P|203:242|190:228,1,60.0000022888184
181,95,67009,2,0,P|212:120|233:144,2,60.0000022888184
181,102,67437,5,0,0:0:0:0:
182,108,67723,6,0,B|225:52|319:115|280:194|280:194|398:148,1,320
397,188,69152,1,0,0:0:0:0:
380,224,69437,1,0,0:0:0:0:
346,245,69723,1,0,0:0:0:0:
313,267,70009,6,0,B|260:293|260:293|224:230|161:267|161:267|119:194|189:135,1,320
247,188,71437,1,0,0:0:0:0:
312,141,71723,1,0,0:0:0:0:
373,192,72009,1,0,0:0:0:0:
313,250,72295,2,0,B|240:283|192:209|192:209|129:208|129:208|170:147|158:57|158:57|267:102|274:49,1,480.000018310548
367,133,73723,1,0,0:0:0:0:
342,250,74009,1,0,0:0:0:0:
231,297,74295,1,0,0:0:0:0:
166,195,74580,2,0,P|210:179|276:132,1,120.000004577637
256,193,76723,6,0,P|293:155|272:215,1,160
213,255,77152,2,0,L|137:207,1,80
154,132,77437,1,0,0:0:0:0:
220,86,77580,2,0,P|253:122|315:124,1,80
355,162,77866,1,0,0:0:0:0:
347,241,78009,1,0,0:0:0:0:
272,212,78152,2,0,P|281:283|298:300,1,80
361,308,78437,1,0,0:0:0:0:
423,257,78580,1,0,0:0:0:0:
432,177,78723,2,0,P|430:119|397:79,1,80
342,78,79009,2,0,L|175:79,1,160
169,158,79437,6,0,L|93:110,1,80
91,194,79722,1,0,0:0:0:0:
130,263,79865,2,0,P|163:299|225:301,1,80
202,226,80151,1,0,0:0:0:0:
252,164,80294,1,0,0:0:0:0:
289,234,80437,2,0,P|298:305|315:322,1,80
361,256,80722,1,0,0:0:0:0:
356,176,80865,1,0,0:0:0:0:
431,202,81008,2,0,P|429:144|396:104,1,80
346,90,81294,2,0,L|179:91,1,160
153,164,81723,5,0,0:0:0:0:
73,168,81866,1,0,0:0:0:0:
73,168,81937,1,0,0:0:0:0:
73,168,82009,2,0,P|92:237|115:255,1,80
176,233,82295,2,0,P|204:275|233:296,1,80
252,216,82580,1,0,0:0:0:0:
259,136,82723,1,0,0:0:0:0:
259,136,82795,1,0,0:0:0:0:
259,136,82866,2,0,P|236:96|200:83,1,80
195,163,83152,2,0,P|224:210|274:217,1,80
317,184,83437,1,0,0:0:0:0:
393,208,83580,2,0,P|368:266|277:298,1,160
238,228,84009,6,0,L|198:227,1,40
162,296,84295,6,0,P|135:268|128:244,1,60.0000022888184
60,278,84580,6,0,P|58:224|82:183,1,100
168,174,84866,6,0,P|215:129|275:113,1,120.000004577637
250,34,85152,6,0,P|328:64|356:119,1,140.000001335144
425,70,85437,6,0,P|418:154|365:230,1,160
319,271,85723,1,0,0:0:0:0:
249,311,85866,1,0,0:0:0:0:
176,168,86152,1,0,0:0:0:0:
200,88,86295,2,0,P|256:96|280:128,1,80
352,104,86580,1,0,0:0:0:0:
352,104,86723,1,0,0:0:0:0:
296,160,86866,1,0,0:0:0:0:
296,160,86937,1,0,0:0:0:0:
296,160,87009,6,0,P|280:224|192:264,1,160
136,216,87437,1,0,0:0:0:0:
136,216,87580,1,0,0:0:0:0:
144,136,87723,1,0,0:0:0:0:
144,136,87795,1,0,0:0:0:0:
144,136,87866,2,0,P|192:104|288:128,1,160
448,160,88438,1,0,0:0:0:0:
408,232,88580,6,0,L|336:288,1,80
312,208,88866,2,0,P|248:248|216:248,1,80
240,168,89152,2,0,P|192:176|152:168,1,80
192,96,89437,2,0,P|144:88|112:72,1,80
183,23,89723,2,0,P|243:37|265:62,1,80
200,120,90009,2,0,P|256:144|272:168,1,80
323,101,90295,1,0,0:0:0:0:
401,110,90437,2,0,P|384:201|343:262,1,160
283,207,90866,1,0,0:0:0:0:
78,81,91295,5,0,0:0:0:0:
78,81,91366,1,0,0:0:0:0:
78,81,91437,1,0,0:0:0:0:
78,81,91580,2,0,P|71:138|118:233,1,160
160,163,92009,1,0,0:0:0:0:
297,81,92295,5,0,0:0:0:0:
326,154,92437,1,0,0:0:0:0:
377,92,92580,1,0,0:0:0:0:
411,164,92723,2,0,P|445:174|460:164,2,40
359,226,93009,1,0,0:0:0:0:
279,216,93152,1,0,0:0:0:0:
240,145,93295,2,0,L|178:127,2,40
256,72,93723,5,0,0:0:0:0:
400,192,94009,1,0,0:0:0:0:
256,312,94295,1,0,0:0:0:0:
112,192,94580,1,0,0:0:0:0:
152,192,94723,1,0,0:0:0:0:
192,192,94866,1,0,0:0:0:0:
231,194,95009,6,0,B|267:161|267:161|300:182|390:141,1,160
384,227,95437,2,0,P|370:292|346:306,2,80
321,175,95866,1,0,0:0:0:0:
268,114,96009,2,0,P|249:67|263:42,2,80
321,175,96437,1,0,0:0:0:0:
258,224,96580,2,0,P|216:257|181:261,1,80
188,180,96866,1,0,0:0:0:0:
118,140,97009,6,0,P|203:104|257:145,1,160
298,203,97437,1,0,0:0:0:0:
298,203,97580,1,0,0:0:0:0:
361,153,97723,2,0,P|334:117|295:111,2,80
298,203,98152,1,0,0:0:0:0:
237,148,98295,2,0,P|262:118|301:110,1,80
226,222,98580,2,0,P|220:183|237:148,1,80
148,206,98866,1,0,0:0:0:0:
148,205,99009,1,0,0:0:0:0:
75,170,99152,2,0,P|118:130|149:126,2,80
86,249,99580,6,0,P|173:275|220:197,1,160
275,178,100009,1,0,0:0:0:0:
354,183,100152,2,0,L|415:252,1,80
435,167,100437,1,0,0:0:0:0:
420,88,100580,2,0,L|326:88,1,80
259,82,100866,1,0,0:0:0:0:
191,39,101009,2,0,L|143:111,1,80
136,185,101295,2,0,P|143:251|224:300,1,160
217,219,101723,2,0,P|281:230|322:200,1,80
354,76,102152,5,0,0:0:0:0:
383,150,102295,2,0,L|359:231,1,80
300,172,102580,1,0,0:0:0:0:
259,241,102723,1,0,0:0:0:0:
194,287,102866,1,0,0:0:0:0:
123,325,103009,1,0,0:0:0:0:
55,281,103152,5,0,0:0:0:0:
78,248,103223,1,0,0:0:0:0:
101,215,103295,1,0,0:0:0:0:
111,176,103366,1,0,0:0:0:0:
108,136,103437,1,0,0:0:0:0:
226,119,103580,1,0,0:0:0:0:
266,120,103652,1,0,0:0:0:0:
302,103,103723,1,0,0:0:0:0:
332,129,103795,1,0,0:0:0:0:
340,167,103866,1,0,0:0:0:0:
362,260,104009,1,0,0:0:0:0:
362,260,104152,6,0,B|320:228|305:273|284:312|247:284,1,120
187,255,104723,1,0,0:0:0:0:
151,183,104866,2,0,P|161:128|180:107,1,80
234,165,105152,1,0,0:0:0:0:
237,84,105295,2,0,P|352:84|390:111,1,160
416,181,105723,1,0,0:0:0:0:
416,181,105866,1,0,0:0:0:0:
404,260,106009,2,0,L|323:288,1,80
275,225,106295,1,0,0:0:0:0:
228,289,106437,6,0,P|185:264|196:162,1,160
231,94,106866,2,0,L|317:126,1,80
254,184,107152,2,0,L|166:196,1,80
145,269,107437,1,0,0:0:0:0:
203,323,107580,1,0,0:0:0:0:
282,311,107723,1,0,0:0:0:0:
331,247,107866,2,0,P|375:209|393:180,1,80
360,115,108152,1,0,0:0:0:0:
367,35,108295,2,0,P|309:52|293:70,1,80
274,142,108580,1,0,0:0:0:0:
208,95,108723,6,0,P|190:147|262:220,1,160
190,269,109152,2,0,P|243:289|284:289,1,80
327,341,109437,2,0,P|343:294|337:258,1,80
416,287,109723,2,0,P|405:233|383:203,1,80
472,205,110009,2,0,P|439:155|412:131,1,80
350,109,110295,1,0,0:0:0:0:
296,49,110437,1,0,0:0:0:0:
296,49,110509,1,0,0:0:0:0:
296,49,110580,2,0,L|211:91,1,80
151,49,110866,1,0,0:0:0:0:
106,115,111009,6,0,L|86:282,1,160
54,347,111437,2,0,P|129:334|146:313,1,80
164,261,111723,2,0,L|176:169,1,80
202,105,112009,2,0,P|246:139|253:170,1,80
316,111,112295,1,0,0:0:0:0:
316,111,112366,1,0,0:0:0:0:
316,111,112437,2,0,P|346:145|360:180,2,80
184,127,112866,1,0,0:0:0:0:
169,140,112937,1,0,0:0:0:0:
155,155,113009,1,0,0:0:0:0:
145,172,113080,1,0,0:0:0:0:
138,191,113152,1,0,0:0:0:0:
134,210,113223,1,0,0:0:0:0:
132,225,113295,6,0,P|149:273|259:329,1,160
239,248,113723,2,0,P|299:248|326:231,1,80
277,167,114009,2,0,P|338:166|369:180,1,80
433,192,114295,1,0,0:0:0:0:
256,128,114580,1,0,0:0:0:0:
96,192,114866,1,0,0:0:0:0:
256,240,115152,5,0,0:0:0:0:
293,227,115295,1,0,0:0:0:0:
327,205,115437,1,0,0:0:0:0:
352,174,115580,2,0,P|379:124|309:44,1,160
245,53,116009,1,0,0:0:0:0:
130,164,116295,1,0,0:0:0:0:
136,323,116580,1,0,0:0:0:0:
259,221,116866,1,0,0:0:0:0:
360,97,117152,1,0,0:0:0:0:
438,236,117437,1,0,0:0:0:0:
374,284,117580,1,0,0:0:0:0:
295,299,117723,1,0,0:0:0:0:
215,295,117866,6,0,P|162:271|94:193,1,160
168,161,118295,2,0,P|151:106|155:78,1,80
228,112,118580,2,0,P|236:61|252:36,1,80
305,97,118866,2,0,P|336:48|354:34,1,80
380,110,119152,2,0,P|419:87|470:91,1,80
433,163,119437,2,0,P|474:186|467:217,1,80
401,255,119723,1,0,0:0:0:0:
364,271,119795,1,0,0:0:0:0:
326,285,119866,1,0,0:0:0:0:
286,288,119937,1,0,0:0:0:0:
245,285,120009,2,0,P|179:268|160:254,1,80
147,103,120437,6,0,P|208:89|230:98,1,80
463,84,120866,1,0,0:0:0:0:
222,83,121152,1,0,0:0:0:0:
401,241,121437,1,0,0:0:0:0:
347,6,121723,1,0,0:0:0:0:
287,238,122009,2,0,P|252:203|294:190,3,80
139,196,122580,6,0,P|141:251|187:313,1,120.000004577637
313,337,122866,2,0,P|369:308|400:246,1,120
347,149,123152,1,0,0:0:0:0:
263,62,123295,1,0,0:0:0:0:
149,98,123437,1,0,0:0:0:0:
98,206,123580,2,0,B|108:280|236:269|233:191|233:191|214:153,2,240.000009155274
214,152,124437,6,0,P|174:136|153:102,2,80
244,77,124866,2,0,L|324:120,1,80
244,154,125152,2,0,L|326:197,1,80
246,233,125437,2,0,L|330:275,1,80
248,310,125723,2,0,L|329:351,1,80
392,312,126009,2,0,L|472:269,1,80
392,235,126295,2,0,L|474:192,1,80
394,156,126580,2,0,L|478:114,1,80
396,79,126866,2,0,L|477:38,1,80
297,63,127152,6,0,P|201:97|162:94,1,120.000004577637
65,110,127437,2,0,P|116:163|201:188,1,120.000004577637
274,150,127723,1,0,0:0:0:0:
158,183,127866,1,0,0:0:0:0:
252,265,128009,1,0,0:0:0:0:
274,150,128152,2,0,P|219:94|64:115,2,240.000009155274
201,92,129009,6,0,P|157:78|139:45,2,80
270,131,129437,2,0,P|341:151|365:164,2,80,0|0|0,0:0|0:0|0:0,0:0:0:0:
367,242,129866,2,0,P|328:234|294:215,2,80,0|0|0,0:0|0:0|0:0,0:0:0:0:
232,267,130295,2,0,P|211:214|224:180,2,80,0|0|0,0:0|0:0|0:0,0:0:0:0:
310,282,130723,2,0,L|365:216,1,80
441,223,131009,1,0,0:0:0:0:
282,200,131152,2,0,P|238:178|217:144,1,80
205,311,131437,2,0,B|186:302|186:302|197:289|197:289|177:289|177:289|187:278|187:278|169:280|169:280|175:264|175:264|160:264|160:264|166:253|166:253|151:257|151:257|142:240,1,160
256,192,132295,5,0,0:0:0:0:
256,192,133437,1,0,0:0:0:0:
256,88,134580,1,0,0:0:0:0:
256,88,135723,1,0,0:0:0:0:
392,168,136295,2,0,P|384:216|360:232,3,80
285,260,137437,2,0,P|233:277|203:268,3,80
189,112,138580,5,0,0:0:0:0:
189,112,138652,1,0,0:0:0:0:
189,112,138723,2,0,L|233:195,1,80
272,116,139009,5,0,0:0:0:0:
272,116,139080,1,0,0:0:0:0:
272,116,139152,2,0,L|316:193,1,80
388,208,139437,6,0,P|348:249|313:257,1,80
247,260,139723,1,0,0:0:0:0:
247,260,139795,1,0,0:0:0:0:
247,260,139866,1,0,0:0:0:0:
166,259,140009,6,0,P|111:213|96:195,1,80
115,126,140295,2,0,L|151:96,3,40
177,124,140580,1,0,0:0:0:0:
248,160,140723,6,0,P|304:144|283:218,1,160
213,255,141152,2,0,L|137:207,1,80
154,132,141437,1,0,0:0:0:0:
220,86,141580,2,0,P|253:122|315:124,1,80
355,162,141866,1,0,0:0:0:0:
347,241,142009,1,0,0:0:0:0:
272,212,142152,2,0,P|281:283|298:300,1,80
361,308,142437,1,0,0:0:0:0:
423,257,142580,1,0,0:0:0:0:
432,177,142723,2,0,P|430:119|397:79,1,80
342,78,143009,2,0,L|175:79,1,160
169,158,143437,6,0,L|93:110,1,80
91,194,143722,1,0,0:0:0:0:
130,263,143865,2,0,P|163:299|225:301,1,80
202,226,144151,1,0,0:0:0:0:
252,164,144294,1,0,0:0:0:0:
289,234,144437,2,0,P|298:305|315:322,1,80
361,256,144722,1,0,0:0:0:0:
356,176,144865,1,0,0:0:0:0:
431,202,145008,2,0,P|429:144|396:104,1,80
346,90,145294,2,0,L|179:91,1,160
153,164,145723,5,0,0:0:0:0:
73,168,145866,1,0,0:0:0:0:
73,168,145937,1,0,0:0:0:0:
73,168,146009,2,0,P|92:237|115:255,1,80
176,233,146295,2,0,P|204:275|233:296,1,80
252,216,146580,1,0,0:0:0:0:
259,136,146723,1,0,0:0:0:0:
259,136,146795,1,0,0:0:0:0:
259,136,146866,2,0,P|236:96|200:83,1,80
195,163,147152,2,0,P|224:210|274:217,1,80
317,184,147437,1,0,0:0:0:0:
393,208,147580,2,0,P|368:266|277:298,1,160
212,258,148009,5,0,0:0:0:0:
212,258,148152,1,0,0:0:0:0:
149,207,148295,1,0,0:0:0:0:
149,207,148437,1,0,0:0:0:0:
133,128,148580,1,0,0:0:0:0:
133,128,148652,1,0,0:0:0:0:
133,128,148723,2,0,P|169:89|227:79,1,80
267,111,149009,2,0,P|337:101|353:96,5,80
398,38,149866,2,0,P|422:92|361:173,1,160
442,207,150295,2,0,P|397:240|365:250,1,80
309,200,150580,6,0,P|267:170|157:198,1,160
232,235,151009,2,0,P|214:314|151:292,1,160
97,242,151437,1,0,0:0:0:0:
151,91,151723,2,0,P|214:69|314:81,1,160
378,42,152152,2,0,P|386:92|363:133,1,80
235,195,152580,1,0,0:0:0:0:
387,244,152866,1,0,0:0:0:0:
251,329,153152,1,0,0:0:0:0:
109,255,153437,2,0,P|117:204|215:148,1,160
199,66,153866,1,0,0:0:0:0:
271,100,154009,1,0,0:0:0:0:
312,168,154152,1,0,0:0:0:0:
312,248,154295,1,0,0:0:0:0:
289,324,154437,6,0,P|216:305|147:247,1,160
98,313,154866,2,0,P|67:254|67:225,1,80
112,175,155152,2,0,P|139:128|165:106,1,80
189,184,155437,1,0,0:0:0:0:
260,219,155580,2,0,P|271:169|224:72,1,160
305,58,156009,2,0,P|348:96|376:99,1,80
432,148,156295,2,0,P|469:121|485:89,2,80
430,228,156723,1,0,0:0:0:0:
403,258,156795,1,0,0:0:0:0:
373,284,156866,1,0,0:0:0:0:
294,298,157152,5,0,0:0:0:0:
274,294,157437,1,0,0:0:0:0:
255,287,157722,1,0,0:0:0:0:
236,278,158009,5,0,0:0:0:0:
226,273,158153,1,0,0:0:0:0:
217,267,158295,1,0,0:0:0:0:
210,260,158438,1,0,0:0:0:0:
203,252,158581,1,0,0:0:0:0:
197,243,158724,1,0,0:0:0:0:
192,234,158867,1,0,0:0:0:0:
188,224,159010,1,0,0:0:0:0:
184,214,159152,6,0,P|177:154|367:165,1,320
381,227,160580,2,0,P|372:262|331:299,1,80
256,192,161437,6,0,B|320:192|320:192|320:160|320:160|288:128|288:128|232:128|232:128|176:192|176:192|224:256|224:256|248:256|248:256|304:256|304:256|352:256,1,480
224,112,163723,6,0,B|112:-40|80:120|80:120|232:328,1,480
286,268,165723,1,0,0:0:0:0:
348,217,166009,2,4,P|369:193|339:103,2,120
121,196,168295,6,0,B|211:196|237:181|237:181|268:148|268:148|345:148|428:102,1,320
424,187,169723,2,0,P|414:241|388:264,1,80
242,218,170580,6,0,P|172:189|146:139,2,120,0|0|0,0:0|0:0|0:0,0:0:0:0:
242,218,171723,2,0,L|332:197,1,80
389,240,172295,1,0,0:0:0:0:
199,202,172866,6,0,P|303:201|236:125,2,240
172,126,174866,1,0,0:0:0:0:
250,140,175152,1,0,0:0:0:0:
420,203,175580,2,0,L|483:149,1,80
248,85,176152,2,0,L|178:35,1,80
177,198,176580,2,0,L|104:250,2,80
257,192,177009,2,0,P|303:200|343:186,2,80
240,270,177437,6,0,B|314:302|348:269|348:269|378:266|405:222,1,160
326,97,178009,1,0,0:0:0:0:
166,87,178295,1,0,0:0:0:0:
110,236,178580,2,0,P|138:289|271:219,1,240
191,221,179152,1,0,0:0:0:0:
228,150,179438,1,0,0:0:0:0:
267,148,179580,1,0,0:0:0:0:
306,154,179723,2,0,B|346:170|346:170|464:89|489:249,1,240
404,227,180295,2,0,P|353:266|325:268,1,80
187,82,180866,6,0,B|148:133|180:199|180:199|123:223|158:314,1,240
222,260,181437,2,0,P|264:216|251:174,1,80
268,120,181723,2,0,P|320:154|333:188,1,80
384,110,182009,6,0,P|426:184|325:290,1,240
406,347,182580,2,0,P|450:321|470:293,1,80
251,181,183152,6,0,B|200:114|200:114|181:168|95:125|95:125|79:169,1,240
127,223,183723,2,0,P|174:246|206:256,3,80
244,322,184295,6,0,B|308:264|258:209|258:209|361:161,1,240
430,130,184866,1,0,0:0:0:0:
405,53,185009,2,0,B|361:68|361:68|321:59,1,80
168,46,185437,2,0,P|148:89|166:132,1,80
178,244,185866,1,0,0:0:0:0:
199,249,185937,1,0,0:0:0:0:
217,252,186009,2,0,B|239:210|239:210|268:196,3,80
298,121,186580,6,0,P|343:176|243:310,1,240
352,353,187152,2,0,P|387:322|414:278,1,80
377,64,187723,6,0,L|128:69,1,240
56,66,188295,2,0,L|55:164,1,80
269,255,188866,6,0,B|205:280|205:280|172:229|106:310|106:310|161:344,1,240
224,347,189437,2,0,P|281:338|307:317,1,80
401,202,189866,2,0,L|388:181,2,20
379,168,190009,2,0,P|338:139|294:137,1,80
230,117,190295,1,0,0:0:0:0:
153,139,190437,1,0,0:0:0:0:
98,197,190580,1,0,0:0:0:0:
81,275,190723,1,0,0:0:0:0:
110,349,190866,1,0,0:0:0:0:
269,330,191152,6,0,P|319:300|350:196,1,160
200,155,191723,1,0,0:0:0:0:
200,155,192009,1,0,0:0:0:0:
351,103,192295,1,0,0:0:0:0:
351,103,192580,1,0,0:0:0:0:
195,66,192866,1,0,0:0:0:0:
195,65,193152,1,0,0:0:0:0:
127,209,193437,6,0,P|145:252|185:262,2,80
131,128,193866,2,0,P|148:76|177:58,2,80
202,165,194295,2,0,P|254:166|282:151,1,80
318,84,194580,2,0,P|364:111|378:144,3,80
374,214,195152,2,0,P|346:259|318:278,3,80
296,200,195723,6,0,P|232:192|160:264,1,160
88,216,196152,2,0,P|64:176|64:144,3,80
120,88,196723,2,0,P|192:80|280:88,2,160
199,227,197580,2,0,P|271:243|311:235,2,80
120,246,198009,6,0,P|112:192|122:165,1,80
173,109,198295,1,0,0:0:0:0:
240,150,198437,2,0,L|316:114,1,80
319,196,198723,1,0,0:0:0:0:
397,181,198866,2,0,P|382:233|340:267,1,80
292,285,199152,1,0,0:0:0:0:
238,225,199295,1,0,0:0:0:0:
199,294,199437,6,0,P|157:254|183:160,1,160
222,95,199866,1,0,0:0:0:0:
237,173,200009,1,0,0:0:0:0:
302,126,200152,1,0,0:0:0:0:
376,97,200295,6,0,P|393:166|328:246,1,160
196,182,200866,2,0,P|163:226|160:255,2,80
276,186,201295,2,0,B|319:183|319:183|349:144|427:151,2,160
214,236,202009,1,0,0:0:0:0:
140,205,202152,2,0,B|92:180|92:180|89:143,2,80
199,150,202580,5,0,0:0:0:0:
264,104,202723,1,0,0:0:0:0:
341,122,202866,1,0,0:0:0:0:
289,183,203009,2,0,P|343:204|364:198,1,80
323,283,203295,1,0,0:0:0:0:
239,288,203437,2,0,P|181:266|148:271,1,80
127,195,203723,2,0,P|168:193|193:160,1,80
137,105,204009,2,0,P|182:75|208:78,1,80
257,138,204295,2,0,B|345:223|314:94|314:94|324:90|324:90|326:103|326:103|331:82|331:82|333:103|333:103|335:82|335:82|337:107|337:97|340:82|340:82|343:104|343:104|347:83|347:83|349:107|349:107|354:96,1,320
405,174,205009,5,0,0:0:0:0:
353,259,205152,1,0,0:0:0:0:
300,344,205295,1,0,0:0:0:0:
269,249,205437,2,0,L|303:138,1,100
197,145,205723,2,0,L|263:49,1,100
118,238,206009,1,0,0:0:0:0:
199,296,206152,1,0,0:0:0:0:
235,202,206295,1,0,0:0:0:0:
320,150,206437,1,0,0:0:0:0:
408,103,206580,2,0,L|459:204,1,100
355,166,206866,2,0,L|406:262,1,100
306,286,207152,6,0,B|247:233|160:339|118:289,1,200
86,194,207580,2,0,L|184:131,1,100
83,88,207866,1,0,0:0:0:0:
171,41,208009,2,0,L|274:89,1,100
263,184,208295,1,0,0:0:0:0:
357,150,208437,1,0,0:0:0:0:
406,237,208580,2,0,P|353:280|308:302,1,100
239,242,208866,2,0,P|196:213|168:165,2,100
143,273,209295,1,0,0:0:0:0:
212,344,209437,5,0,0:0:0:0:
312,342,209580,1,0,0:0:0:0:
212,344,209723,1,0,0:0:0:0:
312,342,209866,1,0,0:0:0:0:
382,271,210009,2,0,P|379:213|371:167,1,100
310,91,210295,1,0,0:0:0:0:
219,49,210437,2,0,P|157:75|133:105,1,100
116,206,210723,1,0,0:0:0:0:
205,161,210866,1,0,0:0:0:0:
116,206,211009,1,0,0:0:0:0:
205,161,211152,2,0,P|273:164|319:139,1,100
368,77,211437,2,0,P|425:136|433:167,1,100
392,244,211723,6,0,P|328:261|309:298,1,100
136,108,212152,2,0,L|56:48,1,100
384,104,212580,2,0,L|472:40,1,100
472,145,212866,2,0,L|393:214,1,100
322,279,213152,2,0,L|234:217,1,100
164,155,213437,1,0,0:0:0:0:
173,254,213580,1,0,0:0:0:0:
243,325,213723,1,0,0:0:0:0:
343,325,213866,6,0,P|418:308|436:206,1,180.000006866455
363,125,214580,1,0,0:0:0:0:
163,87,215723,5,0,0:0:0:0:
424,68,216866,5,0,0:0:0:0:
100,257,218009,5,0,0:0:0:0:
363,308,219152,5,0,0:0:0:0:
163,44,220295,5,0,0:0:0:0:
356,64,221437,5,0,0:0:0:0:
291,249,222009,5,0,0:0:0:0:
231,257,222152,1,0,0:0:0:0:
182,221,222295,1,0,0:0:0:0:
204,165,222437,1,0,0:0:0:0:
256,193,222580,5,0,0:0:0:0:
121,73,223009,2,0,P|81:140|105:300,1,240
261,289,223723,2,0,P|393:263|404:144,1,240
187,97,224580,2,0,B|244:82|273:108|273:108|284:89|284:89|327:110,1,160
430,232,225152,1,0,0:0:0:0:
413,310,225295,6,0,P|254:304|170:317,1,240
78,188,226009,2,0,P|149:108|163:183,1,240
311,244,226723,2,0,L|395:302,1,80
312,142,227152,2,0,L|385:86,2,80
273,71,227580,6,0,P|227:134|328:228,1,240
178,295,228295,2,0,P|148:205|102:146,1,160
179,115,228723,2,0,P|244:168|321:199,1,160
319,116,229152,1,0,0:0:0:0:
434,226,229437,1,0,0:0:0:0:
403,252,229509,1,0,0:0:0:0:
372,277,229580,1,0,0:0:0:0:
291,273,229723,1,0,0:0:0:0:
215,245,229866,1,0,0:0:0:0:
338,215,233295,6,0,B|299:260|222:232|222:232|144:184,1,176.000005371094
191,118,233723,2,0,P|130:142|108:182,1,88.000002685547
120,246,234009,2,0,L|184:318,1,88.000002685547
267,313,234295,1,0,0:0:0:0:
353,300,234437,2,0,B|416:324|416:324|428:282|432:275,1,88.000002685547
386,222,234723,1,0,0:0:0:0:
305,185,234866,2,0,P|333:144|376:130,1,88.000002685547
311,61,235152,2,0,P|239:81|216:80,1,88.000002685547
183,157,235437,1,0,0:0:0:0:
120,94,235580,6,0,P|98:156|173:240,1,176.000005371094
155,325,236009,2,0,L|249:349,1,88.000002685547
247,258,236295,2,0,L|335:284,1,88.000002685547
331,194,236580,2,0,P|251:170|213:184,1,88.000002685547
175,220,236866,2,0,P|163:166|173:124,1,88.000002685547
84,160,237152,2,0,P|99:101|123:71,1,88.000002685547
201,63,237437,1,0,0:0:0:0:
288,74,237580,1,0,0:0:0:0:
371,102,237723,1,0,0:0:0:0:
429,167,237866,6,0,B|438:250|438:250|400:294|345:301,1,176.000005371094
273,310,238295,1,0,0:0:0:0:
273,310,238366,1,0,0:0:0:0:
273,310,238437,2,0,B|221:286|219:269|219:269|162:265,1,88.000002685547
228,183,238723,1,0,0:0:0:0:
140,192,238866,1,0,0:0:0:0:
178,112,239009,1,0,0:0:0:0:
178,112,239080,1,0,0:0:0:0:
178,112,239152,2,0,P|229:79|274:71,1,88.000002685547
342,82,239437,2,0,P|391:114|409:147,1,88.000002685547
331,186,239723,2,0,P|359:238|360:271,1,88.000002685547
272,257,240009,1,0,0:0:0:0:
202,311,240152,6,0,P|186:249|217:139,1,176.000005371094
126,131,240580,2,0,L|205:65,1,88.000002685547
282,77,240866,2,0,L|362:156,1,88.000002685547
417,189,241152,2,0,L|344:274,1,88.000002685547
294,315,241437,5,0,0:0:0:0:
250,322,241509,1,0,0:0:0:0:
206,314,241580,1,0,0:0:0:0:
169,288,241652,1,0,0:0:0:0:
140,254,241723,2,0,L|92:241,3,44.0000013427735
188,145,242009,2,0,P|235:112|373:130,1,176.000005371094
393,203,242437,2,0,L|204:209,1,176.000005371094
247,125,242866,1,0,0:0:0:0:
247,125,243009,1,0,0:0:0:0:
177,52,243152,2,0,P|97:119|168:279,1,264.000008056641
307,274,243866,6,0,L|395:325,1,88.000002685547
377,141,244295,2,0,B|317:95|317:95|243:172|132:43,1,264.000008056641
79,320,245152,1,0,0:0:0:0:
245,264,245437,1,0,0:0:0:0:
118,141,245723,1,0,0:0:0:0:
277,66,246009,1,0,0:0:0:0:
446,112,246295,1,0,0:0:0:0:
393,279,246580,1,0,0:0:0:0:
351,295,246652,1,0,0:0:0:0:
310,311,246723,1,0,0:0:0:0:
267,322,246795,1,0,0:0:0:0:
223,317,246866,1,0,0:0:0:0:
180,304,246937,1,0,0:0:0:0:
140,283,247009,6,0,P|114:228|186:144,1,176.000005371094
259,111,247437,1,0,0:0:0:0:
338,148,247580,1,0,0:0:0:0:
349,235,247723,2,0,P|281:249|255:277,1,88.000002685547
213,190,248009,1,0,0:0:0:0:
170,112,248152,2,0,P|126:157|155:262,1,176.000005371094
233,288,248580,1,0,0:0:0:0:
318,307,248723,1,0,0:0:0:0:
398,271,248866,2,0,L|430:186,1,88.000002685547
383,112,249152,1,0,0:0:0:0:
222,41,249437,6,0,L|141:116,1,88.000002685547
233,147,249723,2,0,L|157:220,1,88.000002685547
179,296,250009,2,0,L|292:297,1,88.000002685547
355,295,250295,2,0,L|424:227,1,88.000002685547
351,175,250580,2,0,L|423:105,1,88.000002685547
412,24,250866,2,0,L|292:28,1,88.000002685547
238,50,251152,1,0,0:0:0:0:
251,181,251295,1,0,0:0:0:0:
87,114,251437,1,0,0:0:0:0:
104,289,251580,6,0,P|197:321|297:283,1,176.000005371094,0|0,0:0|0:0,0:0:0:0:
388,277,252009,2,0,L|437:150,1,120.000004577637
374,58,252295,2,0,L|232:88,1,120.000004577637
142,44,252580,2,0,L|88:174,1,120.000004577637
89,275,252866,2,0,L|202:331,1,120.000004577637
205,207,253152,2,0,L|293:120,1,120.000004577637
383,198,253437,1,0,0:0:0:0:
369,317,253580,2,0,B|307:236|224:316|224:316|160:277,1,240.000009155274
256,192,254009,12,0,260866,0:0:0:0:
