osu file format v14

[General]
AudioFilename: 02 Kyogen NEUROSE.mp3
AudioLeadIn: 0
PreviewTime: 81852
Countdown: 1
SampleSet: Normal
StackLeniency: 0.7
Mode: 0
LetterboxInBreaks: 1
WidescreenStoryboard: 0

[Editor]
DistanceSpacing: 0.8
BeatDivisor: 16
GridSize: 4
TimelineZoom: 1

[Metadata]
Title:Kyogen NEUROSE
TitleUnicode:虚言NEUROSE
Artist:MY FIRST STORY
ArtistUnicode:MY FIRST STORY
Creator:Moway
Version:Madness
Source:
Tags:
BeatmapID:637277
BeatmapSetID:281747

[Difficulty]
HPDrainRate:6.5
CircleSize:4
OverallDifficulty:8.5
ApproachRate:9.5
SliderMultiplier:1.8
SliderTickRate:2

[Events]
//Background and Video events
0,0,"background.jpg",0,0
//Break Periods
2,98647,108135
2,175243,184731
//Storyboard Layer 0 (Background)
//Storyboard Layer 1 (Fail)
//Storyboard Layer 2 (Pass)
//Storyboard Layer 3 (Foreground)
//Storyboard Sound Samples

[TimingPoints]
789,319.148936170213,4,2,0,100,1,0
789,-153.846153846154,4,2,0,100,0,0
16108,-100,4,1,0,100,0,1
16187,-100,4,1,0,100,0,0
36533,-153.846153846154,4,2,0,100,0,0
46108,-111.111111111111,4,2,0,100,0,0
56959,-111.111111111111,4,1,0,100,0,0
77384,-153.846153846154,4,2,0,100,0,0
79937,-111.111111111111,4,1,0,100,0,0
82491,-153.846153846154,4,2,0,100,0,0
83129,319.148936170213,4,1,0,100,1,1
97171,-153.846153846154,4,2,0,100,0,0
108660,-111.111111111111,4,2,0,100,0,0
113767,-111.111111111111,4,1,0,100,0,0
118873,-153.846153846154,4,2,0,100,0,0
128448,-111.111111111111,4,1,0,100,0,0
144405,-100,4,1,0,100,0,1
159644,-100,4,1,0,100,0,0
159724,-100,4,1,0,100,0,1
173129,-153.846153846154,4,2,0,100,0,0
185256,-153.846153846154,4,2,0,100,0,0
195469,-111.111111111111,4,2,0,100,0,0
205522,-111.111111111111,4,1,0,100,0,0
226107,-153.846153846154,4,2,0,100,0,0
229937,-111.111111111111,4,1,0,100,0,0
231214,-100,4,1,0,100,0,1
241347,-100,4,1,0,100,0,0
241426,-100,4,1,0,100,0,1
254831,-153.846153846154,4,2,0,100,0,0

[Colours]
Combo1 : 65,65,90
Combo2 : 191,64,64
Combo3 : 154,154,154
Combo4 : 48,113,143

[HitObjects]
240,79,789,6,0,L|224:195,1,116.999994644165
280,262,1267,2,0,P|250:279|222:283,1,58.4999973220826
96,258,1586,2,0,P|120:242|149:237,1,58.4999973220826
329,198,1906,6,0,B|366:227|361:278|361:278|396:278,1,116.999994644165
304,340,2384,2,0,L|238:343,1,58.4999973220826
139,337,2703,2,0,P|163:318|181:251,2,87.749995983124
304,340,3342,6,0,P|360:319|420:317,1,116.999994644165
447,194,3820,2,0,L|463:250,1,58.4999973220826
369,132,4140,2,0,L|353:188,1,58.4999973220826
287,244,4459,6,0,P|248:253|178:209,1,116.999994644165
123,283,4937,2,0,L|131:345,1,58.4999973220826
26,226,5257,1,0,0:0:0:0:
26,226,5416,2,0,P|59:219|83:207,1,58.4999973220826
152,156,5735,6,0,B|199:137|227:178|279:159,1,116.999994644165
341,115,6214,1,0,0:0:0:0:
341,115,6374,1,0,0:0:0:0:
307,232,6533,1,0,0:0:0:0:
307,232,6693,2,0,L|313:297,1,58.4999973220826
484,343,7012,6,0,P|504:313|477:222,2,116.999994644165
338,343,7810,1,0,0:0:0:0:
432,285,7969,1,0,0:0:0:0:
432,285,8129,2,0,L|365:276,1,58.4999973220826
230,306,8448,6,0,P|262:293|302:223,1,116.999994644165
165,192,8927,2,0,L|215:223,1,58.4999973220826
119,269,9246,2,0,L|132:326,1,58.4999973220826
26,254,9565,5,0,0:0:0:0:
138,106,9884,1,0,0:0:0:0:
26,254,10203,1,0,0:0:0:0:
26,254,10363,2,0,P|16:217|18:198,1,58.4999973220826
138,106,10682,2,0,P|148:143|146:162,1,58.4999973220826
119,269,11001,6,0,L|254:257,1,116.999994644165
364,109,11480,2,0,P|314:124|278:192,1,116.999994644165
367,286,11959,1,0,0:0:0:0:
367,286,12118,6,0,P|417:271|453:203,1,116.999994644165
457,76,12597,1,0,0:0:0:0:
457,76,12757,2,0,L|451:144,1,58.4999973220826
364,200,13076,2,0,L|358:141,1,58.4999973220826
269,71,13395,6,0,B|248:107|248:107|207:93|170:125,1,116.999994644165
115,192,13874,2,0,L|124:256,1,58.4999973220826
258,251,14193,2,0,P|271:218|207:223,1,116.999994644165
369,256,14831,5,0,0:0:0:0:
388,242,15150,5,0,0:0:0:0:
401,222,15469,5,0,0:0:0:0:
407,199,15789,5,0,0:0:0:0:
401,176,16108,6,0,P|354:166|297:162,1,90
146,24,16427,2,0,P|136:71|132:128,1,90
292,298,16746,1,0,0:0:0:0:
212,148,16906,1,0,0:0:0:0:
33,307,17065,2,0,P|81:308|130:288,1,90
328,216,17384,6,0,P|280:215|231:235,1,90
437,360,17703,2,0,L|454:270,1,90
397,50,18023,2,0,L|380:138,1,90
323,347,18342,1,0,0:0:0:0:
150,240,18501,1,0,0:0:0:0:
36,346,18661,6,0,L|127:333,1,90
26,130,18980,2,0,L|117:117,1,90
273,248,19299,1,0,0:0:0:0:
221,76,19459,1,0,0:0:0:0:
150,240,19618,2,0,P|138:284|151:331,1,90
294,120,19937,6,0,P|306:76|293:29,1,90
273,248,20257,2,0,L|365:239,1,90
128,142,20576,2,0,L|36:133,1,90
221,76,20895,1,0,0:0:0:0:
273,248,21054,1,0,0:0:0:0:
270,284,21134,1,0,0:0:0:0:
255,317,21214,6,0,P|210:326|163:314,1,90
212,194,21533,1,0,0:0:0:0:
330,338,21693,1,0,0:0:0:0:
212,194,21852,2,0,L|212:102,1,90
300,172,22171,1,0,0:0:0:0:
117,217,22331,1,0,0:0:0:0:
300,172,22491,6,0,P|299:227|270:262,1,90
171,286,22810,1,0,0:0:0:0:
241,104,22969,1,0,0:0:0:0:
171,286,23129,2,0,P|216:318|235:347,1,90
461,302,23448,2,0,P|416:309|373:299,1,90
387,81,23767,6,0,L|376:177,1,90
171,286,24086,2,0,L|181:196,1,90
295,60,24406,1,0,0:0:0:0:
277,220,24565,1,0,0:0:0:0:
146,123,24725,1,0,0:0:0:0:
380,151,24884,1,0,0:0:0:0:
365,278,25044,6,0,L|355:332,1,45
233,319,25203,2,0,P|259:304|282:299,1,45
155,351,25363,2,0,P|133:343|114:332,1,45
173,225,25523,2,0,L|163:279,1,45
33,317,25682,5,0,0:0:0:0:
16,284,25762,1,0,0:0:0:0:
7,248,25842,1,0,0:0:0:0:
13,213,25921,1,0,0:0:0:0:
31,181,26001,1,0,0:0:0:0:
58,157,26081,1,0,0:0:0:0:
91,142,26161,1,0,0:0:0:0:
127,142,26241,1,0,0:0:0:0:
161,150,26320,6,0,P|210:152|254:142,1,90
444,35,26640,2,0,P|452:78|450:123,1,90
359,340,26959,1,0,0:0:0:0:
298,190,27118,1,0,0:0:0:0:
457,213,27278,2,0,P|428:244|372:252,1,90
136,207,27597,6,0,P|179:215|210:247,1,90
65,361,27916,2,0,L|53:266,1,90
234,150,28235,2,0,L|246:55,1,90
202,303,28554,1,0,0:0:0:0:
53,189,28714,1,0,0:0:0:0:
202,303,28874,6,0,L|307:289,1,90
490,189,29193,2,0,L|385:175,1,90
234,150,29512,1,0,0:0:0:0:
362,83,29671,1,0,0:0:0:0:
389,262,29831,2,0,P|392:311|387:355,1,90
202,303,30150,6,0,P|154:305|97:317,1,90
407,161,30469,2,0,P|362:168|317:171,1,90
271,352,30789,2,0,P|285:308|275:262,1,90
130,68,31108,1,0,0:0:0:0:
45,176,31267,1,0,0:0:0:0:
32,209,31347,1,0,0:0:0:0:
31,245,31427,6,0,P|74:270|122:272,1,90
272,190,31746,1,0,0:0:0:0:
145,144,31906,1,0,0:0:0:0:
216,291,32065,2,0,P|218:344|213:384,1,90
145,144,32384,1,0,0:0:0:0:
300,271,32544,1,0,0:0:0:0:
145,144,32703,6,0,L|246:114,1,90
354,85,33023,1,0,0:0:0:0:
168,38,33182,1,0,0:0:0:0:
353,85,33342,2,0,P|358:138|348:175,1,90
100,270,33661,2,0,P|143:239|180:229,1,90
456,328,33980,6,0,P|413:314|377:287,1,90
256,73,34299,2,0,P|228:110|180:131,1,90
228,249,34618,1,0,0:0:0:0:
168,38,34778,1,0,0:0:0:0:
171,249,34937,1,0,0:0:0:0:
224,37,35097,1,0,0:0:0:0:
415,160,35257,6,0,L|325:171,1,90
168,38,35576,2,0,P|115:62|98:103,1,90
45,302,35895,1,0,0:0:0:0:
60,269,35975,1,0,0:0:0:0:
69,234,36054,1,0,0:0:0:0:
69,197,36134,1,0,0:0:0:0:
55,163,36214,2,0,P|116:180|162:186,1,90
225,262,36533,6,0,P|284:254|347:256,1,116.999994644165
417,321,37012,2,0,P|432:282|424:203,1,116.999994644165
370,46,37491,1,0,0:0:0:0:
340,134,37650,6,0,L|331:201,1,58.4999973220826
275,58,37969,1,0,0:0:0:0:
275,58,38129,1,0,0:0:0:0:
243,155,38289,2,0,P|210:164|166:164,1,58.4999973220826
31,118,38608,2,0,P|64:109|108:109,2,58.4999973220826
80,201,39086,6,0,P|90:238|89:267,1,58.4999973220826
30,324,39406,1,0,0:0:0:0:
184,257,39565,2,0,B|228:244|228:244|255:257|322:258,1,116.999994644165
237,339,40044,2,0,L|298:348,1,58.4999973220826
411,346,40363,5,0,0:0:0:0:
464,283,40523,1,0,0:0:0:0:
460,201,40682,1,0,0:0:0:0:
403,141,40842,1,0,0:0:0:0:
286,241,41001,2,0,L|356:234,1,58.4999973220826
403,141,41320,1,0,0:0:0:0:
271,328,41480,1,0,0:0:0:0:
197,189,41640,6,0,P|152:174|82:217,1,116.999994644165
50,282,42118,2,0,P|34:317|21:336,1,58.4999973220826
134,313,42437,2,0,P|137:351|135:374,2,58.4999973220826
225,328,42916,6,0,P|266:328|334:271,1,116.999994644165
406,199,43395,1,0,0:0:0:0:
406,199,43554,2,0,L|417:258,1,58.4999973220826
247,239,43874,2,0,L|257:181,1,58.4999973220826
392,105,44193,6,0,P|357:124|332:129,1,58.4999973220826
337,41,44512,1,0,0:0:0:0:
257,181,44671,2,0,P|199:163|128:170,1,116.999994644165
68,99,45150,2,0,P|53:128|46:158,1,58.4999973220826
121,340,45469,5,0,0:0:0:0:
225,357,45629,1,0,0:0:0:0:
324,320,45789,1,0,0:0:0:0:
391,239,45948,1,0,0:0:0:0:
305,144,46108,6,0,L|295:229,1,80.9999975280763
492,301,46427,2,0,L|501:220,1,80.9999975280763
207,259,46746,6,0,P|163:272|129:272,1,80.9999975280763
43,111,47065,2,0,P|87:98|121:98,1,80.9999975280763
141,356,47384,2,0,P|96:345|66:328,1,80.9999975280763
151,173,47703,1,0,0:0:0:0:
207,259,47863,6,0,L|212:340,1,80.9999975280763
101,262,48182,1,0,0:0:0:0:
252,180,48342,1,0,0:0:0:0:
308,341,48501,2,0,P|356:349|390:344,1,80.9999975280763
510,219,48820,2,0,P|469:214|430:222,1,80.9999975280763
484,318,49140,1,0,0:0:0:0:
425,140,49299,6,0,P|388:156|357:182,1,80.9999975280763
308,341,49618,1,0,0:0:0:0:
431,223,49778,2,0,B|446:177|418:128|418:128|404:99|434:43,1,161.999995056153
358,183,50257,2,0,P|311:179|275:168,1,80.9999975280763
88,133,50576,5,0,0:0:0:0:
242,85,50735,1,0,0:0:0:0:
104,49,50895,1,0,0:0:0:0:
214,168,51054,1,0,0:0:0:0:
94,218,51214,2,0,P|85:260|84:301,1,80.9999975280763
191,367,51533,1,0,0:0:0:0:
299,303,51693,6,0,P|297:262|288:223,1,80.9999975280763
242,85,52012,1,0,0:0:0:0:
197,255,52171,1,0,0:0:0:0:
367,203,52331,2,0,L|460:193,1,80.9999975280763
171,139,52650,2,0,L|90:147,1,80.9999975280763
325,59,52969,1,0,0:0:0:0:
259,208,53129,6,0,P|255:253|258:292,1,80.9999975280763
366,345,53448,1,0,0:0:0:0:
147,305,53608,2,0,L|57:316,1,80.9999975280763
24,147,53927,2,0,P|16:187|22:230,1,80.9999975280763
116,77,54246,1,0,0:0:0:0:
138,212,54406,6,0,L|218:202,1,80.9999975280763
387,94,54725,1,0,0:0:0:0:
363,316,54884,2,0,P|324:285|326:174,1,161.999995056153
387,94,55363,1,0,0:0:0:0:
232,291,55523,1,0,0:0:0:0:
394,234,55682,5,0,0:0:0:0:
217,69,55842,1,0,0:0:0:0:
296,349,56001,1,0,0:0:0:0:
394,234,56161,5,0,0:0:0:0:
402,215,56241,1,0,0:0:0:0:
410,196,56320,1,0,0:0:0:0:
418,177,56400,1,0,0:0:0:0:
426,158,56480,1,0,0:0:0:0:
433,139,56560,1,0,0:0:0:0:
441,120,56640,5,0,0:0:0:0:
419,96,56719,1,0,0:0:0:0:
388,85,56799,1,0,0:0:0:0:
355,86,56879,1,0,0:0:0:0:
329,105,56959,6,0,P|284:121|245:123,1,80.9999975280763
47,55,57278,2,0,P|125:69|171:106,1,121.499996292114
170,178,57597,2,0,P|159:223|167:257,1,80.9999975280763
326,322,57916,1,0,0:0:0:0:
87,279,58076,6,0,L|4:287,1,80.9999975280763
241,221,58395,2,0,L|322:214,1,80.9999975280763
83,183,58714,1,0,0:0:0:0:
83,183,58794,1,0,0:0:0:0:
83,183,58874,1,0,0:0:0:0:
255,318,59033,1,0,0:0:0:0:
189,152,59193,2,0,P|160:199|157:229,1,80.9999975280763
349,326,59512,6,0,P|340:286|316:254,1,80.9999975280763
5,308,59831,2,0,L|127:288,1,121.499996292114
184,284,60150,2,0,P|228:301|249:339,1,80.9999975280763
338,225,60469,1,0,0:0:0:0:
129,188,60629,6,0,P|121:145|121:108,1,80.9999975280763
260,60,60948,1,0,0:0:0:0:
98,23,61108,1,0,0:0:0:0:
252,159,61267,5,0,0:0:0:0:
275,164,61347,1,0,0:0:0:0:
300,164,61427,1,0,0:0:0:0:
323,159,61507,1,0,0:0:0:0:
346,150,61586,1,0,0:0:0:0:
366,137,61666,1,0,0:0:0:0:
386,122,61746,5,0,0:0:0:0:
425,123,61826,1,0,0:0:0:0:
456,147,61906,1,0,0:0:0:0:
478,179,61985,1,0,0:0:0:0:
485,218,62065,6,0,P|475:287|478:320,1,80.9999975280763
289,319,62384,2,0,P|237:295|156:294,1,121.499996292114
253,262,62703,2,0,P|295:259|341:246,1,80.9999975280763
138,205,63023,1,0,0:0:0:0:
394,195,63182,6,0,P|412:235|409:283,1,80.9999975280763
320,95,63501,2,0,P|345:59|388:38,1,80.9999975280763
253,262,63820,1,0,0:0:0:0:
169,50,63980,1,0,0:0:0:0:
138,205,64140,1,0,0:0:0:0:
125,230,64219,1,0,0:0:0:0:
102,247,64299,1,0,0:0:0:0:
75,257,64379,1,0,0:0:0:0:
47,262,64459,6,0,P|128:281|188:331,1,161.999995056153
336,210,64937,2,0,L|342:299,1,80.9999975280763
186,56,65257,2,0,L|180:145,1,80.9999975280763
266,349,65576,1,0,0:0:0:0:
94,135,65735,6,0,P|38:119|-5:119,1,80.9999975280763
142,265,66054,1,0,0:0:0:0:
173,255,66134,1,0,0:0:0:0:
201,238,66214,1,0,0:0:0:0:
220,211,66294,1,0,0:0:0:0:
235,182,66374,1,0,0:0:0:0:
252,155,66453,1,0,0:0:0:0:
273,130,66533,6,0,L|327:113,1,40.4999987640381
449,193,66693,2,0,L|395:176,1,40.4999987640381
382,57,66852,2,0,L|392:107,1,40.4999987640381
387,261,67012,2,0,L|356:303,1,40.4999987640381
217,291,67171,6,0,P|153:279|49:306,1,161.999995056153
282,233,67650,1,0,0:0:0:0:
282,233,67730,1,0,0:0:0:0:
282,233,67810,2,0,L|293:153,1,80.9999975280763
220,81,68129,1,0,0:0:0:0:
389,215,68289,5,0,0:0:0:0:
319,20,68448,1,0,0:0:0:0:
201,195,68608,1,0,0:0:0:0:
409,104,68767,1,0,0:0:0:0:
220,81,68927,1,0,0:0:0:0:
220,81,69007,1,0,0:0:0:0:
220,81,69086,2,0,P|152:73|110:61,1,80.9999975280763
31,184,69406,2,0,L|42:277,1,80.9999975280763
266,350,69725,6,0,L|256:269,1,80.9999975280763
150,177,70044,1,0,0:0:0:0:
338,237,70203,1,0,0:0:0:0:
338,237,70283,1,0,0:0:0:0:
338,237,70363,2,0,P|385:234|418:223,1,80.9999975280763
279,73,70682,1,0,0:0:0:0:
178,272,70842,6,0,P|126:296|98:304,1,80.9999975280763
99,68,71161,2,0,P|151:44|179:36,1,80.9999975280763
334,272,71480,2,0,P|386:296|414:304,1,80.9999975280763
413,68,71799,2,0,P|361:44|333:36,1,80.9999975280763
72,192,72118,1,0,0:0:0:0:
256,336,72278,5,0,0:0:0:0:
180,112,72437,1,0,0:0:0:0:
126,306,72597,1,0,0:0:0:0:
87,102,72757,1,0,0:0:0:0:
87,102,72836,1,0,0:0:0:0:
87,102,72916,1,0,0:0:0:0:
263,190,73076,2,0,L|179:209,1,80.9999975280763
317,61,73395,1,0,0:0:0:0:
398,223,73554,6,0,P|414:267|412:305,1,80.9999975280763
228,113,73874,2,0,P|212:69|214:31,1,80.9999975280763
297,277,74193,1,0,0:0:0:0:
267,292,74273,1,0,0:0:0:0:
235,297,74352,1,0,0:0:0:0:
202,297,74432,1,0,0:0:0:0:
171,287,74512,2,0,P|128:274|87:274,1,80.9999975280763
269,190,74831,6,0,P|312:174|357:96,1,121.499996292114
406,41,75150,2,0,L|441:130,1,80.9999975280763
510,229,75469,1,0,0:0:0:0:
298,65,75629,1,0,0:0:0:0:
264,330,75789,1,0,0:0:0:0:
412,194,75948,6,0,P|379:163|334:146,1,80.9999975280763
207,43,76267,1,0,0:0:0:0:
188,69,76347,1,0,0:0:0:0:
177,99,76427,1,0,0:0:0:0:
177,131,76507,1,0,0:0:0:0:
183,162,76586,1,0,0:0:0:0:
200,189,76666,1,0,0:0:0:0:
227,205,76746,1,0,0:0:0:0:
258,210,76826,1,0,0:0:0:0:
290,209,76906,1,0,0:0:0:0:
320,199,76985,1,0,0:0:0:0:
344,177,77065,2,0,L|371:128,1,40.4999987640381
453,73,77225,2,0,L|472:108,1,40.4999987640381
500,241,77384,6,0,P|440:233|374:255,1,116.999994644165
319,295,77863,2,0,P|262:310|205:301,1,116.999994644165
103,154,78342,1,0,0:0:0:0:
103,154,78501,2,0,B|112:204|112:204|103:259|103:259|137:286|124:325,1,175.499991966248
256,28,79299,1,0,0:0:0:0:
408,216,79618,1,0,0:0:0:0:
408,216,79698,1,0,0:0:0:0:
408,216,79778,1,0,0:0:0:0:
408,216,79858,1,0,0:0:0:0:
408,216,79937,6,0,L|320:208,1,80.9999975280763
116,64,80257,1,0,0:0:0:0:
4,280,80416,2,0,L|92:272,1,80.9999975280763
296,128,80736,1,0,0:0:0:0:
116,64,80895,1,0,0:0:0:0:
197,307,81054,6,0,B|218:239|170:220|202:148,1,161.999995056153
264,46,81533,1,0,0:0:0:0:
85,344,81693,1,0,0:0:0:0:
461,192,82491,6,0,L|367:182,2,87.749995983124
309,116,83129,6,0,P|287:160|287:204,1,90
396,317,83448,1,0,0:0:0:0:
180,158,83607,2,0,L|78:148,1,90
14,313,83926,2,0,L|103:321,1,90
367,210,84246,1,0,0:0:0:0:
294,333,84405,6,0,P|255:305|242:264,1,90
355,61,84724,2,0,P|339:102|303:127,1,90
55,155,85043,2,0,L|154:139,1,90
192,213,85283,1,0,0:0:0:0:
192,213,85363,2,0,L|291:197,1,90
444,61,85682,6,0,P|457:109|450:156,1,90
380,353,86001,1,0,0:0:0:0:
185,289,86160,2,0,L|77:288,1,90
395,248,86480,1,0,0:0:0:0:
297,367,86639,1,0,0:0:0:0:
205,164,86799,1,0,0:0:0:0:
395,248,86958,6,0,P|407:191|396:161,1,90
144,119,87277,2,0,P|132:176|143:206,1,90
367,56,87597,2,0,L|275:77,1,90
43,170,87916,1,0,0:0:0:0:
205,164,88075,2,0,L|261:159,1,45
392,147,88235,5,0,0:0:0:0:
273,335,88394,1,0,0:0:0:0:
172,152,88554,1,0,0:0:0:0:
384,268,88714,1,0,0:0:0:0:
282,73,88873,1,0,0:0:0:0:
273,335,89033,1,0,0:0:0:0:
392,147,89192,1,0,0:0:0:0:
240,215,89352,6,0,P|191:209|154:193,1,90
444,42,89671,2,0,P|483:71|507:104,1,90
341,328,89990,2,0,P|325:280|332:239,1,90
362,76,90309,1,0,0:0:0:0:
240,215,90469,2,0,P|209:258|177:277,1,90
3,182,90788,6,0,L|112:170,1,90
288,36,91107,2,0,L|198:45,1,90
76,273,91426,1,0,0:0:0:0:
132,82,91586,1,0,0:0:0:0:
179,290,91746,1,0,0:0:0:0:
44,105,91905,1,0,0:0:0:0:
244,218,92065,5,0,0:0:0:0:
244,218,92144,1,0,0:0:0:0:
244,218,92224,2,0,L|299:228,1,45
398,288,92384,1,0,0:0:0:0:
398,288,92463,1,0,0:0:0:0:
398,288,92543,2,0,L|343:298,1,45
226,318,92703,5,0,0:0:0:0:
197,295,92783,1,0,0:0:0:0:
167,274,92863,1,0,0:0:0:0:
132,264,92942,1,0,0:0:0:0:
96,273,93022,5,0,0:0:0:0:
119,233,93102,1,0,0:0:0:0:
126,188,93182,1,0,0:0:0:0:
112,145,93261,1,0,0:0:0:0:
90,105,93341,6,0,P|135:115|229:86,1,135
219,92,93660,1,0,0:0:0:0:
29,44,93820,2,0,P|7:94|11:141,1,90
126,359,94139,1,0,0:0:0:0:
210,210,94299,1,0,0:0:0:0:
71,278,94458,6,0,L|-26:291,1,90
141,134,94777,1,0,0:0:0:0:
231,318,94937,1,0,0:0:0:0:
333,251,95097,2,0,L|430:238,1,90
444,70,95416,2,0,P|459:119|459:164,1,90
386,360,95735,1,0,0:0:0:0:
226,228,95894,6,0,P|242:181|361:144,1,180
333,251,96373,1,0,0:0:0:0:
141,134,96533,1,0,0:0:0:0:
163,314,96692,1,0,0:0:0:0:
333,251,96852,1,0,0:0:0:0:
141,134,97011,1,0,0:0:0:0:
282,329,97171,6,0,P|334:350|396:331,1,116.999994644165
256,60,97809,2,0,B|204:32|204:32|219:80|160:88|160:88|182:136|131:170,1,233.999989288331
440,128,108660,6,0,L|425:218,1,80.9999975280763
426,207,108980,1,0,0:0:0:0:
426,207,109299,2,0,P|382:193|347:193,1,80.9999975280763
182,138,109618,1,0,0:0:0:0:
161,288,109777,6,0,P|201:287|239:274,1,80.9999975280763
77,124,110097,2,0,L|68:222,1,80.9999975280763
69,204,110416,1,0,0:0:0:0:
69,204,110735,1,0,0:0:0:0:
69,204,110894,2,0,P|80:249|72:294,1,80.9999975280763
262,352,111214,6,0,L|357:347,1,80.9999975280763
486,216,111533,1,0,0:0:0:0:
426,304,111692,2,0,P|392:268|395:162,1,161.999995056153
486,102,112171,1,0,0:0:0:0:
278,170,112331,1,0,0:0:0:0:
486,102,112490,6,0,L|402:74,1,80.9999975280763
238,181,112809,2,0,L|322:153,1,80.9999975280763
308,34,113129,2,0,L|301:89,1,40.4999987640381
394,195,113288,2,0,L|388:154,1,40.4999987640381
226,11,113448,2,0,L|217:96,1,80.9999975280763
238,303,113767,6,0,P|196:295|152:295,1,80.9999975280763
44,221,114086,1,0,0:0:0:0:
309,366,114246,2,0,P|349:365|389:357,1,80.9999975280763
341,166,114565,1,0,0:0:0:0:
308,272,114724,1,0,0:0:0:0:
455,194,114884,6,0,B|488:141|433:83|433:83|474:68,1,161.999995056153
301,88,115363,1,0,0:0:0:0:
301,88,115522,2,0,L|209:80,1,80.9999975280763
13,94,115841,1,0,0:0:0:0:
144,26,116001,1,0,0:0:0:0:
136,172,116160,1,0,0:0:0:0:
13,94,116320,6,0,P|7:143|10:184,1,80.9999975280763
278,252,116639,1,0,0:0:0:0:
35,290,116799,1,0,0:0:0:0:
136,172,116958,1,0,0:0:0:0:
136,172,117118,1,0,0:0:0:0:
119,354,117277,1,0,0:0:0:0:
246,126,117437,5,0,0:0:0:0:
246,126,117597,1,0,0:0:0:0:
41,368,117756,1,0,0:0:0:0:
225,327,117916,2,0,P|284:324|327:331,1,80.9999975280763
443,233,118235,6,0,L|451:177,2,53.9999983520508
331,158,118554,2,0,L|323:102,2,53.9999983520508
419,333,118873,6,0,P|372:326|304:333,1,116.999994644165
303,333,119511,2,0,P|256:340|188:333,1,116.999994644165
89,352,119990,6,0,P|82:283|87:224,1,116.999994644165
85,235,120629,1,0,0:0:0:0:
85,235,121107,2,0,P|125:234|151:229,1,58.4999973220826
229,100,121426,6,0,P|233:128|233:158,1,58.4999973220826
188,307,121746,1,0,0:0:0:0:
386,211,121905,2,0,B|424:230|420:286|390:294|390:294|337:240|277:222|215:237,1,292.499986610413
47,317,123022,5,0,0:0:0:0:
47,317,123341,2,0,L|36:255,1,58.4999973220826
16,126,123660,1,0,0:0:0:0:
93,201,123820,6,0,P|134:199|189:149,1,116.999994644165
103,108,124299,1,0,0:0:0:0:
231,242,124458,2,0,L|225:305,1,58.4999973220826
301,138,124777,2,0,L|307:201,1,58.4999973220826
319,344,125097,1,0,0:0:0:0:
319,344,125256,6,0,P|364:321|436:324,1,116.999994644165
505,240,125735,2,0,P|447:242|394:217,1,116.999994644165
464,96,126214,2,0,P|469:134|468:159,1,58.4999973220826
303,252,126533,6,0,P|298:214|299:189,2,58.4999973220826
233,307,127011,2,0,P|221:273|218:188,1,116.999994644165
341,49,127490,5,0,0:0:0:0:
341,49,127809,2,0,P|318:81|171:76,1,175.499991966248
46,33,128448,5,0,0:0:0:0:
47,65,128527,1,0,0:0:0:0:
48,97,128607,1,0,0:0:0:0:
49,129,128687,1,0,0:0:0:0:
50,161,128767,1,0,0:0:0:0:
51,193,128847,1,0,0:0:0:0:
51,225,128926,1,0,0:0:0:0:
51,257,129006,1,0,0:0:0:0:
51,289,129086,6,0,P|95:281|136:283,1,80.9999975280763
410,318,129405,2,0,P|362:333|272:314,1,121.499996292114
237,244,129724,2,0,L|234:153,1,80.9999975280763
335,11,130043,1,0,0:0:0:0:
455,149,130203,6,0,L|457:229,1,80.9999975280763
234,103,130522,2,0,P|278:87|330:83,1,80.9999975280763
237,244,130841,1,0,0:0:0:0:
237,244,130921,1,0,0:0:0:0:
237,244,131001,1,0,0:0:0:0:
111,99,131160,1,0,0:0:0:0:
38,280,131320,2,0,L|129:264,1,80.9999975280763
347,353,131639,6,0,P|306:346|273:324,1,80.9999975280763
334,106,131958,2,0,L|343:237,1,121.499996292114
430,264,132277,2,0,L|523:256,1,80.9999975280763
334,106,132597,1,0,0:0:0:0:
254,248,132756,1,0,0:0:0:0:
180,144,132916,6,0,P|146:174|131:211,1,80.9999975280763
291,371,133235,2,0,P|250:374|213:360,1,80.9999975280763
16,276,133554,1,0,0:0:0:0:
254,248,133714,1,0,0:0:0:0:
254,248,133793,1,0,0:0:0:0:
254,248,133873,2,0,L|350:235,1,80.9999975280763
423,51,134192,6,0,P|440:94|441:129,1,80.9999975280763
193,299,134511,2,0,P|170:238|216:175,1,121.499996292114
94,224,134831,2,0,P|52:231|8:231,1,80.9999975280763
210,108,135150,1,0,0:0:0:0:
313,257,135309,6,0,L|326:347,1,80.9999975280763
436,92,135629,2,0,L|424:172,1,80.9999975280763
317,114,135948,1,0,0:0:0:0:
448,298,136107,1,0,0:0:0:0:
313,257,136267,1,0,0:0:0:0:
284,240,136347,1,0,0:0:0:0:
252,233,136426,1,0,0:0:0:0:
219,232,136506,1,0,0:0:0:0:
192,250,136586,6,0,P|164:287|78:237,1,161.999995056153
274,347,137065,2,0,L|367:331,1,80.9999975280763
477,119,137384,2,0,L|384:135,1,80.9999975280763
196,57,137703,1,0,0:0:0:0:
298,257,137863,6,0,P|305:213|297:170,1,80.9999975280763
196,57,138182,1,0,0:0:0:0:
169,74,138261,1,0,0:0:0:0:
141,90,138341,1,0,0:0:0:0:
113,107,138421,1,0,0:0:0:0:
84,122,138501,1,0,0:0:0:0:
55,136,138581,1,0,0:0:0:0:
27,151,138660,6,0,L|18:205,1,40.4999987640381
146,266,138820,2,0,L|139:226,1,40.4999987640381
7,287,138980,2,0,L|63:277,1,40.4999987640381
178,345,139139,2,0,L|139:353,1,40.4999987640381
288,289,139299,6,0,P|349:267|447:307,1,161.999995056153
476,141,139777,1,0,0:0:0:0:
476,141,139937,2,0,P|485:187|481:229,1,80.9999975280763
355,193,140256,2,0,P|346:147|350:105,1,80.9999975280763
416,75,140575,6,0,B|393:112|393:112|346:103|261:131,2,161.999995056153
96,75,141533,1,0,0:0:0:0:
96,75,141852,5,0,0:0:0:0:
138,314,142011,1,0,0:0:0:0:
312,274,142171,1,0,0:0:0:0:
64,212,142331,5,0,0:0:0:0:
263,351,142490,1,0,0:0:0:0:
358,200,142650,1,0,0:0:0:0:
96,75,142809,5,0,0:0:0:0:
138,314,142968,1,0,0:0:0:0:
256,28,143129,5,0,0:0:0:0:
184,224,143288,1,0,0:0:0:0:
184,224,143448,1,0,0:0:0:0:
168,20,143607,2,0,L|184:100,1,80.9999975280763
263,351,143926,1,0,0:0:0:0:
400,112,144086,1,0,0:0:0:0:
400,112,144166,1,0,0:0:0:0:
400,112,144246,1,0,0:0:0:0:
400,112,144325,1,0,0:0:0:0:
400,112,144405,6,0,P|352:104|310:112,1,90
102,271,144724,1,0,0:0:0:0:
263,351,144884,2,0,L|276:262,1,90
153,36,145203,2,0,L|140:125,1,90
362,312,145522,1,0,0:0:0:0:
102,271,145682,6,0,P|40:269|6:280,1,90
240,211,146001,2,0,P|302:213|336:202,1,90
57,12,146320,2,0,L|50:107,1,90
138,112,146559,1,0,0:0:0:0:
138,112,146639,2,0,L|131:207,1,90
356,365,146958,6,0,P|363:323|355:274,1,90
272,118,147277,1,0,0:0:0:0:
421,216,147437,2,0,L|513:206,1,90
429,29,147756,2,0,L|339:38,1,90
280,258,148075,1,0,0:0:0:0:
161,63,148235,6,0,P|144:108|154:151,1,90
13,300,148554,2,0,P|58:317|101:307,1,90
329,195,148873,2,0,P|284:178|241:188,1,90
276,356,149192,1,0,0:0:0:0:
329,195,149352,2,0,L|344:149,1,45
382,45,149511,5,0,0:0:0:0:
295,278,149671,1,0,0:0:0:0:
225,127,149831,1,0,0:0:0:0:
452,200,149991,1,0,0:0:0:0:
276,356,150150,1,0,0:0:0:0:
312,106,150309,1,0,0:0:0:0:
211,295,150469,1,0,0:0:0:0:
394,120,150629,6,0,P|440:99|492:99,1,90
193,210,150948,2,0,P|148:206|107:187,1,90
398,263,151267,2,0,L|407:353,1,90
279,114,151586,1,0,0:0:0:0:
211,295,151746,2,0,P|181:331|142:346,1,90
54,78,152065,6,0,L|157:100,1,90
305,233,152384,2,0,L|202:211,1,90
371,129,152703,1,0,0:0:0:0:
368,340,152863,1,0,0:0:0:0:
216,214,153022,1,0,0:0:0:0:
461,241,153182,1,0,0:0:0:0:
228,324,153341,5,0,0:0:0:0:
191,322,153421,1,0,0:0:0:0:
157,307,153501,1,0,0:0:0:0:
126,287,153581,1,0,0:0:0:0:
107,256,153660,1,0,0:0:0:0:
99,220,153740,1,0,0:0:0:0:
108,185,153820,1,0,0:0:0:0:
127,154,153900,5,0,0:0:0:0:
141,121,153980,1,0,0:0:0:0:
136,85,154059,1,0,0:0:0:0:
113,56,154139,1,0,0:0:0:0:
77,48,154219,1,0,0:0:0:0:
41,56,154299,1,0,0:0:0:0:
21,86,154379,1,0,0:0:0:0:
18,121,154458,1,0,0:0:0:0:
29,155,154538,1,0,0:0:0:0:
59,174,154618,6,0,P|119:163|206:190,1,135
189,180,154937,1,0,0:0:0:0:
324,76,155097,2,0,L|327:183,1,90
215,357,155416,1,0,0:0:0:0:
107,259,155575,1,0,0:0:0:0:
296,297,155735,6,0,P|346:301|386:288,1,90
189,180,156054,1,0,0:0:0:0:
120,365,156214,1,0,0:0:0:0:
86,144,156373,2,0,P|108:98|144:83,1,90
381,170,156692,2,0,L|287:160,1,90
432,41,157011,1,0,0:0:0:0:
347,248,157171,6,0,P|330:294|422:365,2,180
206,332,157969,1,0,0:0:0:0:
406,294,158129,1,0,0:0:0:0:
164,137,158288,1,0,0:0:0:0:
206,332,158448,6,0,P|216:289|208:243,1,90
69,17,158767,2,0,P|59:60|67:106,1,90
304,248,159086,1,0,0:0:0:0:
340,248,159166,1,0,0:0:0:0:
373,233,159246,1,0,0:0:0:0:
400,210,159325,1,0,0:0:0:0:
415,177,159405,1,0,0:0:0:0:
417,141,159485,1,0,0:0:0:0:
409,105,159565,1,0,0:0:0:0:
388,75,159644,1,0,0:0:0:0:
353,64,159724,6,0,L|252:72,1,90
69,17,160043,1,0,0:0:0:0:
243,199,160203,2,0,P|248:248|238:289,1,90
28,193,160522,2,0,P|23:144|33:103,1,90
241,102,160841,1,0,0:0:0:0:
124,326,161001,6,0,L|34:333,1,90
281,263,161320,2,0,L|371:256,1,90
488,77,161639,2,0,P|500:124|496:171,1,90
459,253,161879,1,0,0:0:0:0:
459,253,161958,2,0,P|447:300|451:347,1,90
292,182,162277,6,0,L|190:169,1,90
100,74,162597,1,0,0:0:0:0:
343,269,162756,2,0,P|378:231|389:187,1,90
246,18,163075,2,0,P|261:67|294:98,1,90
488,81,163394,1,0,0:0:0:0:
292,182,163554,6,0,L|190:169,1,90
11,64,163873,2,0,L|100:75,1,90
185,303,164192,2,0,L|83:290,1,90
292,182,164511,1,0,0:0:0:0:
346,347,164671,2,0,L|405:353,1,45
493,293,164831,5,0,0:0:0:0:
364,62,164990,1,0,0:0:0:0:
329,261,165150,1,0,0:0:0:0:
492,144,165309,1,0,0:0:0:0:
292,182,165469,1,0,0:0:0:0:
493,293,165629,1,0,0:0:0:0:
292,182,165788,1,0,0:0:0:0:
492,144,165948,6,0,L|401:133,1,90
167,66,166267,2,0,L|256:55,1,90
408,217,166586,2,0,P|418:265|410:306,1,90
167,371,166905,1,0,0:0:0:0:
217,226,167065,2,0,L|306:215,1,90
53,319,167384,6,0,P|23:277|15:239,1,90
86,21,167703,1,0,0:0:0:0:
220,139,167863,1,0,0:0:0:0:
68,144,168022,2,0,L|-25:134,1,90
186,40,168341,1,0,0:0:0:0:
217,227,168501,6,0,P|221:278|216:319,1,90
83,226,168820,2,0,L|31:217,2,45
314,269,169139,1,0,0:0:0:0:
314,269,169219,1,0,0:0:0:0:
314,269,169299,2,0,L|361:274,1,45
475,210,169458,2,0,L|431:206,1,45
313,141,169618,1,0,0:0:0:0:
348,148,169698,1,0,0:0:0:0:
382,140,169777,1,0,0:0:0:0:
414,125,169857,1,0,0:0:0:0:
445,107,169937,6,0,P|468:66|397:18,1,135
412,14,170256,1,0,0:0:0:0:
314,269,170416,2,0,P|307:320|315:360,1,90
450,313,170735,1,0,0:0:0:0:
240,199,170894,1,0,0:0:0:0:
186,351,171054,6,0,L|91:356,1,90
94,93,171373,1,0,0:0:0:0:
38,228,171533,1,0,0:0:0:0:
182,143,171692,2,0,P|192:97|185:52,1,90
276,282,172011,2,0,L|365:277,2,90
400,119,172490,5,0,0:0:0:0:
120,103,172730,5,0,0:0:0:0:
247,353,172969,5,0,0:0:0:0:
402,368,173129,6,0,P|407:311|400:251,1,116.999994644165
256,48,173767,5,0,0:0:0:0:
112,192,174086,1,0,0:0:0:0:
256,336,174405,2,0,B|256:288|256:288|264:272|264:272|248:256|248:256|256:240|256:240|285:198|226:182|256:119,1,233.999989288331
116,275,185256,5,0,0:0:0:0:
116,275,185416,2,0,L|234:263,1,116.999994644165
314,97,185894,2,0,B|340:143|315:192|315:192|350:190,2,116.999994644165
323,317,186852,1,0,0:0:0:0:
385,59,187171,2,0,P|400:96|405:173,1,116.999994644165
323,317,187809,5,0,0:0:0:0:
323,317,187969,2,0,B|277:311|277:311|246:325|246:325|206:315,1,116.999994644165
396,336,188448,2,0,P|431:331|480:261,1,116.999994644165
423,117,189086,5,0,0:0:0:0:
414,138,189405,1,0,0:0:0:0:
405,159,189724,2,0,L|340:134,1,58.4999973220826
233,37,190043,2,0,P|265:79|258:128,1,87.749995983124
220,187,190363,5,0,0:0:0:0:
220,187,190522,2,0,L|225:308,1,116.999994644165
113,242,191001,2,0,P|53:249|58:294,1,116.999994644165
361,318,191639,1,0,0:0:0:0:
137,355,191958,1,0,0:0:0:0:
368,214,192277,2,0,P|374:177|368:96,1,116.999994644165
143,98,192916,5,0,0:0:0:0:
143,98,193075,2,0,P|137:156|144:214,1,116.999994644165
200,288,193554,2,0,L|272:288,1,58.4999973220826
284,200,193873,1,0,0:0:0:0:
224,368,194033,2,0,B|275:368|275:368|309:364|331:328,1,116.999994644165
448,288,194511,2,0,L|447:229,1,58.4999973220826
397,84,194831,2,0,B|389:96|389:96|376:97|376:97|358:92|358:92|346:96|346:96|325:108|291:98,1,87.749995983124
241,78,195150,5,0,0:0:0:0:
464,151,195309,1,0,0:0:0:0:
302,285,195469,6,0,P|251:298|169:259,1,121.499996292114
114,232,195788,2,0,L|85:316,1,80.9999975280763
256,165,196107,1,0,0:0:0:0:
362,338,196267,2,0,P|381:299|378:262,1,80.9999975280763
346,35,196586,6,0,P|335:87|399:174,1,161.999995056153
256,165,197065,2,0,L|174:141,1,80.9999975280763
438,79,197384,1,0,0:0:0:0:
438,79,197543,1,0,0:0:0:0:
336,253,197703,1,0,0:0:0:0:
438,79,197863,1,0,0:0:0:0:
336,253,198022,6,0,P|277:240|217:265,1,121.499996292114
143,326,198341,2,0,L|55:326,1,80.9999975280763
163,176,198660,1,0,0:0:0:0:
344,342,198820,2,0,L|432:342,1,80.9999975280763
479,171,199139,6,0,P|484:219|481:256,1,80.9999975280763
420,69,199458,1,0,0:0:0:0:
336,253,199618,2,0,L|255:253,1,80.9999975280763
96,164,199937,1,0,0:0:0:0:
52,312,200097,1,0,0:0:0:0:
69,322,200176,1,0,0:0:0:0:
88,327,200256,1,0,0:0:0:0:
108,326,200336,1,0,0:0:0:0:
127,321,200416,1,0,0:0:0:0:
145,313,200496,1,0,0:0:0:0:
162,303,200575,6,0,L|194:181,1,121.499996292114
248,140,200894,2,0,L|226:228,1,80.9999975280763
159,75,201214,1,0,0:0:0:0:
306,267,201373,1,0,0:0:0:0:
306,267,201533,1,0,0:0:0:0:
242,54,201692,5,0,0:0:0:0:
247,340,201852,1,0,0:0:0:0:
247,340,202011,1,0,0:0:0:0:
369,192,202171,2,0,L|389:283,1,80.9999975280763
153,311,202490,2,0,L|170:231,1,80.9999975280763
325,29,202809,2,0,L|345:120,1,80.9999975280763
399,323,203129,5,0,0:0:0:0:
216,204,203288,1,0,0:0:0:0:
247,340,203448,1,0,0:0:0:0:
369,192,203607,1,0,0:0:0:0:
186,282,203767,1,0,0:0:0:0:
431,249,203926,1,0,0:0:0:0:
289,151,204086,1,0,0:0:0:0:
247,340,204246,1,0,0:0:0:0:
369,192,204405,5,0,0:0:0:0:
383,177,204485,1,0,0:0:0:0:
390,158,204565,1,0,0:0:0:0:
394,138,204644,1,0,0:0:0:0:
393,117,204724,1,0,0:0:0:0:
384,98,204804,1,0,0:0:0:0:
369,84,204884,1,0,0:0:0:0:
352,71,204964,1,0,0:0:0:0:
333,64,205043,1,0,0:0:0:0:
96,56,205203,2,0,L|184:46,1,80.9999975280763
247,340,205522,6,0,P|200:335|135:242,1,161.999995056153
241,53,206001,2,0,P|236:103|217:134,1,80.9999975280763
76,169,206320,1,0,0:0:0:0:
238,241,206480,2,0,L|335:229,1,80.9999975280763
460,76,206799,1,0,0:0:0:0:
418,197,206958,6,0,B|406:237|406:237|416:281,1,80.9999975280763
276,366,207277,1,0,0:0:0:0:
377,112,207437,2,0,B|340:131|340:131|316:169,1,80.9999975280763
276,366,207756,1,0,0:0:0:0:
460,76,207916,1,0,0:0:0:0:
377,294,208075,6,0,P|317:251|224:250,1,161.999995056153
0,317,208554,2,0,P|48:311|83:294,1,80.9999975280763
189,48,208873,1,0,0:0:0:0:
104,135,209033,2,0,L|99:219,1,80.9999975280763
276,366,209352,1,0,0:0:0:0:
244,258,209511,6,0,P|199:280|179:310,1,80.9999975280763
376,321,209831,1,0,0:0:0:0:
341,108,209990,2,0,P|325:160|336:200,1,80.9999975280763
491,324,210309,1,0,0:0:0:0:
276,366,210469,2,0,L|230:366,1,40.4999987640381
158,310,210629,2,0,L|112:310,1,40.4999987640381
316,293,210788,6,0,P|330:255|320:211,1,80.9999975280763
209,145,211027,2,0,L|303:135,1,80.9999975280763
354,76,211267,1,0,0:0:0:0:
170,227,211426,2,0,P|136:200|139:86,1,161.999995056153
52,199,211905,1,0,0:0:0:0:
52,199,211985,1,0,0:0:0:0:
52,199,212065,6,0,L|33:295,1,80.9999975280763
162,315,212384,1,0,0:0:0:0:
29,107,212543,1,0,0:0:0:0:
25,356,212703,1,0,0:0:0:0:
170,227,212863,1,0,0:0:0:0:
170,227,212942,1,0,0:0:0:0:
170,227,213022,2,0,L|232:224,1,40.4999987640381
241,125,213182,2,0,L|286:166,1,40.4999987640381
325,270,213341,6,0,P|369:268|422:238,1,80.9999975280763
424,173,213581,2,0,P|380:175|327:205,1,80.9999975280763
310,346,213820,1,0,0:0:0:0:
491,233,213980,6,0,P|514:155|457:97,1,161.999995056153
504,11,214458,1,0,0:0:0:0:
424,173,214618,1,0,0:0:0:0:
494,337,214777,1,0,0:0:0:0:
339,229,214937,1,0,0:0:0:0:
511,150,215097,1,0,0:0:0:0:
382,327,215256,1,0,0:0:0:0:
354,344,215336,1,0,0:0:0:0:
322,349,215416,1,0,0:0:0:0:
289,347,215496,1,0,0:0:0:0:
258,338,215575,1,0,0:0:0:0:
11,189,215735,6,0,P|82:198|131:283,1,161.999995056153
250,215,216214,2,0,L|349:204,1,80.9999975280763
202,128,216533,1,0,0:0:0:0:
214,319,216692,2,0,L|313:308,1,80.9999975280763
425,106,217011,1,0,0:0:0:0:
403,255,217171,6,0,P|400:297|413:335,1,80.9999975280763
497,164,217490,1,0,0:0:0:0:
294,310,217650,2,0,L|214:319,1,80.9999975280763
67,172,217969,1,0,0:0:0:0:
46,351,218129,1,0,0:0:0:0:
227,236,218288,6,0,B|248:191|220:115|220:115|258:144,1,161.999995056153
294,310,218767,2,0,B|295:364|269:385,1,80.9999975280763
316,184,219086,1,0,0:0:0:0:
139,264,219246,2,0,L|43:256,1,80.9999975280763
180,128,219565,1,0,0:0:0:0:
294,310,219724,6,0,P|337:312|372:300,1,80.9999975280763
431,61,220043,1,0,0:0:0:0:
473,162,220203,2,0,L|464:252,1,80.9999975280763
431,61,220522,1,0,0:0:0:0:
316,184,220682,2,0,L|271:208,1,40.4999987640381
141,212,220841,2,0,L|105:192,1,40.4999987640381
203,51,221001,6,0,L|208:144,1,80.9999975280763
210,242,221240,2,0,L|205:322,1,80.9999975280763
102,363,221480,1,0,0:0:0:0:
345,271,221639,2,0,B|380:239|470:259|483:312|483:312|415:353,1,242.999992584229
283,206,222277,6,0,L|290:123,1,80.9999975280763
379,80,222597,1,0,0:0:0:0:
267,308,222756,2,0,P|227:291|198:255,1,80.9999975280763
391,175,223075,1,0,0:0:0:0:
391,175,223155,1,0,0:0:0:0:
391,175,223235,2,0,L|478:169,1,80.9999975280763
239,31,223554,6,0,P|194:39|156:57,1,80.9999975280763
78,135,223793,2,0,P|51:172|37:212,1,80.9999975280763
44,324,224033,1,0,0:0:0:0:
364,289,224192,2,0,B|279:226|224:315|121:240,1,242.999992584229
306,186,224831,6,0,P|358:194|390:211,1,80.9999975280763
196,352,225150,2,0,P|151:344|113:326,1,80.9999975280763
208,109,225469,1,0,0:0:0:0:
336,370,225629,1,0,0:0:0:0:
458,302,225788,1,0,0:0:0:0:
471,272,225868,1,0,0:0:0:0:
477,240,225948,1,0,0:0:0:0:
472,208,226027,1,0,0:0:0:0:
454,180,226107,6,0,L|324:165,1,116.999994644165
393,87,226586,2,0,L|263:72,1,116.999994644165
74,215,227224,1,0,0:0:0:0:
74,215,227303,1,0,0:0:0:0:
74,215,227384,1,0,0:0:0:0:
74,215,228022,2,0,P|136:201|200:216,1,124.312494309426
303,337,228720,6,0,L|312:228,1,102.374995313645
404,288,229219,2,0,L|416:168,1,116.999994644165
199,292,229777,1,0,0:0:0:0:
256,40,229937,5,0,0:0:0:0:
199,292,230097,1,0,0:0:0:0:
199,292,230257,1,0,0:0:0:0:
256,40,230416,2,0,L|244:90,1,40.4999987640381
314,194,230575,2,0,L|276:158,1,40.4999987640381
150,165,230735,2,0,L|199:150,1,40.4999987640381
369,88,230894,2,0,L|319:102,1,40.4999987640381
131,68,231054,2,0,L|169:79,1,40.4999987640381
398,165,231214,5,0,0:0:0:0:
131,244,231373,1,0,0:0:0:0:
131,68,231533,1,0,0:0:0:0:
270,294,231692,1,0,0:0:0:0:
40,165,231852,1,0,0:0:0:0:
254,92,232011,1,0,0:0:0:0:
179,338,232171,1,0,0:0:0:0:
354,242,232331,6,0,P|407:261|433:290,1,90
94,320,232650,2,0,L|-2:305,1,90
302,83,232969,2,0,P|306:135|297:173,1,90
179,338,233288,1,0,0:0:0:0:
70,180,233448,2,0,P|66:128|75:90,1,90
395,138,233767,5,0,0:0:0:0:
148,138,233926,1,0,0:0:0:0:
209,17,234086,1,0,0:0:0:0:
344,258,234246,1,0,0:0:0:0:
71,256,234405,1,0,0:0:0:0:
303,66,234565,1,0,0:0:0:0:
205,322,234724,1,0,0:0:0:0:
31,106,234884,6,0,L|126:78,1,90
344,258,235203,2,0,P|285:246|254:228,1,90
492,79,235522,1,0,0:0:0:0:
441,295,235682,1,0,0:0:0:0:
426,327,235761,1,0,0:0:0:0:
397,348,235841,1,0,0:0:0:0:
363,359,235921,1,0,0:0:0:0:
326,358,236001,1,0,0:0:0:0:
292,345,236081,1,0,0:0:0:0:
264,323,236160,1,0,0:0:0:0:
241,294,236240,1,0,0:0:0:0:
234,258,236320,6,0,P|247:205|235:121,1,135
236,126,236639,1,0,0:0:0:0:
348,225,236799,2,0,L|454:218,1,90
236,126,237118,1,0,0:0:0:0:
129,297,237277,1,0,0:0:0:0:
35,186,237437,6,0,P|27:138|32:93,1,90
183,208,237756,1,0,0:0:0:0:
6,308,237916,1,0,0:0:0:0:
267,357,238075,2,0,L|373:350,1,90
455,136,238394,2,0,L|349:143,1,90
129,297,238714,1,0,0:0:0:0:
267,255,238873,6,0,P|276:207|264:160,1,90
50,65,239192,2,0,P|66:111|100:145,1,90
361,103,239511,2,0,P|321:71|275:58,1,90
24,314,239831,2,0,P|70:297|104:263,1,90
184,24,240150,5,0,0:0:0:0:
192,336,240309,1,0,0:0:0:0:
33,191,240469,1,0,0:0:0:0:
345,183,240628,1,0,0:0:0:0:
192,336,240788,5,0,0:0:0:0:
155,308,240868,1,0,0:0:0:0:
131,269,240948,1,0,0:0:0:0:
117,226,241027,1,0,0:0:0:0:
112,181,241107,1,0,0:0:0:0:
123,137,241187,1,0,0:0:0:0:
145,98,241267,1,0,0:0:0:0:
178,68,241347,1,0,0:0:0:0:
221,56,241426,6,0,P|240:104|228:148,1,90
53,293,241746,1,0,0:0:0:0:
233,261,241905,2,0,L|338:248,1,90
414,83,242224,1,0,0:0:0:0:
428,228,242383,1,0,0:0:0:0:
294,168,242543,1,0,0:0:0:0:
487,153,242703,5,0,0:0:0:0:
319,74,242863,1,0,0:0:0:0:
333,259,243022,2,0,P|338:313|333:354,1,90
117,353,243341,1,0,0:0:0:0:
257,235,243501,1,0,0:0:0:0:
257,235,243581,1,0,0:0:0:0:
257,235,243660,1,0,0:0:0:0:
92,184,243820,1,0,0:0:0:0:
248,367,243980,6,0,P|297:363|340:345,1,90
415,96,244299,1,0,0:0:0:0:
476,259,244458,2,0,L|469:355,1,90
257,235,244777,2,0,L|264:139,1,90
415,96,245097,1,0,0:0:0:0:
295,326,245256,6,0,P|251:331|194:312,1,90
167,152,245575,1,0,0:0:0:0:
362,173,245735,1,0,0:0:0:0:
129,373,245894,2,0,P|108:322|115:283,1,90
289,42,246214,1,0,0:0:0:0:
257,235,246373,2,0,L|209:227,1,45
77,192,246533,5,0,0:0:0:0:
362,173,246692,1,0,0:0:0:0:
136,68,246852,1,0,0:0:0:0:
323,303,247011,1,0,0:0:0:0:
289,42,247171,1,0,0:0:0:0:
157,315,247331,1,0,0:0:0:0:
362,173,247490,1,0,0:0:0:0:
77,192,247650,6,0,L|26:98,1,90
362,173,247969,2,0,L|341:265,1,90
289,42,248288,2,0,P|343:19|378:17,1,90
157,315,248607,1,0,0:0:0:0:
77,192,248767,2,0,P|116:173|162:170,1,90
356,350,249086,5,0,0:0:0:0:
503,150,249246,1,0,0:0:0:0:
310,207,249405,1,0,0:0:0:0:
510,354,249565,1,0,0:0:0:0:
412,128,249724,1,0,0:0:0:0:
265,328,249884,1,0,0:0:0:0:
510,354,250043,1,0,0:0:0:0:
310,207,250203,1,0,0:0:0:0:
503,150,250363,6,0,L|518:201,1,45
391,231,250522,2,0,P|410:208|437:196,1,45
512,277,250682,2,0,P|491:285|468:286,1,45
310,207,250841,2,0,L|289:157,1,45
414,7,251001,5,0,0:0:0:0:
445,24,251081,1,0,0:0:0:0:
457,57,251160,1,0,0:0:0:0:
456,93,251240,1,0,0:0:0:0:
429,117,251320,1,0,0:0:0:0:
395,130,251400,1,0,0:0:0:0:
359,124,251480,1,0,0:0:0:0:
329,103,251559,1,0,0:0:0:0:
295,89,251639,6,0,P|221:78|137:77,1,135
160,76,251958,1,0,0:0:0:0:
28,29,252118,2,0,P|26:91|35:128,1,90
179,362,252437,1,0,0:0:0:0:
268,210,252597,1,0,0:0:0:0:
116,283,252756,6,0,P|68:291|24:284,1,90
228,130,253075,1,0,0:0:0:0:
292,354,253235,1,0,0:0:0:0:
405,218,253394,2,0,P|453:210|497:217,1,90
292,354,253714,1,0,0:0:0:0:
148,244,253873,1,0,0:0:0:0:
119,221,253953,1,0,0:0:0:0:
102,189,254033,1,0,0:0:0:0:
91,154,254113,1,0,0:0:0:0:
94,118,254192,5,0,0:0:0:0:
409,57,254432,5,0,0:0:0:0:
292,354,254671,5,0,0:0:0:0:
256,212,254831,6,0,P|271:141|323:192,1,175.499991966248
125,340,255469,5,0,0:0:0:0:
108,61,255788,1,0,0:0:0:0:
387,44,256107,1,0,0:0:0:0:
404,323,256426,1,0,0:0:0:0:
80,192,256746,6,0,B|144:168|200:192|200:192|216:224|216:224|264:168|264:168|280:192|280:192|324:200|384:192,1,350.999983932496
