osu file format v14

[General]
AudioFilename: Fukagyaku Replace.mp3
AudioLeadIn: 2000
PreviewTime: 69156
Countdown: 0
SampleSet: None
StackLeniency: 0.7
Mode: 0
LetterboxInBreaks: 0
WidescreenStoryboard: 0

[Editor]
DistanceSpacing: 1.3
BeatDivisor: 4
GridSize: 4
TimelineZoom: 2

[Metadata]
Title:Fukagyaku Replace
TitleUnicode:不可逆リプレイス
Artist:MY FIRST STORY
ArtistUnicode:MY FIRST STORY
Creator:kunkakunkakunkakunka
Version:Insane
Source:信長協奏曲
Tags:ending tv size nobunaga concerto oda saburo
BeatmapID:731450
BeatmapSetID:194394

[Difficulty]
HPDrainRate:7
CircleSize:4
OverallDifficulty:7
ApproachRate:9
SliderMultiplier:1.3
SliderTickRate:1

[Events]
//Background and Video events
Video,98,"Fukagyaku Replace.avi"
0,0,"Fukagyaku Replace.jpg",0,0
//Break Periods
//Storyboard Layer 0 (Background)
//Storyboard Layer 1 (Fail)
//Storyboard Layer 2 (Pass)
//Storyboard Layer 3 (Foreground)
//Storyboard Sound Samples

[TimingPoints]
706,301.507537688442,4,2,1,40,1,0
12012,-100,4,3,1,5,0,0
12106,300.3003003003,4,3,1,50,1,0
12106,-83.3333333333333,4,3,1,50,0,0
20364,-83.3333333333333,4,3,2,50,0,0
20964,-100,4,2,1,40,0,0
21565,-83.3333333333333,4,3,1,50,0,0
40930,300.285271007457,4,3,1,40,1,0
50539,-90.9090909090909,4,3,1,50,0,0
69156,-83.3333333333333,4,3,1,25,0,0
69757,-83.3333333333333,4,3,1,60,0,1
88825,-100,4,3,1,20,0,0

[Colours]
Combo1 : 255,128,255
Combo2 : 128,255,128
Combo3 : 255,128,0
Combo4 : 255,128,128
Combo5 : 255,255,128

[HitObjects]
448,140,102,6,0,P|388:108|328:132,1,130
208,244,706,6,0,P|148:276|88:252,1,130,2|0,0:0|0:0,0:0:0:0:
30,200,1158,2,0,P|90:168|150:192,1,130
208,244,1610,2,0,P|226:183|200:124,1,130
136,68,2062,2,0,P|196:36|257:57,1,130
328,88,2515,2,0,L|400:64,1,65,2|0,0:0|0:0,0:0:0:0:
444,132,2816,2,0,L|372:156,1,65
368,236,3118,6,0,L|296:212,1,65,2|0,0:0|0:0,0:0:0:0:
228,184,3419,1,0,0:0:0:0:
252,104,3570,2,0,P|188:108|148:156,1,130
168,236,4022,2,0,P|102:223|69:173,2,130,0|0|2,0:0|0:0|0:0,0:0:0:0:
330,189,4927,2,0,L|394:209,1,65
396,123,5228,2,0,L|332:103,1,65
274,43,5530,6,0,L|210:63,1,65,2|0,0:0|0:0,0:0:0:0:
152,122,5831,1,0,0:0:0:0:
72,94,5982,2,0,P|77:162|122:202,1,130
203,216,6434,6,0,L|272:228,1,65,2|0,0:0|0:0,0:0:0:0:
343,264,6736,1,0,0:0:0:0:
423,236,6886,2,0,P|428:299|381:343,1,130
297,349,7339,6,0,L|229:361,1,65
194,284,7640,2,0,L|262:272,1,65
343,264,7942,2,0,P|316:212|251:189,1,130,2|0,0:0|0:0,0:0:0:0:
168,200,8394,2,0,P|132:144|147:84,1,130
256,192,8846,12,0,12012,0:0:0:0:
92,76,12106,6,0,L|172:68,1,77.999997619629,8|0,0:0|0:0,0:0:0:0:
232,148,12406,2,0,L|152:156,1,77.999997619629,8|0,0:0|0:0,0:0:0:0:
264,72,12706,2,0,L|344:64,1,77.999997619629,8|0,0:0|0:0,0:0:0:0:
404,144,13006,2,0,L|324:152,1,77.999997619629,8|0,0:0|0:0,0:0:0:0:
264,232,13307,6,0,L|236:304,1,77.999997619629,8|0,0:0|0:0,0:0:0:0:
352,264,13607,2,0,L|380:336,1,77.999997619629,8|0,0:0|0:0,0:0:0:0:
328,184,13907,2,0,P|264:152|196:192,1,155.999995239258,8|8,0:0|0:0,0:0:0:0:
108,240,14358,1,0,0:0:0:0:
140,336,14508,6,0,L|213:364,1,77.999997619629,8|0,0:0|0:0,0:0:0:0:
284,292,14808,2,0,L|211:264,1,77.999997619629,8|0,0:0|0:0,0:0:0:0:
108,240,15109,2,0,L|76:168,1,77.999997619629,8|0,0:0|0:0,0:0:0:0:
40,72,15409,1,8,0:0:0:0:
136,36,15559,6,0,B|212:52|212:52|292:36,1,155.999995239258
380,80,16009,2,0,L|417:162,1,77.999997619629,8|2,0:0|0:2,0:0:0:0:
324,200,16310,1,8,0:0:0:0:
364,292,16460,1,2,0:2:0:0:
238,258,16610,1,8,0:0:0:0:
278,350,16760,1,0,0:0:0:0:
278,350,16835,1,0,0:0:0:0:
278,350,16910,6,0,P|202:326|134:358,1,155.999995239258,4|2,0:2|0:0,0:0:0:0:
39,253,17361,2,0,P|61:171|29:107,1,155.999995239258,4|0,0:2|0:0,0:0:0:0:
143,24,17811,2,0,L|191:86,1,77.999997619629,4|0,0:2|0:0,0:0:0:0:
250,213,18112,6,0,P|326:237|394:205,1,155.999995239258,4|2,0:2|0:0,0:0:0:0:
459,83,18562,2,0,P|435:159|467:227,1,155.999995239258,4|0,0:2|0:0,0:0:0:0:
357,314,19012,2,0,L|284:346,1,77.999997619629,4|0,0:2|0:0,0:0:0:0:
144,343,19313,5,2,0:0:0:0:
215,249,19463,1,2,0:0:0:0:
201,148,19613,1,2,0:0:0:0:
197,108,19688,1,0,0:0:0:0:
177,76,19763,2,0,B|129:28|61:28|61:28|49:60,1,155.999995239258,2|2,0:0|0:0,0:0:0:0:
68,193,20214,5,0,0:0:0:0:
201,148,20364,1,2,0:0:0:0:
473,347,20964,5,2,0:0:0:0:
473,347,21039,1,2,0:0:0:0:
473,347,21115,2,0,P|410:353|357:313,1,130,2|0,0:0|0:0,0:0:0:0:
303,230,21565,6,0,P|265:213|229:219,1,77.999997619629,4|0,0:2|0:0,0:0:0:0:
136,257,21865,1,2,0:0:0:0:
39,225,22015,2,0,P|26:184|34:147,1,77.999997619629,8|0,0:0|0:0,0:0:0:0:
115,90,22316,1,2,0:0:0:0:
211,118,22466,1,2,0:0:0:0:
307,90,22616,1,8,0:0:0:0:
403,118,22766,6,0,P|443:170|419:250,1,155.999995239258,2|2,0:0|0:0,0:0:0:0:
317,262,23217,1,8,0:0:0:0:
356,356,23367,1,0,0:0:0:0:
428,284,23517,2,0,P|464:268|504:280,2,77.999997619629,2|2|10,0:0|0:0|0:0,0:0:0:0:
428,184,23967,6,0,P|456:112|428:40,1,155.999995239258,4|2,0:2|0:0,0:0:0:0:
356,112,24418,2,0,L|284:148,1,77.999997619629,8|0,0:0|0:0,0:0:0:0:
200,96,24718,2,0,L|272:60,1,77.999997619629,2|0,0:0|0:0,0:0:0:0:
373,199,25018,2,0,L|300:236,1,77.999997619629,8|0,0:0|0:0,0:0:0:0:
216,284,25319,5,2,0:0:0:0:
136,344,25469,1,0,0:0:0:0:
36,320,25619,1,8,0:0:0:0:
16,220,25769,1,0,0:0:0:0:
52,128,25919,2,0,P|60:88|44:48,2,77.999997619629,2|2|8,0:0|0:0|0:0,0:0:0:0:
16,220,26370,6,0,L|100:204,1,77.999997619629,4|0,0:2|0:0,0:0:0:0:
188,168,26670,1,2,0:0:0:0:
188,268,26820,2,0,P|228:260|260:240,1,77.999997619629,8|0,0:0|0:0,0:0:0:0:
304,132,27121,1,2,0:0:0:0:
400,200,27271,2,0,L|464:244,1,77.999997619629,2|8,0:0|0:0,0:0:0:0:
428,340,27571,6,0,L|352:324,1,77.999997619629,4|0,0:0|0:0,0:0:0:0:
252,308,27871,1,2,0:0:0:0:
268,208,28021,2,0,P|228:208|188:232,1,77.999997619629,8|0,0:0|0:0,0:0:0:0:
136,328,28322,1,2,0:0:0:0:
96,216,28472,2,0,P|96:180|76:144,1,77.999997619629,2|8,0:0|0:0,0:0:0:0:
4,72,28772,6,0,P|72:40|144:68,1,155.999995239258,4|2,0:2|0:0,0:0:0:0:
176,92,29148,1,2,0:0:0:0:
176,92,29223,2,0,P|212:104|248:92,1,77.999997619629,8|2,0:0|0:0,0:0:0:0:
344,56,29523,2,0,P|380:44|420:56,1,77.999997619629,2|2,0:0|0:0,0:0:0:0:
380,148,29823,2,0,P|368:176|376:224,1,77.999997619629,8|2,0:0|0:0,0:0:0:0:
468,264,30124,5,10,0:0:0:0:
428,356,30274,1,2,0:0:0:0:
328,364,30424,1,2,0:0:0:0:
268,284,30574,1,2,0:0:0:0:
300,188,30724,2,0,P|312:144|300:112,2,77.999997619629,2|2|2,0:0|0:0|0:0,0:0:0:0:
204,148,31175,6,0,L|128:112,1,77.999997619629,4|0,0:2|0:0,0:0:0:0:
44,68,31475,1,2,0:0:0:0:
68,168,31625,2,0,P|72:204|60:248,1,77.999997619629,8|0,0:0|0:0,0:0:0:0:
20,336,31925,1,2,0:0:0:0:
120,360,32075,1,2,0:0:0:0:
220,336,32226,1,8,0:0:0:0:
280,256,32376,6,0,P|336:208|424:228,1,155.999995239258,2|2,0:0|0:0,0:0:0:0:
404,320,32826,1,8,0:0:0:0:
492,272,32976,1,0,0:0:0:0:
444,184,33127,2,0,P|436:156|452:108,2,77.999997619629,2|2|8,0:0|0:0|0:0,0:0:0:0:
352,228,33577,6,0,P|292:180|222:206,1,155.999995239258,4|2,0:2|0:0,0:0:0:0:
186,298,34027,2,0,P|150:313|107:302,1,77.999997619629,4|0,0:2|0:0,0:0:0:0:
85,207,34328,2,0,P|49:199|18:161,1,77.999997619629,4|0,0:2|0:0,0:0:0:0:
102,108,34628,2,0,P|80:78|79:34,1,77.999997619629,4|0,0:2|0:0,0:0:0:0:
180,40,34928,5,4,0:2:0:0:
280,28,35078,1,0,0:0:0:0:
360,92,35229,1,8,0:0:0:0:
348,192,35379,1,0,0:0:0:0:
284,272,35529,2,0,P|272:312|284:344,2,77.999997619629,4|2|8,0:2|0:0|0:0,0:0:0:0:
348,192,35979,6,0,P|360:160|344:116,1,77.999997619629,4|0,0:2|0:0,0:0:0:0:
252,80,36280,1,2,0:0:0:0:
152,96,36430,2,0,L|72:112,1,77.999997619629,8|0,0:0|0:0,0:0:0:0:
20,216,36730,1,2,0:0:0:0:
136,196,36880,2,0,L|216:180,1,77.999997619629,2|8,0:0|0:0,0:0:0:0:
296,236,37181,6,0,P|336:248|376:236,1,77.999997619629,4|0,0:0|0:0,0:0:0:0:
428,156,37481,1,2,0:0:0:0:
416,256,37631,2,0,L|408:336,1,77.999997619629,8|0,0:0|0:0,0:0:0:0:
480,216,37931,1,2,0:0:0:0:
360,200,38081,2,0,L|280:192,1,77.999997619629,2|8,0:0|0:0,0:0:0:0:
196,244,38382,6,0,P|121:265|60:223,1,155.999995239258,4|2,0:2|0:0,0:0:0:0:
147,105,38832,2,0,L|136:187,1,77.999997619629,8|2,0:0|0:0,0:0:0:0:
228,227,39133,2,0,P|298:205|364:247,1,155.999995239258,4|0,1:0|0:0,0:0:0:0:
435,317,39583,6,0,P|458:288|461:245,1,77.999997619629,4|0,0:2|0:0,0:0:0:0:
495,152,39883,2,0,P|456:144|419:157,1,77.999997619629,8|2,0:0|0:0,0:0:0:0:
228,227,40334,5,8,0:0:0:0:
176,312,40484,1,8,0:0:0:0:
80,280,40634,1,2,0:0:0:0:
92,180,40784,1,8,0:0:0:0:
172,164,40930,6,0,P|184:132|180:100,1,65,4|2,0:2|0:0,0:0:0:0:
104,68,41230,1,8,0:0:0:0:
272,100,41530,1,8,0:0:0:0:
280,268,41830,2,0,L|344:292,1,65,8|0,0:0|0:0,0:0:0:0:
420,260,42131,6,0,L|444:196,1,65,8|0,0:0|0:0,0:0:0:0:
376,144,42431,2,0,L|352:80,1,65,8|0,0:0|0:0,0:0:0:0:
276,52,42731,2,0,L|212:76,1,65,8|0,0:0|0:0,0:0:0:0:
236,156,43031,2,0,L|300:180,1,65,8|0,0:0|0:0,0:0:0:0:
376,144,43332,5,8,0:0:0:0:
376,144,43482,1,0,0:0:0:0:
408,65,43632,2,0,P|384:37|352:25,1,65,8|0,0:0|0:0,0:0:0:0:
276,52,43932,1,8,0:0:0:0:
308,220,44233,2,0,B|315:252|315:252|308:288,1,65,8|0,0:0|0:0,0:0:0:0:
240,333,44533,6,0,P|206:343|172:335,1,65,8|0,0:0|0:0,0:0:0:0:
124,272,44833,2,0,P|134:238|128:204,1,65,8|0,0:0|0:0,0:0:0:0:
93,133,45133,2,0,P|82:99|89:65,1,65,8|0,0:0|0:0,0:0:0:0:
169,93,45434,2,0,P|179:126|173:161,1,65,8|0,0:0|0:0,0:0:0:0:
161,239,45734,5,8,0:0:0:0:
161,239,45884,1,0,0:0:0:0:
234,281,46034,2,0,P|262:289|298:281,1,65,8|0,0:0|0:0,0:0:0:0:
371,241,46335,1,8,0:0:0:0:
407,76,46635,2,0,L|343:96,1,65,8|0,0:0|0:0,0:0:0:0:
275,140,46935,5,8,0:0:0:0:
275,140,47085,1,0,0:0:0:0:
243,64,47235,2,0,P|227:36|195:20,1,65,8|0,0:0|0:0,0:0:0:0:
113,17,47536,1,8,0:0:0:0:
85,183,47836,1,0,0:0:0:0:
133,252,47986,1,4,0:2:0:0:
209,287,48136,6,0,P|209:216|167:176,1,130,8|8,0:0|0:0,0:0:0:0:
114,112,48587,1,0,0:0:0:0:
184,64,48737,2,0,P|244:40|308:56,1,130,8|8,0:0|0:0,0:0:0:0:
378,97,49187,2,0,L|425:220,1,130,4|0,0:2|0:0,0:0:0:0:
408,301,49638,6,0,L|352:337,1,65,8|0,0:0|0:0,0:0:0:0:
281,291,49938,2,0,L|217:279,1,65,8|2,0:0|0:0,0:0:0:0:
151,226,50238,1,8,0:0:0:0:
217,173,50388,6,0,P|277:153|341:177,1,130,4|2,0:2|0:0,0:0:0:0:
397,246,50839,2,0,P|365:266|325:266,1,71.5000021820069,10|0,0:0|0:0,0:0:0:0:
261,207,51139,2,0,P|253:170|266:132,1,71.5000021820069,2|0,0:0|0:0,0:0:0:0:
287,48,51439,2,0,P|255:28|215:28,1,71.5000021820069,8|0,0:0|0:0,0:0:0:0:
133,56,51740,5,0,0:0:0:0:
197,116,51890,2,0,P|229:136|269:136,1,71.5000021820069,0|8,0:0|0:0,0:0:0:0:
397,246,52190,2,0,L|373:318,1,71.5000021820069
313,242,52490,2,0,L|337:170,1,71.5000021820069,2|8,0:0|0:0,0:0:0:0:
401,106,52791,6,0,P|341:78|273:106,1,143.000004364014,4|0,0:2|0:0,0:0:0:0:
176,192,53241,2,0,P|156:224|120:240,1,71.5000021820069,8|0,0:0|0:0,0:0:0:0:
44,200,53541,2,0,P|64:168|100:152,1,71.5000021820069,2|0,0:0|0:0,0:0:0:0:
176,192,53842,2,0,P|208:172|224:136,1,71.5000021820069,8|0,0:0|0:0,0:0:0:0:
264,60,54142,2,0,P|332:48|392:92,1,143.000004364014,2|8,0:0|0:0,0:0:0:0:
312,140,54592,2,0,P|300:208|344:268,1,143.000004364014
392,188,55043,1,8,0:0:0:0:
392,188,55118,1,0,0:0:0:0:
392,188,55193,6,0,P|404:120|360:60,1,143.000004364014,4|2,0:2|0:0,0:0:0:0:
264,60,55643,2,0,L|180:80,1,71.5000021820069,8|0,0:0|0:0,0:0:0:0:
144,156,55944,2,0,L|164:240,1,71.5000021820069,2|2,0:0|0:0,0:0:0:0:
252,228,56244,1,8,0:0:0:0:
252,228,56319,1,0,0:0:0:0:
252,228,56394,2,0,P|224:288|152:312,1,143.000004364014,0|2,0:0|0:0,0:0:0:0:
84,252,56845,1,8,0:0:0:0:
108,68,57145,2,0,P|144:60|180:68,2,71.5000021820069,2|0|8,0:0|0:0|0:0,0:0:0:0:
144,156,57595,6,0,B|208:172|244:136|244:136|268:168,1,143.000004364014,4|0,0:2|0:0,0:0:0:0:
240,254,58046,1,8,0:0:0:0:
324,295,58196,1,0,0:0:0:0:
370,215,58346,1,8,0:0:0:0:
455,256,58496,1,2,0:0:0:0:
501,177,58646,1,8,0:0:0:0:
387,117,58796,6,0,L|322:86,1,71.5000021820069,4|0,0:2|0:0,0:0:0:0:
232,64,59097,1,2,0:0:0:0:
232,64,59172,1,2,0:0:0:0:
232,64,59247,2,0,L|204:36,3,35.7500010910034,2|2|2|2,0:0|0:0|0:0|0:0,0:0:0:0:
172,44,59547,2,0,L|136:36,3,35.7500010910034,2|2|2|2,0:0|0:0|0:0|0:0,0:0:0:0:
112,60,59847,2,0,L|76:68,3,35.7500010910034,2|2|2|2,0:0|0:0|0:0|0:0,0:0:0:0:
60,100,60148,6,0,L|8:160,1,71.5000021820069,4|0,0:2|0:0,0:0:0:0:
48,240,60448,2,0,L|100:180,1,71.5000021820069,8|0,0:0|0:0,0:0:0:0:
188,204,60748,2,0,L|136:264,1,71.5000021820069,8|0,0:0|0:0,0:0:0:0:
176,344,61048,2,0,L|228:284,1,71.5000021820069,8|0,0:0|0:0,0:0:0:0:
316,288,61349,6,0,L|362:342,1,71.5000021820069,8|0,0:0|0:0,0:0:0:0:
397,256,61649,2,0,L|350:201,1,71.5000021820069,8|0,0:0|0:0,0:0:0:0:
292,128,61949,2,0,B|246:99|241:73|241:73|225:92|179:92,1,143.000004364014,8|8,0:0|0:0,0:0:0:0:
44,224,62550,6,0,L|116:204,1,71.5000021820069,8|0,0:0|0:0,0:0:0:0:
200,176,62850,1,8,0:0:0:0:
200,176,63000,1,0,0:0:0:0:
280,220,63151,2,0,P|228:268|160:260,1,143.000004364014,8|8,0:0|0:0,0:0:0:0:
123,174,63601,1,0,0:0:0:0:
60,244,63751,6,0,P|36:268|28:308,1,71.5000021820069,8|0,0:0|0:0,0:0:0:0:
116,332,64051,2,0,P|140:308|148:268,1,71.5000021820069,8|0,0:0|0:0,0:0:0:0:
123,174,64352,2,0,P|107:102|139:42,1,143.000004364014,8|8,0:0|0:0,0:0:0:0:
232,36,64802,1,0,0:0:0:0:
324,44,64952,6,0,P|355:106|338:174,1,143.000004364014,4|8,0:2|0:0,0:0:0:0:
276,248,65403,2,0,P|244:185|261:117,1,143.000004364014,2|0,0:0|0:0,0:0:0:0:
337,174,65853,2,0,P|359:200|367:240,1,71.5000021820069,8|0,0:0|0:0,0:0:0:0:
336,324,66153,6,0,P|304:344|268:340,1,71.5000021820069,8|0,0:0|0:0,0:0:0:0:
200,280,66454,2,0,P|168:264|128:272,1,71.5000021820069,8|0,0:0|0:0,0:0:0:0:
48,232,66754,2,0,P|19:157|40:100,1,143.000004364014,8|8,0:0|0:0,0:0:0:0:
212,124,67355,5,2,0:0:0:0:
243,140,67430,1,2,0:0:0:0:
278,142,67505,1,2,0:0:0:0:
310,127,67580,1,2,0:0:0:0:
341,109,67655,1,8,0:0:0:0:
376,104,67730,1,2,0:0:0:0:
409,116,67805,2,0,P|448:160|424:236,1,143.000004364014,2|2,0:0|0:0,0:0:0:0:
284,252,68255,5,2,0:0:0:0:
376,364,68406,1,4,0:0:0:0:
92,260,69156,6,0,P|100:328|156:284,1,155.999995239258
116,100,69757,6,0,P|152:88|192:104,1,77.999997619629,4|0,0:2|0:0,0:0:0:0:
248,184,70057,1,8,0:0:0:0:
236,284,70207,2,0,P|308:312|376:280,1,155.999995239258,2|2,0:0|0:0,0:0:0:0:
396,180,70658,2,0,P|392:136|408:104,1,77.999997619629,8|0,0:0|0:0,0:0:0:0:
496,156,70958,5,2,0:0:0:0:
456,248,71108,2,0,P|424:272|384:268,1,77.999997619629,2|8,0:0|0:0,0:0:0:0:
296,232,71408,1,0,0:0:0:0:
280,132,71559,1,2,0:0:0:0:
200,68,71709,1,0,0:0:0:0:
100,64,71859,2,0,P|60:72|36:104,1,77.999997619629,8|0,0:0|0:0,0:0:0:0:
76,192,72159,6,0,B|92:228|92:228|84:272,1,77.999997619629,2|0,0:0|0:0,0:0:0:0:
40,356,72459,1,8,0:0:0:0:
96,272,72610,2,0,P|136:260|172:268,1,77.999997619629,2|0,0:0|0:0,0:0:0:0:
260,312,72910,1,2,0:0:0:0:
356,284,73060,2,0,P|392:272|412:236,1,77.999997619629,8|0,0:0|0:0,0:0:0:0:
412,140,73360,5,2,0:0:0:0:
316,112,73510,1,0,0:0:0:0:
340,212,73661,1,8,0:0:0:0:
412,140,73811,1,8,0:0:0:0:
364,52,73961,2,0,P|332:36|288:40,1,77.999997619629,2|0,0:0|0:0,0:0:0:0:
160,92,74261,2,0,P|192:108|236:104,1,77.999997619629,8|0,0:0|0:0,0:0:0:0:
364,52,74561,6,0,P|404:36|440:48,2,77.999997619629,4|0|8,0:2|0:0|0:0,0:0:0:0:
412,140,75012,2,0,P|360:184|276:172,1,155.999995239258
220,100,75462,2,0,P|215:57|187:31,2,77.999997619629,8|0|2,0:0|0:0|0:0,0:0:0:0:
188,196,75913,6,0,P|172:236|180:268,1,77.999997619629,0|8,0:0|0:0,0:0:0:0:
216,364,76213,1,0,0:0:0:0:
308,324,76363,2,0,P|330:259|289:185,1,155.999995239258,2|8,0:0|0:0,0:0:0:0:
188,196,76814,1,0,0:0:0:0:
104,252,76964,6,0,B|68:268|68:268|24:260,1,77.999997619629,4|0,0:2|0:0,0:0:0:0:
56,164,77264,1,8,0:0:0:0:
8,76,77414,2,0,B|44:60|44:60|88:68,1,77.999997619629,2|8,0:0|0:0,0:0:0:0:
184,68,77714,1,2,0:0:0:0:
248,148,77865,2,0,B|284:164|284:164|328:156,1,77.999997619629,8|2,0:0|0:2,0:0:0:0:
424,168,78165,5,2,0:0:0:0:
464,76,78315,1,2,0:0:0:0:
368,40,78465,1,2,0:0:0:0:
328,132,78615,1,2,0:0:0:0:
344,232,78765,1,2,0:0:0:0:
334,269,78840,1,2,0:0:0:0:
314,302,78915,1,2,0:0:0:0:
284,327,78990,1,2,0:0:0:0:
248,341,79065,1,2,0:0:0:0:
209,343,79140,1,2,0:0:0:0:
172,333,79215,1,2,0:0:0:0:
140,311,79290,1,2,0:0:0:0:
116,280,79366,6,0,P|112:240|88:208,1,77.999997619629,4|0,0:2|0:0,0:0:0:0:
28,132,79666,1,8,0:0:0:0:
112,76,79816,2,0,P|184:64|252:112,1,155.999995239258,2|2,0:0|0:0,0:0:0:0:
272,208,80267,2,0,P|308:196|336:164,1,77.999997619629,8|0,0:0|0:0,0:0:0:0:
348,68,80567,5,2,0:0:0:0:
249,108,80717,2,0,P|208:124|188:152,1,77.999997619629,0|8,0:0|0:0,0:0:0:0:
152,244,81018,1,0,0:0:0:0:
220,320,81168,1,2,0:0:0:0:
320,340,81318,1,0,0:0:0:0:
408,292,81468,2,0,B|436:268|436:268|448:224,1,77.999997619629,8|0,0:0|0:0,0:0:0:0:
448,188,81693,1,0,0:0:0:0:
448,188,81768,6,0,L|392:128,1,77.999997619629,2|0,0:0|0:0,0:0:0:0:
308,76,82069,1,8,0:0:0:0:
300,176,82219,2,0,P|280:232|224:256,1,116.999996429443,2|0,0:0|0:0,0:0:0:0:
192,260,82519,1,2,0:0:0:0:
128,184,82669,2,0,B|116:116|68:96|68:96|28:124,2,155.999995239258,8|2|8,0:0|0:0|0:0,0:0:0:0:
92,280,83420,1,8,0:0:0:0:
192,260,83570,1,0,0:0:0:0:
284,300,83720,2,0,P|295:264|284:224,1,77.999997619629,0|8,0:0|0:0,0:0:0:0:
284,124,84020,1,0,0:0:0:0:
284,124,84096,1,0,0:0:0:0:
284,124,84171,6,0,P|296:92|336:72,1,77.999997619629,4|0,0:2|0:0,0:0:0:0:
428,104,84471,2,0,P|416:136|376:156,1,77.999997619629,8|0,0:0|0:0,0:0:0:0:
284,124,84771,2,0,P|272:92|232:72,1,77.999997619629,2|0,0:0|0:0,0:0:0:0:
136,88,85071,1,8,0:0:0:0:
72,168,85222,1,0,0:0:0:0:
64,208,85297,1,0,0:0:0:0:
72,248,85372,6,0,P|84:280|124:300,1,77.999997619629,2|0,0:0|0:0,0:0:0:0:
216,268,85672,2,0,P|252:252|292:260,1,77.999997619629,8|0,0:0|0:0,0:0:0:0:
388,280,85972,2,0,P|404:244|396:204,1,77.999997619629,2|0,0:0|0:0,0:0:0:0:
312,152,86273,1,8,0:0:0:0:
228,96,86423,6,0,P|288:52|364:64,1,155.999995239258,4|2,0:2|0:0,0:0:0:0:
436,136,86873,2,0,B|448:172|448:172|432:212,1,77.999997619629,8|0,0:0|0:0,0:0:0:0:
384,300,87173,2,0,P|324:332|316:264,1,155.999995239258,8|2,0:0|0:0,0:0:0:0:
312,152,87624,6,0,P|272:136|232:148,1,77.999997619629,4|0,0:2|0:0,0:0:0:0:
148,216,87924,2,0,P|108:232|68:220,1,77.999997619629,4|0,0:2|0:0,0:0:0:0:
140,128,88224,2,0,P|244:40|340:152,1,311.999990478516,4|0,0:2|0:0,0:0:0:0:
