osu file format v13

[General]
AudioFilename: my first story.mp3
AudioLeadIn: 0
PreviewTime: 69989
Countdown: 0
SampleSet: None
StackLeniency: 0.7
Mode: 0
LetterboxInBreaks: 0
WidescreenStoryboard: 1

[Editor]
Bookmarks: 12989,62789,65789,94589,103589,116189,118589
DistanceSpacing: 0.9
BeatDivisor: 4
GridSize: 4
TimelineZoom: 1

[Metadata]
Title:Fukagyaku Replace
TitleUnicode:不可逆リプレイス
Artist:MY FIRST STORY
ArtistUnicode:MY FIRST STORY
Creator:Kyshiro
Version:Normal
Source:
Tags:
BeatmapID:615373
BeatmapSetID:269611

[Difficulty]
HPDrainRate:5
CircleSize:3.4
OverallDifficulty:5
ApproachRate:5
SliderMultiplier:1.05
SliderTickRate:1

[Events]
//Background and Video events
Video,0,"my first story.avi"
0,0,"original.jpg",0,0
//Break Periods
2,62989,64589
2,89989,102389
2,116389,117389
//Storyboard Layer 0 (Background)
//Storyboard Layer 1 (Fail)
//Storyboard Layer 2 (Pass)
//Storyboard Layer 3 (Foreground)
//Storyboard Sound Samples

[TimingPoints]
989,300,4,1,0,60,1,0
21839,-100,4,2,0,60,0,0
22439,-100,4,1,0,60,0,0
41789,-100,4,1,0,60,0,0
51239,-100,4,1,0,60,0,0
69989,-100,4,1,0,60,0,0
70589,-100,4,1,0,60,0,1
79589,-100,4,1,0,60,0,0
80189,-100,4,1,0,60,0,1
89789,-100,4,1,0,35,0,0
92939,-100,4,2,0,5,0,0
93014,-100,4,1,0,35,0,0
94589,-100,4,1,0,60,0,0
96989,-100,4,2,0,5,0,0
103589,-100,4,1,0,60,0,0
118589,-100,4,1,0,60,0,0
122789,-100,4,1,0,60,0,0
123389,-100,4,1,0,60,0,1
132389,-100,4,1,0,60,0,0
132989,-100,4,1,0,60,0,1
142589,-100,4,1,0,60,0,0
144989,-100,4,2,0,5,0,0

[Colours]
Combo1 : 248,217,152
Combo2 : 232,157,132
Combo3 : 132,143,251
Combo4 : 188,136,247

[HitObjects]
65,146,12989,6,0,P|47:100|59:38,2,105,0|0|0,0:0|0:0|0:0,0:0:0:0:
139,87,13889,1,0,0:0:0:0:
200,159,14189,2,0,L|311:149,1,105
387,195,14789,2,0,P|396:249|376:305,1,105
288,314,15389,6,0,P|209:288|81:318,1,210
28,239,16289,1,0,0:0:0:0:
105,185,16589,2,0,P|151:195|222:179,1,105
286,133,17189,2,0,L|303:23,1,105,0|0,0:0|0:0,0:0:0:0:
380,81,17789,6,0,L|402:293,2,210,0|0|0,0:0|0:0|0:0,0:0:0:0:
462,34,19289,1,0,0:0:0:0:
466,128,19589,2,0,P|397:177|288:117,1,210
238,50,20489,5,0,0:0:0:0:
161,105,20789,2,0,P|149:152|165:216,1,105,0|0,0:0|0:0,0:0:0:0:
189,243,21239,1,0,0:0:0:0:
482,110,22439,6,0,P|398:83|338:121,1,157.5
306,203,23189,2,0,L|299:324,1,105
377,362,23789,1,0,0:0:0:0:
212,268,24389,6,0,P|145:258|59:302,2,157.5,0|0|0,0:0|0:0|0:0,0:0:0:0:
293,218,25589,2,0,P|300:167|274:110,1,105
200,68,26189,2,0,B|165:80|145:100|145:100|78:79|78:79|45:103|0:100,1,210
119,186,27239,6,0,L|292:168,1,157.5
362,206,27989,2,0,P|392:262|374:356,2,157.5,0|0|0,0:0|0:0|0:0,0:0:0:0:
413,126,29189,1,0,0:0:0:0:
276,170,29639,6,0,L|112:162,1,157.5
31,124,30389,2,0,P|20:69|41:19,1,105
113,79,30989,2,0,P|207:49|321:74,1,210
416,168,32039,6,0,L|435:324,1,157.5
341,313,32789,2,0,P|282:304|229:322,1,105
151,352,33389,2,0,P|100:364|49:355,1,105
17,265,33989,6,0,L|7:98,2,157.5,0|0|0,0:0|0:0|0:0,0:0:0:0:
111,255,35189,2,0,L|184:161,1,105
250,114,35789,2,0,P|321:94|444:166,1,210,0|0,0:0|0:0,0:0:0:0:
322,237,36839,6,0,L|145:265,1,157.5
78,226,37589,1,0,0:0:0:0:
52,86,38039,2,0,P|128:55|197:80,1,157.5
247,158,38789,1,0,0:0:0:0:
377,101,39239,1,0,0:0:0:0:
256,192,39389,12,0,41789,0:0:0:0:
114,166,42989,6,0,P|97:113|14:49,2,157.5,0|0|0,0:0|0:0|0:0,0:0:0:0:
109,260,44189,1,0,0:0:0:0:
194,218,44489,6,0,P|259:218|303:248,2,105,0|0|0,0:0|0:0|0:0,0:0:0:0:
229,305,45389,2,0,L|433:246,1,210
411,106,46439,6,0,P|346:80|260:112,1,157.5
213,185,47189,1,0,0:0:0:0:
144,119,47489,2,0,P|111:90|45:83,2,105,0|0|0,0:0|0:0|0:0,0:0:0:0:
68,176,48389,2,0,L|78:294,1,105
145,345,48989,6,0,B|191:376|247:363|267:322|267:322|281:290|300:264|335:248|379:252|410:283,1,315
484,225,50189,2,0,P|404:172|285:178,1,210
151,166,51239,6,0,P|130:110|166:12,1,157.5
237,72,51989,1,0,0:0:0:0:
326,41,52289,2,0,L|426:84,2,105,0|0|0,0:0|0:0|0:0,0:0:0:0:
237,72,53189,2,0,L|272:231,1,157.5
159,314,54089,6,0,P|92:322|48:311,2,105,0|0|0,0:0|0:0|0:0,0:0:0:0:
225,246,54989,2,0,L|259:81,2,157.5,0|0|0,0:0|0:0|0:0,0:0:0:0:
258,279,56039,1,0,0:0:0:0:
386,218,56489,6,0,P|402:139|396:105,2,105,0|0|0,0:0|0:0|0:0,0:0:0:0:
297,252,57389,2,0,P|211:208|90:230,1,210
39,293,58289,1,0,0:0:0:0:
18,250,58439,6,0,L|28:89,1,157.5
62,60,59039,2,0,P|119:35|179:43,1,105,0|0,0:0|0:0,0:0:0:0:
228,102,59639,2,0,L|260:264,1,157.5
345,218,60389,2,0,P|361:146|379:114,1,105,0|0,0:0|0:0,0:0:0:0:
456,69,60989,1,0,0:0:0:0:
256,192,61139,12,0,62789,0:0:0:0:
67,74,65789,6,0,P|142:45|229:75,2,157.5,0|0|0,0:0|0:0|0:0,0:0:0:0:
117,154,66989,2,0,P|131:204|133:263,1,105
220,294,67589,6,0,P|262:254|413:240,2,210,0|0|0,0:0|0:0|0:0,0:0:0:0:
142,348,69089,1,0,0:0:0:0:
445,263,69989,6,0,L|460:156,1,105
401,84,70589,2,0,P|347:49|253:48,2,157.5,0|0|0,0:0|0:0|0:0,0:0:0:0:
298,181,71939,2,0,L|139:215,1,157.5
56,176,72689,1,0,0:0:0:0:
6,256,72989,6,0,P|0:304|24:361,1,105
114,365,73589,2,0,L|229:348,1,105
306,315,74189,2,0,B|309:275|330:244|330:244|305:186|305:186|325:158|325:117,1,210
230,127,75089,1,0,0:0:0:0:
268,40,75389,6,0,P|336:23|411:73,2,157.5,0|0|0,0:0|0:0|0:0,0:0:0:0:
208,168,76739,2,0,L|201:334,1,157.5
121,375,77489,1,0,0:0:0:0:
44,320,77789,6,0,P|18:234|59:113,1,210
124,61,78689,1,0,0:0:0:0:
197,120,78989,2,0,P|268:133|306:125,1,105
369,63,79589,2,0,P|420:57|471:70,1,105
502,159,80189,6,0,B|479:260|479:260|481:324,2,157.5,0|0|0,0:0|0:0|0:0,0:0:0:0:
367,205,81539,2,0,P|322:221|206:199,1,157.5
151,135,82289,1,0,0:0:0:0:
84,202,82589,6,0,P|71:247|78:306,2,105,0|0|0,0:0|0:0|0:0,0:0:0:0:
151,135,83489,1,0,0:0:0:0:
215,204,83789,2,0,P|295:231|410:177,1,210
423,89,84689,1,0,0:0:0:0:
335,124,84989,6,0,L|216:103,1,105
141,133,85589,2,0,P|113:190|123:243,1,105
204,267,86189,2,0,L|417:248,1,210,0|0,0:0|0:0,0:0:0:0:
409,106,87239,6,0,P|353:72|249:84,1,157.5
198,144,87989,2,0,P|137:173|85:169,1,105
58,150,88439,2,0,L|26:48,2,105,0|0|0,0:0|0:0|0:0,0:0:0:0:
281,60,89789,5,0,0:0:0:0:
75,147,103589,6,0,L|97:263,1,105
124,286,104039,2,0,P|189:306|272:270,1,157.5
288,180,104789,1,0,0:0:0:0:
362,238,105089,2,0,P|381:291|372:348,2,105,0|0|0,0:0|0:0|0:0,0:0:0:0:
322,211,105839,2,0,L|201:197,1,105
134,152,106439,6,0,P|201:105|286:132,1,157.5
365,127,107189,2,0,P|382:87|372:22,2,105,0|0|0,0:0|0:0|0:0,0:0:0:0:
322,211,108089,1,0,0:0:0:0:
416,207,108389,2,0,L|443:316,1,105
413,347,108839,6,0,P|356:374|261:335,1,157.5
233,258,109589,2,0,L|216:149,1,105
186,117,110039,2,0,P|121:103|37:137,1,157.5
27,229,110789,1,0,0:0:0:0:
91,298,111089,1,0,0:0:0:0:
135,312,111239,6,0,P|204:315|288:275,1,157.5
305,237,111839,2,0,L|320:127,1,105
393,74,112439,2,0,L|407:178,2,105,0|0|0,0:0|0:0|0:0,0:0:0:0:
258,28,113489,1,0,0:0:0:0:
181,82,113789,1,0,0:0:0:0:
256,192,113939,12,0,116189,0:0:0:0:
137,101,118589,6,0,P|86:82|25:90,2,105,0|0|0,0:0|0:0|0:0,0:0:0:0:
191,178,119489,1,0,0:0:0:0:
276,137,119789,2,0,L|297:23,2,105,0|0|0,0:0|0:0|0:0,0:0:0:0:
342,204,120689,1,0,0:0:0:0:
431,173,120989,6,0,P|468:121|474:29,2,157.5,0|0|0,0:0|0:0|0:0,0:0:0:0:
342,204,122189,2,0,L|235:190,1,105
164,250,122789,2,0,L|57:236,1,105
20,150,123389,6,0,P|51:97|154:76,2,157.5,0|0|0,0:0|0:0|0:0,0:0:0:0:
161,157,124739,2,0,L|319:137,1,157.5
387,74,125489,1,0,0:0:0:0:
459,134,125789,6,0,P|476:203|465:251,1,105
440,271,126239,2,0,P|371:288|323:277,1,105
304,250,126689,2,0,L|268:146,1,105
189,100,127289,1,0,0:0:0:0:
115,159,127589,2,0,P|109:226|123:270,1,105
207,296,128189,6,0,P|309:266|424:269,1,210
409,172,129089,2,0,P|304:172|203:143,1,210
152,63,129989,1,0,0:0:0:0:
80,125,130289,1,0,0:0:0:0:
125,207,130589,6,0,L|97:366,2,157.5,0|0|0,0:0|0:0|0:0,0:0:0:0:
203,143,131789,2,0,P|261:124|318:127,1,105
370,192,132389,2,0,L|388:303,1,105
467,247,132989,6,0,P|489:186|467:91,2,157.5,0|0|0,0:0|0:0|0:0,0:0:0:0:
326,265,134339,2,0,L|158:256,1,157.5
89,204,135089,1,0,0:0:0:0:
148,130,135389,6,0,P|221:111|266:121,1,105
290,138,135839,2,0,P|342:140|391:123,1,105
418,84,136289,1,0,0:0:0:0:
484,150,136589,2,0,L|471:263,1,105
404,320,137189,1,0,0:0:0:0:
322,272,137489,1,0,0:0:0:0:
242,323,137789,6,0,L|128:315,1,105
57,263,138389,2,0,P|44:210|64:155,1,105
102,145,138839,2,0,L|213:133,1,105
247,157,139289,1,0,0:0:0:0:
340,145,139589,2,0,P|376:108|394:51,1,105
399,11,140039,6,0,L|441:173,1,157.5
414,255,140789,2,0,P|366:290|310:295,1,105
275,288,141239,1,0,0:0:0:0:
187,324,141539,1,0,0:0:0:0:
113,265,141839,1,0,0:0:0:0:
201,229,142139,2,0,P|211:189|213:167,1,52.5
194,85,142589,5,0,0:0:0:0:
256,192,142739,12,0,144989,0:0:0:0:
