osu file format v13

[General]
AudioFilename: my first story.mp3
AudioLeadIn: 0
PreviewTime: 69989
Countdown: 0
SampleSet: None
StackLeniency: 0.7
Mode: 0
LetterboxInBreaks: 0
WidescreenStoryboard: 1

[Editor]
Bookmarks: 12989,94589,103589,116189,118589
DistanceSpacing: 1.2
BeatDivisor: 4
GridSize: 4
TimelineZoom: 1

[Metadata]
Title:Fukagyaku Replace
TitleUnicode:不可逆リプレイス
Artist:MY FIRST STORY
ArtistUnicode:MY FIRST STORY
Creator:Kyshiro
Version:Hard
Source:
Tags:
BeatmapID:615261
BeatmapSetID:269611

[Difficulty]
HPDrainRate:6
CircleSize:3.7
OverallDifficulty:7
ApproachRate:8
SliderMultiplier:1.45
SliderTickRate:1

[Events]
//Background and Video events
Video,0,"my first story.avi"
0,0,"original.jpg",0,0
//Break Periods
2,97189,102839
2,116389,117839
//Storyboard Layer 0 (Background)
//Storyboard Layer 1 (Fail)
//Storyboard Layer 2 (Pass)
//Storyboard Layer 3 (Foreground)
//Storyboard Sound Samples

[TimingPoints]
989,300,4,1,0,60,1,0
21839,-100,4,2,0,60,0,0
22439,-100,4,1,0,60,0,0
41789,-125,4,1,0,60,0,0
51239,-100,4,1,0,60,0,0
69989,-133.333333333333,4,1,0,60,0,0
70589,-100,4,1,0,60,0,1
79589,-100,4,1,0,60,0,0
80189,-100,4,1,0,60,0,1
89789,-100,4,1,0,35,0,0
92939,-100,4,2,0,5,0,0
93014,-100,4,1,0,35,0,0
94589,-100,4,1,0,60,0,0
96989,-100,4,2,0,5,0,0
103589,-100,4,1,0,60,0,0
118589,-100,4,1,0,60,0,0
122789,-133.333333333333,4,1,0,60,0,0
123389,-100,4,1,0,60,0,1
132389,-100,4,1,0,60,0,0
132989,-100,4,1,0,60,0,1
142589,-83.3333333333333,4,1,0,60,0,0
144989,-83.3333333333333,4,2,0,5,0,0

[Colours]
Combo1 : 248,217,152
Combo2 : 232,157,132
Combo3 : 132,143,251
Combo4 : 188,136,247

[HitObjects]
36,108,12989,6,0,P|68:100|112:104,1,72.5
185,141,13289,2,0,P|220:143|256:135,1,72.5
336,169,13589,2,0,L|371:315,1,145
299,362,14039,1,0,0:0:0:0:
224,316,14189,6,0,P|210:267|215:233,1,72.5
131,174,14489,2,0,P|132:212|118:243,1,72.5
46,195,14789,1,0,0:0:0:0:
68,111,14939,1,0,0:0:0:0:
152,89,15089,1,0,0:0:0:0:
216,147,15239,1,0,0:0:0:0:
288,99,15389,6,0,L|301:23,1,72.5
372,107,15689,2,0,L|384:178,1,72.5
449,260,15989,2,0,L|473:117,1,145
431,41,16439,1,0,0:0:0:0:
372,107,16589,6,0,P|313:132|234:116,1,145
170,58,17039,1,0,0:0:0:0:
120,129,17189,2,0,L|107:211,1,72.5
19,150,17489,1,0,0:0:0:0:
114,286,17789,6,0,P|194:269|256:283,1,145
318,222,18239,2,0,P|388:235|458:218,1,145
481,134,18689,2,0,L|492:51,1,72.5
386,161,18989,6,0,L|400:320,1,145
318,341,19439,2,0,P|265:316|175:314,1,145
99,347,19889,1,0,0:0:0:0:
46,277,20039,1,0,0:0:0:0:
120,232,20189,6,0,P|142:187|141:152,2,72.5,0|0|0,0:0|0:0|0:0,0:0:0:0:
55,172,20639,2,0,P|33:127|34:92,2,72.5,0|0|0,0:0|0:0|0:0,0:0:0:0:
121,81,21089,1,0,0:0:0:0:
121,81,21239,1,0,0:0:0:0:
245,170,22439,6,0,L|263:317,1,145
340,353,22889,2,0,P|398:361|419:355,1,72.5
484,311,23189,2,0,P|492:253|486:232,1,72.5
407,272,23489,1,0,0:0:0:0:
355,201,23639,6,0,L|390:53,1,145
461,108,24089,2,0,P|473:161|468:199,1,72.5
318,283,24389,2,0,P|318:246|329:212,1,72.5
293,132,24689,1,0,0:0:0:0:
232,194,24839,6,0,P|189:203|79:171,1,145
17,225,25289,2,0,L|26:304,1,72.5
108,348,25589,2,0,L|116:275,2,72.5,0|0|0,0:0|0:0|0:0,0:0:0:0:
190,375,26039,1,0,0:0:0:0:
259,323,26189,6,0,P|309:312|401:343,1,145
484,339,26639,1,0,0:0:0:0:
484,339,26789,2,0,P|506:303|511:271,1,72.5
357,209,27239,6,0,L|211:192,1,145
133,155,27689,2,0,P|114:109|118:77,1,72.5
40,160,27989,2,0,P|38:195|22:227,2,72.5,0|0|0,0:0|0:0|0:0,0:0:0:0:
44,77,28439,6,0,P|89:36|179:45,1,145
209,116,28889,2,0,L|224:197,1,72.5
301,223,29189,2,0,L|316:304,1,72.5
477,233,29639,6,0,P|500:160|477:87,1,145,0|0,0:0|0:0,0:0:0:0:
406,53,30089,2,0,L|312:42,1,72.5
255,81,30389,2,0,L|161:70,1,72.5
111,23,30689,1,0,0:0:0:0:
16,219,30989,6,0,P|73:264|158:254,1,145
103,171,31439,2,0,P|174:169|229:213,1,145
227,300,31889,1,0,0:0:0:0:
306,263,32039,6,0,L|335:111,1,145
403,68,32489,2,0,P|461:58|492:61,2,72.5,0|0|0,0:0|0:0|0:0,0:0:0:0:
321,36,32939,1,0,0:0:0:0:
255,93,33089,1,0,0:0:0:0:
175,57,33239,6,0,P|105:80|30:74,1,145
8,158,33689,2,0,L|20:246,1,72.5
93,273,33989,2,0,L|102:201,1,72.5
175,154,34289,1,0,0:0:0:0:
259,176,34439,6,0,P|289:240|274:317,1,145
194,340,34889,1,0,0:0:0:0:
404,254,35189,1,0,0:0:0:0:
318,44,35489,1,0,0:0:0:0:
108,130,35789,6,0,P|70:133|31:122,2,72.5,0|0|0,0:0|0:0|0:0,0:0:0:0:
175,74,36239,1,0,0:0:0:0:
240,130,36389,2,0,L|267:290,1,145
353,217,36839,6,0,P|376:161|441:102,1,145
500,163,37289,2,0,P|506:212|499:246,1,72.5
426,276,37589,2,0,P|419:311|423:347,1,72.5
223,352,38039,6,0,L|77:336,1,145
37,259,38489,2,0,L|110:251,1,72.5
152,175,38789,2,0,L|79:167,1,72.5
207,258,39239,6,0,P|276:268|353:230,1,145
390,164,39689,2,0,P|395:118|385:79,1,72.5
479,167,39989,2,0,P|473:202|479:238,2,72.5,0|0|0,0:0|0:0|0:0,0:0:0:0:
469,80,40439,6,0,P|399:77|329:43,1,145
258,93,40889,2,0,P|220:103|176:106,1,72.5
100,104,41189,2,0,P|63:100|29:90,1,72.5
170,225,41639,5,0,0:0:0:0:
170,225,41789,2,0,P|253:204|302:208,1,116
407,267,42389,2,0,L|424:329,1,58
364,374,42689,1,0,0:0:0:0:
368,196,42989,6,0,P|372:140|396:71,1,116
270,31,43439,2,0,P|287:86|292:143,1,116
285,218,43889,2,0,P|278:247|261:284,2,58,0|0|0,0:0|0:0|0:0,0:0:0:0:
135,169,44489,5,0,0:0:0:0:
276,117,44789,2,0,L|343:108,1,58
417,193,45089,2,0,L|359:185,1,58
285,218,45389,6,0,P|241:209|167:235,2,116,0|0|0,0:0|0:0|0:0,0:0:0:0:
329,348,46289,2,0,L|261:341,1,58
194,332,46589,6,0,L|75:320,1,116
197,140,47189,2,0,L|316:128,1,116
378,91,47639,1,0,0:0:0:0:
426,148,47789,6,0,P|416:202|433:273,2,116,0|0|0,0:0|0:0|0:0,0:0:0:0:
308,52,48689,1,0,0:0:0:0:
255,106,48839,1,0,0:0:0:0:
187,72,48989,6,0,P|146:58|57:74,1,116
36,131,49439,2,0,L|46:253,1,116
95,303,49889,1,0,0:0:0:0:
226,229,50189,2,0,P|277:224|343:247,2,116,0|0|0,0:0|0:0|0:0,0:0:0:0:
135,99,51089,1,0,0:0:0:0:
135,99,51239,6,0,P|206:69|286:68,1,145
349,109,51689,2,0,P|389:117|424:118,1,72.5
487,192,51989,2,0,P|450:193|415:201,1,72.5
347,255,52289,1,0,0:0:0:0:
188,183,52589,6,0,L|173:36,1,145
99,122,53039,2,0,L|84:266,1,145
148,325,53489,1,0,0:0:0:0:
226,288,53639,1,0,0:0:0:0:
473,195,54089,6,0,P|486:241|479:277,1,72.5
409,313,54389,2,0,P|396:279|398:243,1,72.5,0|0,0:0|0:0,0:0:0:0:
330,188,54689,2,0,P|286:173|248:171,1,72.5
200,234,54989,6,0,P|133:238|57:213,1,145
61,126,55439,2,0,P|129:103|201:106,1,145
282,73,55889,1,0,0:0:0:0:
358,114,56039,6,0,L|389:262,1,145
459,206,56489,2,0,L|468:131,2,72.5,0|0|0,0:0|0:0|0:0,0:0:0:0:
333,327,57089,1,0,0:0:0:0:
333,327,57239,6,0,P|256:305|188:318,1,145
117,357,57689,2,0,P|73:367|34:366,1,72.5
9,287,57989,2,0,L|0:128,1,145
65,83,58439,6,0,P|121:69|201:106,1,145
234,182,58889,1,0,0:0:0:0:
320,179,59039,2,0,P|343:106|328:38,1,145,0|0,0:0|0:0,0:0:0:0:
146,198,59639,6,0,L|157:273,1,72.5
228,336,59939,2,0,L|238:264,1,72.5,0|0,0:0|0:0,0:0:0:0:
311,215,60239,2,0,P|375:204|447:236,1,145
492,309,60689,1,0,0:0:0:0:
415,132,60989,6,0,P|410:83|415:49,1,72.5
316,12,61289,2,0,P|318:48|313:83,1,72.5,0|0,0:0|0:0,0:0:0:0:
238,127,61589,2,0,L|158:123,2,72.5,0|0|0,0:0|0:0|0:0,0:0:0:0:
313,170,62039,1,0,0:0:0:0:
245,224,62189,6,0,P|175:219|104:246,2,145,0|0|0,0:0|0:0|0:0,0:0:0:0:
385,327,63089,1,0,0:0:0:0:
476,178,63389,6,0,L|483:93,1,72.5
395,54,63689,2,0,L|400:126,1,72.5,0|0,0:0|0:0,0:0:0:0:
338,187,63989,1,0,0:0:0:0:
185,102,64289,1,0,0:0:0:0:
52,214,64589,6,0,P|44:263|51:290,1,72.5
130,254,64889,2,0,P|162:291|187:303,1,72.5
211,219,65189,2,0,L|295:214,1,72.5
361,261,65489,1,0,0:0:0:0:
498,154,65789,6,0,P|508:83|482:7,1,145
399,22,66239,2,0,P|389:93|410:161,1,145
464,229,66689,1,0,0:0:0:0:
324,333,66989,6,0,L|246:328,1,72.5
195,253,67289,2,0,L|273:248,1,72.5
337,196,67589,1,0,0:0:0:0:
171,142,67889,1,0,0:0:0:0:
336,87,68189,6,0,L|485:103,1,145
510,184,68639,1,0,0:0:0:0:
364,279,68939,2,0,L|278:269,1,72.5
31,93,69989,6,0,P|91:111|149:108,1,108.750004148483
299,47,70589,6,0,P|356:29|446:43,1,145
492,108,71039,1,0,0:0:0:0:
357,218,71339,1,0,0:0:0:0:
357,218,71489,6,0,L|211:205,1,145
132,241,71939,2,0,P|117:283|122:321,1,72.5
191,359,72239,1,0,0:0:0:0:
264,313,72389,2,0,P|352:298|415:324,1,145
506,153,72989,6,0,P|436:172|367:155,1,145
304,94,73439,2,0,P|290:46|293:12,2,72.5,0|0|0,0:0|0:0|0:0,0:0:0:0:
284,179,73889,5,0,0:0:0:0:
134,90,74189,1,0,0:0:0:0:
133,263,74489,1,0,0:0:0:0:
286,345,74789,2,0,L|368:336,1,72.5
454,260,75089,2,0,L|372:251,1,72.5
343,174,75389,6,0,P|328:121|363:34,1,145
444,50,75839,2,0,P|458:119|428:184,1,145
374,252,76289,6,0,L|214:235,1,145
170,173,76739,2,0,P|108:158|22:196,1,145
13,270,77189,1,0,0:0:0:0:
176,330,77489,1,0,0:0:0:0:
176,330,77639,6,0,L|328:316,1,145
401,246,78089,1,0,0:0:0:0:
401,246,78239,2,0,L|249:232,1,145
183,185,78689,2,0,P|169:133|176:102,1,72.5
234,54,78989,6,0,L|320:47,1,72.5
362,114,79289,2,0,L|448:107,1,72.5
498,48,79589,1,0,0:0:0:0:
405,195,79889,1,0,0:0:0:0:
238,143,80189,6,0,P|159:126|75:146,1,145
47,208,80639,2,0,L|34:282,1,72.5
94,342,80939,1,0,0:0:0:0:
173,305,81089,6,0,P|222:328|314:319,1,145
368,254,81539,2,0,L|383:173,2,72.5,0|0|0,0:0|0:0|0:0,0:0:0:0:
406,332,81989,1,0,0:0:0:0:
486,177,82289,6,0,L|476:102,1,72.5
409,49,82589,2,0,P|351:37|269:70,1,145
210,128,83039,2,0,P|144:156|73:145,1,145
6,90,83489,5,0,0:0:0:0:
108,230,83789,1,0,0:0:0:0:
171,68,84089,1,0,0:0:0:0:
272,209,84389,2,0,L|279:285,1,72.5
222,348,84689,1,0,0:0:0:0:
146,305,84839,6,0,P|111:241|121:163,1,145
195,132,85289,2,0,L|278:122,1,72.5
332,53,85589,2,0,L|249:43,2,72.5,0|0|0,0:0|0:0|0:0,0:0:0:0:
403,102,86039,6,0,P|432:175|408:249,1,145
347,290,86489,1,0,0:0:0:0:
272,245,86639,1,0,0:0:0:0:
195,286,86789,2,0,L|49:274,1,145
7,198,87239,6,0,L|153:186,1,145
222,135,87689,2,0,P|236:93|236:59,1,72.5
313,23,87989,2,0,P|315:59|327:92,1,72.5
404,132,88289,1,0,0:0:0:0:
331,179,88439,6,0,L|180:165,2,145,0|0|0,0:0|0:0|0:0,0:0:0:0:
391,242,89189,1,0,0:0:0:0:
228,304,89489,1,0,0:0:0:0:
76,219,89789,6,0,P|69:175|77:141,2,72.5,0|0|0,0:0|0:0|0:0,0:0:0:0:
162,217,90239,2,0,P|240:198|309:227,1,145
345,293,90689,1,0,0:0:0:0:
389,218,90839,6,0,L|422:64,1,145,0|0,0:0|0:0,0:0:0:0:
344,32,91289,2,0,P|306:45|266:48,1,72.5
189,26,91589,2,0,P|153:30|118:42,1,72.5
32,31,91889,1,0,0:0:0:0:
63,112,92039,6,0,L|46:263,1,145
103,322,92489,1,0,0:0:0:0:
178,278,92639,1,0,0:0:0:0:
249,326,92789,2,0,L|370:313,2,108.75,0|0|0,0:0|0:0|0:0,0:0:0:0:
150,182,93539,5,0,0:0:0:0:
150,182,93689,2,0,P|145:130|153:100,1,72.5
227,71,93989,2,0,L|278:66,3,48.3333333333333,0|0|0|0,0:0|0:0|0:0|0:0,0:0:0:0:
428,191,94589,1,0,0:0:0:0:
256,192,94664,12,0,96989,0:0:0:0:
25,138,103589,6,0,P|81:124|157:160,1,145
211,228,104039,2,0,P|273:262|343:250,1,145,0|0,0:0|0:0,0:0:0:0:
400,183,104489,2,0,L|409:100,1,72.5
482,166,104789,2,0,L|489:238,2,72.5,0|0|0,0:0|0:0|0:0,0:0:0:0:
330,44,105389,6,0,P|262:26|185:55,1,145
152,126,105839,2,0,L|144:200,1,72.5
59,218,106139,2,0,L|67:292,1,72.5
128,351,106439,6,0,P|191:365|267:328,1,145
297,253,106889,2,0,L|304:172,1,72.5
205,138,107189,2,0,L|211:210,2,72.5,0|0|0,0:0|0:0|0:0,0:0:0:0:
260,69,107639,1,0,0:0:0:0:
321,130,107789,6,0,P|372:153|457:129,1,145
509,198,108239,1,0,0:0:0:0:
509,198,108389,2,0,L|492:342,1,145
405,358,108839,6,0,P|327:327|256:336,1,145
189,291,109289,2,0,P|177:248|185:213,1,72.5
263,250,109589,1,0,0:0:0:0:
89,260,109889,1,0,0:0:0:0:
89,260,110039,6,0,L|58:109,1,145
122,56,110489,2,0,P|171:47|203:54,1,72.5
265,100,110789,2,0,P|300:103|335:94,1,72.5
406,44,111089,1,0,0:0:0:0:
458,113,111239,6,0,L|472:268,1,145
403,313,111689,1,0,0:0:0:0:
318,292,111839,2,0,P|284:240|305:161,1,145
370,221,112289,1,0,0:0:0:0:
383,135,112439,6,0,P|341:87|256:93,1,145
213,159,112889,1,0,0:0:0:0:
132,125,113039,2,0,L|122:45,2,72.5,0|0|0,0:0|0:0|0:0,0:0:0:0:
139,212,113489,1,0,0:0:0:0:
211,54,113789,5,0,0:0:0:0:
256,192,113864,12,0,116189,0:0:0:0:
52,206,118589,6,0,P|41:250|49:280,1,72.5
124,316,118889,2,0,P|135:272|127:242,1,72.5
128,158,119189,2,0,P|204:134|271:166,1,145
305,232,119639,1,0,0:0:0:0:
373,178,119789,6,0,L|382:104,2,72.5,0|0|0,0:0|0:0|0:0,0:0:0:0:
424,248,120239,1,0,0:0:0:0:
485,186,120389,2,0,L|467:32,1,145
306,108,120989,6,0,P|258:118|225:115,1,72.5
153,84,121289,2,0,P|116:83|81:92,1,72.5,0|0,0:0|0:0,0:0:0:0:
29,163,121589,2,0,L|40:247,1,72.5
115,288,121889,2,0,L|124:216,1,72.5
194,164,122189,5,0,0:0:0:0:
267,209,122339,1,0,0:0:0:0:
344,169,122489,2,0,P|364:119|362:83,1,72.5
454,34,122789,2,0,P|443:94|468:156,1,108.750004148483
430,296,123389,6,0,P|366:265|285:286,1,145
233,340,123839,2,0,P|163:353|98:322,1,145
157,258,124289,2,0,L|144:108,1,145
75,60,124739,1,0,0:0:0:0:
233,168,125039,5,0,0:0:0:0:
233,168,125189,2,0,P|281:187|307:188,1,72.5
367,130,125489,2,0,P|402:134|435:150,1,72.5
485,221,125789,6,0,L|494:301,2,72.5,0|0|0,0:0|0:0|0:0,0:0:0:0:
398,230,126239,2,0,P|361:249|247:234,1,145
206,173,126689,2,0,L|185:96,1,72.5
114,53,126989,5,0,0:0:0:0:
14,194,127289,1,0,0:0:0:0:
115,335,127589,1,0,0:0:0:0:
280,281,127889,1,0,0:0:0:0:
281,107,128189,6,0,P|352:86|427:110,2,145,0|0|0,0:0|0:0|0:0,0:0:0:0:
197,260,129089,2,0,P|126:281|51:257,2,145,0|0|0,0:0|0:0|0:0,0:0:0:0:
106,63,129989,6,0,L|128:210,1,145
197,260,130439,1,0,0:0:0:0:
268,210,130589,2,0,P|321:198|406:236,1,145
461,296,131039,1,0,0:0:0:0:
498,217,131189,2,0,P|504:168|496:136,1,72.5
433,88,131489,1,0,0:0:0:0:
362,138,131639,1,0,0:0:0:0:
289,90,131789,6,0,L|136:97,1,145
18,255,132389,2,0,L|171:262,1,145
399,203,132989,6,0,P|326:183|247:219,1,145
184,165,133439,2,0,P|116:187|47:167,1,145,0|0,0:0|0:0,0:0:0:0:
47,79,133889,2,0,P|114:56|183:76,1,145,0|0,0:0|0:0,0:0:0:0:
257,121,134339,2,0,P|324:143|393:123,1,145,0|0,0:0|0:0,0:0:0:0:
468,78,134789,6,0,L|489:7,2,72.5,0|0|0,0:0|0:0|0:0,0:0:0:0:
473,165,135239,1,0,0:0:0:0:
393,123,135389,2,0,L|241:135,1,145
173,89,135839,1,0,0:0:0:0:
49,212,136139,5,0,0:0:0:0:
49,212,136289,2,0,L|41:291,1,72.5
98,349,136589,2,0,P|163:363|235:332,1,145
289,155,137189,2,0,L|297:71,2,72.5,0|0|0,0:0|0:0|0:0,0:0:0:0:
365,197,137639,6,0,P|345:259|376:341,1,145
274,326,138089,2,0,P|212:320|184:325,1,72.5
123,236,138389,2,0,P|185:242|213:237,2,72.5,0|0|0,0:0|0:0|0:0,0:0:0:0:
51,184,138839,6,0,L|26:31,1,145
110,13,139289,2,0,P|190:38|260:20,2,145,0|0|0,0:0|0:0|0:0,0:0:0:0:
117,99,140039,6,0,L|201:232,1,145
280,207,140489,2,0,P|296:161|294:128,1,72.5
367,73,140789,2,0,P|368:109|382:142,1,72.5
457,187,141089,1,0,0:0:0:0:
457,187,141239,5,0,0:0:0:0:
320,294,141539,1,0,0:0:0:0:
294,121,141839,2,0,P|223:107|160:147,1,145
126,221,142289,1,0,0:0:0:0:
34,74,142589,5,0,0:0:0:0:
256,192,142664,12,0,144989,0:0:0:0:
