osu file format v13

[General]
AudioFilename: my first story.mp3
AudioLeadIn: 0
PreviewTime: 69989
Countdown: 0
SampleSet: None
StackLeniency: 0.7
Mode: 0
LetterboxInBreaks: 0
WidescreenStoryboard: 1

[Editor]
Bookmarks: 12989,62789,65789,94589,103589,116189,118589
DistanceSpacing: 1
BeatDivisor: 4
GridSize: 16
TimelineZoom: 1

[Metadata]
Title:Fukagyaku Replace
TitleUnicode:不可逆リプレイス
Artist:MY FIRST STORY
ArtistUnicode:MY FIRST STORY
Creator:Kyshiro
Version:Easy
Source:
Tags:
BeatmapID:615371
BeatmapSetID:269611

[Difficulty]
HPDrainRate:3
CircleSize:3
OverallDifficulty:3
ApproachRate:3
SliderMultiplier:0.8
SliderTickRate:2

[Events]
//Background and Video events
Video,0,"my first story.avi"
0,0,"original.jpg",0,0
//Break Periods
2,62989,64349
2,89989,102599
//Storyboard Layer 0 (Background)
//Storyboard Layer 1 (Fail)
//Storyboard Layer 2 (Pass)
//Storyboard Layer 3 (Foreground)
//Storyboard Sound Samples

[TimingPoints]
989,300,4,1,0,60,1,0
21839,-100,4,2,0,60,0,0
22439,-100,4,1,0,60,0,0
41789,-100,4,1,0,60,0,0
51239,-100,4,1,0,60,0,0
69989,-100,4,1,0,60,0,0
70589,-100,4,1,0,60,0,1
79589,-100,4,1,0,60,0,0
80189,-100,4,1,0,60,0,1
89789,-100,4,1,0,35,0,0
92939,-100,4,2,0,5,0,0
93014,-100,4,1,0,35,0,0
94589,-100,4,1,0,60,0,0
96989,-100,4,2,0,5,0,0
103589,-100,4,1,0,60,0,0
118589,-100,4,1,0,60,0,0
122789,-100,4,1,0,60,0,0
123389,-100,4,1,0,60,0,1
132389,-100,4,1,0,60,0,0
132989,-100,4,1,0,60,0,1
142589,-100,4,1,0,60,0,0
144989,-100,4,2,0,5,0,0

[Colours]
Combo1 : 248,217,152
Combo2 : 232,157,132
Combo3 : 132,143,251
Combo4 : 188,136,247

[HitObjects]
52,111,12989,6,0,P|107:77|207:84,2,160,0|0|0,0:0|0:0|0:0,0:0:0:0:
32,188,14489,2,0,P|42:239|37:282,2,80,0|0|0,0:0|0:0|0:0,0:0:0:0:
110,170,15389,6,0,L|273:202,1,160
419,152,16589,2,0,P|434:119|437:75,2,80,0|0|0,0:0|0:0|0:0,0:0:0:0:
354,199,17489,1,0,0:0:0:0:
287,154,17789,6,0,P|229:129|136:150,1,160
132,309,18989,2,0,P|190:334|283:313,1,160,0|0,0:0|0:0,0:0:0:0:
410,218,20189,2,0,L|445:95,2,120,0|0|0,0:0|0:0|0:0,0:0:0:0:
257,83,22439,6,0,P|168:60|80:119,1,200
104,233,23639,2,0,P|193:256|281:197,1,200
378,133,24839,6,0,L|419:259,1,120
378,318,25589,2,0,P|327:341|289:341,1,80
239,295,26189,2,0,P|184:274|79:294,1,160
19,189,27239,6,0,L|45:63,1,120
111,29,27989,1,0,0:0:0:0:
195,114,28439,2,0,L|221:240,1,120
287,274,29189,1,0,0:0:0:0:
394,220,29639,6,0,P|416:169|256:76,1,280
206,123,30989,2,0,P|121:148|50:117,1,160,0|0,0:0|0:0,0:0:0:0:
102,12,32039,6,0,L|138:306,1,280
213,269,33389,2,0,P|290:244|403:282,1,200,0|0,0:0|0:0,0:0:0:0:
466,234,34439,6,0,L|482:116,1,120
417,67,35189,2,0,B|356:88|303:58|303:58|277:133|211:163|127:143,1,320
48,70,36839,6,0,P|89:140|69:258,1,200
169,322,38039,2,0,P|239:281|357:301,1,200
450,228,39239,5,0,0:0:0:0:
155,103,40439,1,0,0:0:0:0:
36,284,41789,6,0,P|83:314|251:246,1,240
276,186,42989,2,0,P|360:146|401:148,2,120,0|0|0,0:0|0:0|0:0,0:0:0:0:
195,190,44189,6,0,L|129:24,1,160
73,188,45389,2,0,P|76:238|67:283,1,80
44,342,45989,1,0,0:0:0:0:
203,356,46589,6,0,P|278:326|364:322,1,160
466,205,47789,2,0,P|386:199|312:170,1,160
195,60,48989,2,0,P|143:31|105:206,1,320
371,186,51239,6,0,P|390:118|387:55,1,120
321,26,51989,1,0,0:0:0:0:
206,138,52589,2,0,L|226:264,1,120
160,304,53339,1,0,0:0:0:0:
86,271,53639,6,0,P|46:215|91:101,1,200
245,136,54989,2,0,P|307:150|407:126,1,160,0|0,0:0|0:0,0:0:0:0:
491,206,56039,6,0,L|483:339,1,120
413,364,56789,1,0,0:0:0:0:
272,288,57389,2,0,P|251:246|281:136,1,160
386,93,58439,6,0,L|211:73,2,160,0|0|0,0:0|0:0|0:0,0:0:0:0:
351,246,60239,2,0,B|310:273|256:246|256:246|201:273|160:246,1,200
256,192,61139,12,0,62789,0:0:0:0:
48,135,65789,6,0,P|127:102|246:200,1,240
240,265,66989,1,0,0:0:0:0:
341,141,67589,6,0,P|369:84|452:27,2,160,0|0|0,0:0|0:0|0:0,0:0:0:0:
336,220,69089,1,0,0:0:0:0:
159,57,69989,1,0,0:0:0:0:
42,166,70589,6,0,L|66:324,1,160
139,356,71489,2,0,P|206:371|290:325,1,160
305,254,72389,1,0,0:0:0:0:
252,102,72989,6,0,P|164:65|46:141,2,240,0|0|0,0:0|0:0|0:0,0:0:0:0:
296,255,75389,6,0,P|321:201|396:128,2,160,0|0|0,0:0|0:0|0:0,0:0:0:0:
268,330,76889,1,0,0:0:0:0:
204,280,77189,2,0,P|119:257|38:265,2,160,0|0|0,0:0|0:0|0:0,0:0:0:0:
362,305,78989,6,0,L|460:293,1,80
478,224,79589,2,0,P|494:162|491:130,1,80
433,93,80189,6,0,B|408:47|366:37|305:41|281:66|270:104|259:155|230:180|180:188|136:164,1,360
51,82,81989,1,0,0:0:0:0:
15,238,82589,6,0,L|38:365,2,120,0|0|0,0:0|0:0|0:0,0:0:0:0:
63,174,83789,2,0,P|129:157|215:203,1,160
315,314,84989,6,0,P|401:322|351:162,1,320
219,229,86789,2,0,P|166:242|99:233,1,120
230,80,87989,5,0,0:0:0:0:
288,134,88289,2,0,L|328:336,1,200
472,192,89789,1,0,0:0:0:0:
49,109,104039,6,0,P|142:82|223:144,1,200
243,215,105089,2,0,P|244:278|240:311,2,80,0|0|0,0:0|0:0|0:0,0:0:0:0:
299,157,105989,2,0,P|359:137|417:151,1,120
364,258,106889,5,0,0:0:0:0:
294,297,107189,2,0,L|121:279,1,160
33,156,108389,2,0,L|163:142,1,120
331,54,109589,5,0,0:0:0:0:
438,172,110189,2,0,P|458:250|412:318,1,160
298,322,111239,6,0,L|131:308,1,160
49,175,112439,2,0,P|95:143|205:161,1,160
376,70,113789,1,0,0:0:0:0:
256,192,113939,12,0,116189,0:0:0:0:
176,99,118589,6,0,P|145:79|27:114,1,160
156,208,119789,2,0,L|317:190,2,160,0|0|0,0:0|0:0|0:0,0:0:0:0:
250,337,121589,5,0,0:0:0:0:
409,321,122189,2,0,P|445:271|436:168,1,160
379,123,123089,1,0,0:0:0:0:
311,166,123389,6,0,L|147:151,1,160
80,189,124289,2,0,P|56:255|84:341,1,160
160,355,125189,1,0,0:0:0:0:
287,258,125789,6,0,P|366:234|500:314,1,240
430,352,126989,2,0,B|401:282|490:194|449:113,1,240,0|0,0:0|0:0,0:0:0:0:
393,63,128189,6,0,P|313:41|237:76,1,160
216,144,129089,2,0,P|142:172|67:150,1,160
41,74,129989,1,0,0:0:0:0:
199,53,130589,6,0,L|364:69,1,160
429,33,131489,1,0,0:0:0:0:
487,87,131789,1,0,0:0:0:0:
471,246,132389,6,0,P|430:266|391:262,1,80
329,220,132989,2,0,P|281:195|170:217,1,160
100,200,133889,2,0,L|70:38,1,160
150,32,134789,6,0,P|198:39|235:37,1,80
308,24,135389,2,0,P|366:16|456:56,1,160
469,135,136289,1,0,0:0:0:0:
420,198,136589,1,0,0:0:0:0:
274,131,137189,6,0,P|217:121|187:125,1,80
142,183,137789,2,0,L|110:347,2,160,0|0|0,0:0|0:0|0:0,0:0:0:0:
109,109,139289,1,0,0:0:0:0:
188,111,139589,1,0,0:0:0:0:
257,208,140039,6,0,P|329:242|412:216,2,160,0|0|0,0:0|0:0|0:0,0:0:0:0:
249,128,141539,1,0,0:0:0:0:
182,172,141839,2,0,L|164:307,1,120
90,318,142589,5,0,0:0:0:0:
256,192,142739,12,0,144989,0:0:0:0:
