osu file format v14

[General]
AudioFilename: ALONE.mp3
AudioLeadIn: 0
PreviewTime: 60435
Countdown: 0
SampleSet: Soft
StackLeniency: 0.7
Mode: 0
LetterboxInBreaks: 0
WidescreenStoryboard: 0

[Editor]
Bookmarks: 12135
DistanceSpacing: 1.2
BeatDivisor: 4
GridSize: 32
TimelineZoom: 1.7

[Metadata]
Title:ALONE
TitleUnicode:ALONE
Artist:MY FIRST STORY
ArtistUnicode:MY FIRST STORY
Creator:HB24
Version:Easy
Source:
Tags:xDarxen Hanczer FCL
BeatmapID:815979
BeatmapSetID:371459

[Difficulty]
HPDrainRate:2
CircleSize:2.5
OverallDifficulty:2
ApproachRate:3
SliderMultiplier:0.799999999999999
SliderTickRate:1

[Events]
//Background and Video events
0,0,"BG.jpg",0,0
//Break Periods
2,96765,97675
2,111015,116725
2,137715,145675
2,171314,188875
//Storyboard Layer 0 (Background)
//Storyboard Layer 1 (Fail)
//Storyboard Layer 2 (Pass)
//Storyboard Layer 3 (Foreground)
//Storyboard Sound Samples

[TimingPoints]
715,300,4,2,1,70,1,0
60565,-100,4,2,1,70,0,1
79765,-100,4,2,1,70,0,0
118165,-100,4,2,1,70,0,1
137515,-100,4,2,1,70,0,0
147115,-100,4,2,1,60,0,0
156715,-100,4,2,1,70,0,1
171115,-100,4,2,1,70,0,0
209515,-100,4,2,1,35,0,0

[Colours]
Combo1 : 221,166,225
Combo2 : 181,176,102
Combo3 : 188,41,16
Combo4 : 192,192,192

[HitObjects]
105,160,12565,6,0,L|238:157,1,120,4|8,0:0|0:0,0:0:0:0:
320,155,13315,1,8,0:0:0:0:
415,155,13615,2,0,P|410:202|415:238,1,79.9999999999999,0|8,0:0|0:0,0:0:0:0:
442,325,14215,2,0,L|355:328,1,79.9999999999999,0|8,0:0|0:0,0:0:0:0:
218,331,14965,6,0,B|224:240|224:240|206:199,1,120,4|8,0:0|0:0,0:0:0:0:
200,119,15715,2,0,P|146:143|117:195,2,120,8|8|8,0:0|0:0|0:0,0:0:0:0:
291,151,16915,2,0,L|429:145,1,120,0|4,0:0|0:0,0:0:0:0:
368,283,17815,6,0,P|319:296|280:288,1,79.9999999999999,8|8,0:0|0:0,0:0:0:0:
215,232,18415,2,0,P|166:219|127:227,1,79.9999999999999,8|8,0:0|0:0,0:0:0:0:
46,253,19015,2,0,L|31:174,1,79.9999999999999,8|0,0:0|0:0,0:0:0:0:
126,66,19765,6,0,L|258:68,1,120,4|0,0:0|0:0,0:0:0:0:
342,72,20515,1,0,0:0:0:0:
387,156,20815,2,0,P|435:100|411:8,2,160,0|8|8,0:0|0:0|0:0,0:0:0:0:
297,191,22315,5,4,0:0:0:0:
204,164,22615,2,0,P|151:156|74:231,1,160,8|8,0:0|0:0,0:0:0:0:
165,247,23515,5,8,0:0:0:0:
256,275,23815,2,0,P|298:282|351:267,1,79.9999999999999,8|8,0:0|0:0,0:0:0:0:
427,250,24415,1,8,0:0:0:0:
479,169,24715,6,0,B|455:59|455:59|411:27,1,160,8|8,0:0|0:0,0:0:0:0:
322,49,25615,1,8,0:0:0:0:
229,74,25915,2,0,B|140:91|140:91|58:70,1,160,8|8,0:0|0:0,0:0:0:0:
83,217,26965,6,0,P|124:211|209:214,1,120,4|8,0:0|0:0,0:0:0:0:
286,259,27715,2,0,P|299:213|286:169,2,79.9999999999999,8|8|8,0:0|0:0|0:0,0:0:0:0:
205,312,28615,2,0,P|264:354|357:322,1,160,8|8,0:0|0:0,0:0:0:0:
412,267,29515,2,0,L|401:187,1,79.9999999999999,8|8,0:0|0:0,0:0:0:0:
455,108,30115,2,0,B|404:90|404:90|295:96,1,160,8|0,0:0|0:0,0:0:0:0:
207,62,31015,2,0,B|190:115|226:162|226:162|159:178,1,160,0|8,0:0|0:0,0:0:0:0:
169,270,31915,6,0,L|326:236,1,160,4|0,0:0|0:0,0:0:0:0:
419,214,32815,2,0,P|431:247|471:286,2,79.9999999999999
443,120,33715,2,0,B|330:89|330:89|281:105,1,160
207,152,34615,1,0,0:0:0:0:
116,184,34915,6,0,P|30:164|-2:96,2,160
207,152,36415,1,0,0:0:0:0:
280,213,36715,2,0,B|398:197|398:197|444:206,1,160,4|0,0:0|0:0,0:0:0:0:
406,295,37615,1,0,0:0:0:0:
312,314,37915,6,0,L|139:341,1,160
61,228,38965,2,0,B|32:161|97:131|52:61,1,160,4|4,0:0|0:0,0:0:0:0:
236,145,40165,2,0,P|285:164|392:138,2,160,4|0|4,0:0|0:0|0:0,0:0:0:0:
223,288,41815,6,0,P|186:267|141:260,2,79.9999999999999,8|0|8,0:0|0:0|0:0,0:0:0:0:
303,340,42715,2,0,B|356:353|356:353|463:321,1,160,0|8,0:0|0:0,0:0:0:0:
466,226,43615,1,8,0:0:0:0:
382,178,43915,6,0,P|425:138|484:131,2,120,4|0|0,0:0|0:0|0:0,0:0:0:0:
309,240,45115,2,0,P|265:276|192:276,2,120,4|4|8,0:0|0:0|0:0,0:0:0:0:
227,188,46315,6,0,B|145:159|145:159|71:171,1,160
33,83,47215,2,0,L|196:55,1,160,8|8,0:0|0:0,0:0:0:0:
273,103,48115,2,0,P|311:110|359:101,1,79.9999999999999,8|8,0:0|0:0,0:0:0:0:
442,72,48715,6,0,P|478:143|465:231,1,160,4|0,0:0|0:0,0:0:0:0:
349,300,49765,6,0,B|226:292,1,120,4|0,0:0|0:0,0:0:0:0:
133,283,50515,1,0,0:0:0:0:
45,111,51115,6,0,L|214:97,1,160
299,88,52015,1,0,0:0:0:0:
383,133,52315,2,0,B|406:85|406:85|391:10,2,120
311,197,53515,6,0,P|274:253|310:349,1,160
365,273,54415,1,0,0:0:0:0:
436,209,54715,2,0,B|467:166|467:166|456:58,1,160
273,117,55915,6,0,P|222:139|115:124,1,160,4|8,0:0|0:0,0:0:0:0:
31,161,56815,2,0,B|22:118|22:118|51:40,2,120,8|8|8,0:0|0:0|0:0,0:0:0:0:
93,233,58015,2,0,L|172:239,1,79.9999999999999,8|4,0:0|0:0,0:0:0:0:
402,285,60565,6,0,P|420:238|408:152,1,120,4|8,0:0|0:0,0:0:0:0:
355,94,61315,2,0,L|268:87,1,79.9999999999999,0|8,0:0|0:0,0:0:0:0:
179,87,61915,2,0,B|170:146|170:146|94:228,1,160,0|8,0:0|0:0,0:0:0:0:
202,322,62965,6,0,L|334:315,1,120,4|8,0:0|0:0,0:0:0:0:
417,307,63715,2,0,P|409:264|418:216,1,79.9999999999999,0|8,0:0|0:0,0:0:0:0:
436,135,64315,2,0,B|379:113|379:113|272:119,1,160,0|8,0:0|0:0,0:0:0:0:
136,132,65365,6,0,P|134:210|149:261,1,120,4|8,0:0|0:0,0:0:0:0:
187,336,66115,1,0,0:0:0:0:
328,307,66565,6,0,B|402:288|402:288|435:246,1,120,0|8,0:0|0:0,0:0:0:0:
475,169,67315,1,0,0:0:0:0:
358,83,67765,6,0,P|295:74|223:90,1,120,4|8,0:0|0:0,0:0:0:0:
153,125,68515,1,8,0:0:0:0:
89,196,68815,2,0,B|134:233|195:211|195:211|243:250|307:258|355:207,1,280
279,145,70165,6,0,P|367:121|445:203,1,200,4|0,0:0|0:0,0:0:0:0:
403,277,71215,2,0,P|467:281|518:246,2,120,8|0|0,0:0|0:0|0:0,0:0:0:0:
268,328,72565,6,0,L|132:318,1,120,4|8,0:0|0:0,0:0:0:0:
52,311,73315,1,0,0:0:0:0:
130,189,73765,6,0,B|161:133|161:133|134:35,2,160,4|4|4,0:0|0:0|0:0,0:0:0:0:
272,210,75415,2,0,L|311:140,1,79.9999999999999,8|0,0:0|0:0,0:0:0:0:
270,52,76015,2,0,P|352:51|406:117,1,160,8|8,0:0|0:0,0:0:0:0:
404,199,76915,1,0,0:0:0:0:
316,313,77365,6,0,B|266:337|266:337|196:333,1,120,4|8,0:0|0:0,0:0:0:0:
106,320,78115,2,0,P|75:254|95:158,2,160,8|8|8,0:0|0:0|0:0,0:0:0:0:
217,229,79765,6,0,B|247:176|247:176|246:106,1,120,0|8,0:0|0:0,0:0:0:0:
325,63,80515,2,0,P|367:56|415:59,1,79.9999999999999,0|8,0:0|0:0,0:0:0:0:
431,149,81115,2,0,L|453:233,2,79.9999999999999,0|8|0,0:0|0:0|0:0,0:0:0:0:
332,254,82165,6,0,P|286:240|210:251,1,120,4|0,0:0|0:0,0:0:0:0:
121,268,82915,2,0,B|134:316|134:316|189:362,2,120
102,173,84115,1,0,0:0:0:0:
214,82,84565,6,0,P|266:94|346:85,1,120,4|8,0:0|0:0,0:0:0:0:
419,48,85315,2,0,B|432:103|432:103|407:214,1,160,8|8,0:0|0:0,0:0:0:0:
372,292,86215,2,0,P|319:296|285:291,1,79.9999999999999,8|8,0:0|0:0,0:0:0:0:
150,268,86965,6,0,P|158:204|151:146,1,120,4|8,0:0|0:0,0:0:0:0:
130,55,87715,1,0,0:0:0:0:
225,63,88015,2,0,B|340:65|340:65|388:43,2,160,8|8|8,0:0|0:0|0:0,0:0:0:0:
130,55,89515,6,0,P|37:92|21:145,1,160
82,216,90415,2,0,B|152:235|152:235|210:220,2,120,8|8|8,0:0|0:0|0:0,0:0:0:0:
29,296,91615,6,0,L|192:347,1,160,8|8,0:0|0:0,0:0:0:0:
272,312,92515,1,0,0:0:0:0:
355,358,92815,2,0,P|408:374|478:348,2,120,8|8|8,0:0|0:0|0:0,0:0:0:0:
410,279,94015,6,0,B|402:169|402:169|417:120,1,160,8|8,0:0|0:0,0:0:0:0:
330,77,94915,1,0,0:0:0:0:
245,122,95215,2,0,P|190:138|123:126,1,120,8|8,0:0|0:0,0:0:0:0:
62,256,96115,2,0,L|181:263,1,120,8|4,0:0|0:0,0:0:0:0:
456,154,99115,6,0,L|282:163,1,160
199,166,100015,1,0,0:0:0:0:
103,167,100315,2,0,P|121:105|178:72,2,120
117,262,101515,6,0,P|67:302|0:292,2,120
192,202,102715,2,0,P|254:211|292:268,2,120
207,296,103915,2,0,B|246:337|246:337|305:350|366:332,1,160
437,298,104815,1,0,0:0:0:0:
419,205,105115,2,0,P|401:144|416:73,1,120
267,117,106015,6,0,B|200:146|170:81|100:126,1,160,4|4,0:0|0:0,0:0:0:0:
177,299,107215,2,0,P|239:287|352:302,2,160,4|4|0,0:0|0:0|0:0,0:0:0:0:
256,192,108715,12,0,110815,0:0:0:0:
84,181,118165,6,0,L|216:178,1,120,4|8,0:0|0:0,0:0:0:0:
299,177,118915,2,0,P|299:222|292:269,1,79.9999999999999,0|8,0:0|0:0,0:0:0:0:
216,314,119515,2,0,P|280:350|370:318,1,160,0|8,0:0|0:0,0:0:0:0:
449,215,120565,6,0,B|424:169|424:169|420:85,1,120,4|8,0:0|0:0,0:0:0:0:
341,47,121315,2,0,P|297:55|256:53,1,79.9999999999999,0|8,0:0|0:0,0:0:0:0:
166,42,121915,2,0,P|134:124|140:199,1,160,0|8,0:0|0:0,0:0:0:0:
226,309,122965,6,0,B|314:298|314:298|360:304,1,120,4|8,0:0|0:0,0:0:0:0:
435,335,123715,1,0,0:0:0:0:
418,240,124015,2,0,B|409:169|447:126|447:126|414:86,1,160,8|8,0:0|0:0,0:0:0:0:
341,43,124915,1,0,0:0:0:0:
232,137,125365,6,0,L|101:131,1,120,4|8,0:0|0:0,0:0:0:0:
16,123,126115,2,0,P|23:164|22:213,1,79.9999999999999,8|0,0:0|0:0,0:0:0:0:
28,298,126715,2,0,B|77:303|107:261|107:261|159:263|214:293,1,200
294,339,127765,6,0,P|344:350|426:335,1,120,4|8,0:0|0:0,0:0:0:0:
451,253,128515,2,0,L|460:167,1,79.9999999999999,0|8,0:0|0:0,0:0:0:0:
432,84,129115,2,0,P|371:65|274:84,1,160
144,136,130165,6,0,B|167:221|167:221|163:267,1,120,4|8,0:0|0:0,0:0:0:0:
129,342,130915,1,0,0:0:0:0:
268,305,131365,2,0,P|347:292|428:309,2,160,4|4|4,0:0|0:0|0:0,0:0:0:0:
293,162,133015,6,0,B|315:59|315:59|361:26,1,160,8|8,0:0|0:0,0:0:0:0:
433,87,133915,2,0,P|464:131|468:240,1,160
394,294,134815,6,0,P|297:275|232:285,1,160,8|8,0:0|0:0,0:0:0:0:
147,318,135715,2,0,L|119:230,1,79.9999999999999,8|8,0:0|0:0,0:0:0:0:
51,176,136315,2,0,B|96:134|160:154|160:154|197:106|275:104,1,240,8|0,0:0|0:0,0:0:0:0:
364,100,137515,5,4,0:0:0:0:
119,159,147115,6,0,B|176:167|176:167|280:130,1,160,8|0,0:3|0:0,0:0:0:0:
360,93,148015,2,0,P|398:146|401:240,1,160,8|0,0:3|0:0,0:0:0:0:
324,295,148915,2,0,L|229:280,1,79.9999999999999
185,357,149515,6,0,P|152:309|184:210,1,160,8|0,0:3|0:0,0:0:0:0:
248,154,150415,2,0,B|203:118|203:118|98:121,2,160,8|0|0,0:3|0:0|0:0,0:0:0:0:
303,232,151915,6,0,P|354:253|455:234,1,160,8|0,0:3|0:0,0:0:0:0:
480,141,152815,2,0,B|373:93|373:93|332:101,1,160,8|0,0:3|0:0,0:0:0:0:
242,137,153715,2,0,P|199:147|150:136,1,79.9999999999999
72,110,154315,6,0,P|46:192|68:274,1,160
135,324,155215,1,0,0:0:0:0:
213,269,155515,5,4,0:0:0:0:
256,192,156715,12,4,160165,0:0:0:0:
53,175,161515,6,0,P|141:145|216:166,1,160,4|8,0:0|0:0,0:0:0:0:
293,272,162565,6,0,B|420:253,1,120,8|8,0:0|0:0,0:0:0:0:
474,181,163315,1,0,0:0:0:0:
377,73,163765,6,0,P|327:92|253:81,1,120,4|8,0:0|0:0,0:0:0:0:
166,72,164515,2,0,P|128:108|123:181,1,120,8|4,0:0|0:0,0:0:0:0:
133,267,165265,2,0,B|180:260|204:221|204:221|241:227|273:241|273:241|320:232,1,200
408,223,166315,6,0,P|412:175|390:67,2,160,8|8|8,0:0|0:0|0:0,0:0:0:0:
380,315,167815,2,0,L|465:307,2,79.9999999999999,8|8|8,0:0|0:0|0:0,0:0:0:0:
284,315,168715,6,0,B|192:301|192:301|162:331|115:327,1,160,8|8,0:0|0:0,0:0:0:0:
121,231,169615,1,8,0:0:0:0:
169,148,169915,2,0,B|241:106|306:147|306:147|356:112|440:127|452:211,1,320,8|4,0:0|0:0,0:0:0:0:
341,266,190315,6,0,L|170:248,1,160,4|0,0:0|0:0,0:0:0:0:
109,186,191215,2,0,P|84:241|99:300,2,120
181,129,192415,6,0,P|239:107|345:116,2,160,8|8|8,0:0|0:0|0:0,0:0:0:0:
106,189,193915,1,0,0:0:0:0:
160,268,194215,2,0,P|95:285|68:277,2,79.9999999999999,8|0|8,0:0|0:0|0:0,0:0:0:0:
248,230,195115,6,0,P|320:215|416:228,1,160,4|0,0:0|0:0,0:0:0:0:
452,308,196015,2,0,P|491:258|468:155,1,160,8|8,0:0|0:0,0:0:0:0:
402,107,196915,1,0,0:0:0:0:
312,73,197215,6,0,B|258:101|258:101|150:104,1,160,8|8,0:0|0:0,0:0:0:0:
63,115,198115,2,0,L|76:196,1,79.9999999999999,0|8,0:0|0:0,0:0:0:0:
58,288,198715,2,0,B|110:308|155:260|155:260|211:280|285:264,1,240
380,254,199915,6,0,P|362:190|376:85,1,160,4|8,0:0|0:0,0:0:0:0:
227,106,200965,2,0,L|103:113,1,120
11,115,201715,2,0,P|2:184|29:268,1,160,8|0,0:0|0:0,0:0:0:0:
111,318,202615,5,0,0:0:0:0:
197,275,202915,2,0,B|252:254|252:254|361:271,1,160,8|0,0:0|0:0,0:0:0:0:
447,262,203815,2,0,P|445:309|428:341,2,79.9999999999999,0|8|0,0:0|0:0|0:0,0:0:0:0:
447,165,204715,6,0,B|381:69|381:69|338:55,1,160,4|8,0:0|0:0,0:0:0:0:
252,102,205615,2,0,P|172:119|93:102,1,160
24,167,206515,2,0,B|36:272|36:272|78:317,1,160,8|0,0:0|0:0,0:0:0:0:
153,363,207415,5,0,0:0:0:0:
240,324,207715,2,0,P|304:300|397:322,1,160,8|0,0:0|0:0,0:0:0:0:
484,341,208615,1,0,0:0:0:0:
460,247,208915,6,0,B|427:188|489:140|448:80,1,160,8|0,0:0|0:0,0:0:0:0:
