osu file format v11

[General]
AudioFilename: Upright-Blue.mp3
AudioLeadIn: 0
PreviewTime: 24226
Countdown: 0
SampleSet: Normal
StackLeniency: 0.7
Mode: 0
LetterboxInBreaks: 0

[Editor]
Bookmarks: 13169,26969,37945,48916,60054,70859,81831,92802,103774,114745
DistanceSpacing: 1.1
BeatDivisor: 4
GridSize: 4

[Metadata]
Title:Upright Blue
TitleUnicode:Upright Blue
Artist:MUZIK SERVANT feat. TAM
ArtistUnicode:MUZIK SERVANT feat. TAM
Creator:Reiji-RJ
Version:Hard
Source:Touhou
Tags:OTOMEKAN TAMUSIC Wooming Kissing the Mirror Fumi Sakura Seirensen Sacredess Fantasy Ship Returning Home from the Sky Dream Undefined Fantastic Object UFO IceBeam Vass_Bass OnosakiHito
BeatmapID:173537
BeatmapSetID:56450

[Difficulty]
HPDrainRate:6
CircleSize:4
OverallDifficulty:6
ApproachRate:8
SliderMultiplier:1.4
SliderTickRate:1

[Events]
//Background and Video events
0,0,"606e92766a24ede97bffbe6e1556c585.jpg"
Video,0,"video.flv"
//Break Periods
//Storyboard Layer 0 (Background)
//Storyboard Layer 1 (Fail)
//Storyboard Layer 2 (Pass)
//Storyboard Layer 3 (Foreground)
//Storyboard Sound Samples
//Background Colour Transformations
3,100,163,162,255

[TimingPoints]
2369,342.857142857143,4,2,1,40,1,0
11883,-133.333333333333,4,1,1,40,0,0
12054,-133.333333333333,4,1,1,5,0,0
13254,-100,4,1,1,40,0,0
13426,-100,4,2,1,40,0,0
18740,-100,4,1,1,40,0,0
24740,-100,4,2,1,40,0,0
24911,-100,4,1,1,40,0,0
26111,-100,4,2,1,40,0,0
26283,-100,4,1,1,40,0,0
27054,-100,4,1,1,50,0,1
27140,-100,4,2,1,50,0,0
27311,-100,4,1,1,50,0,0
27483,-100,4,2,1,50,0,0
27654,-100,4,1,1,50,0,0
27826,-100,4,2,1,50,0,0
27997,-100,4,1,1,50,0,0
28169,-100,4,2,1,50,0,0
28340,-100,4,1,1,50,0,0
28511,-100,4,2,1,50,0,0
28683,-100,4,1,1,50,0,0
28854,-100,4,2,1,50,0,0
29026,-100,4,1,1,50,0,0
29197,-100,4,2,1,50,0,0
29369,-100,4,1,1,50,0,0
29540,-100,4,2,1,50,0,0
29711,-100,4,1,1,50,0,0
30226,-100,4,2,1,50,0,0
30397,-100,4,1,1,50,0,0
30569,-100,4,2,1,50,0,0
30740,-100,4,1,1,50,0,0
30911,-100,4,2,1,50,0,0
31083,-100,4,1,1,50,0,0
31597,-100,4,2,1,50,0,0
31769,-100,4,1,1,50,0,0
32369,-100,4,2,1,50,0,0
32454,-100,4,1,1,50,0,0
32969,-100,4,2,1,50,0,0
33140,-100,4,1,1,50,0,0
33311,-100,4,2,1,50,0,0
33483,-100,4,1,1,50,0,0
33654,-100,4,2,1,50,0,0
33826,-100,4,1,1,50,0,0
34340,-100,4,2,1,50,0,0
34511,-100,4,1,1,50,0,0
34683,-100,4,2,1,50,0,0
34854,-100,4,1,1,50,0,0
35026,-100,4,2,1,50,0,0
35197,-100,4,1,1,50,0,0
35711,-100,4,2,1,50,0,0
35883,-100,4,1,1,50,0,0
36054,-100,4,2,1,50,0,0
36226,-100,4,1,1,50,0,0
36397,-100,4,2,1,50,0,0
36654,-200,4,1,1,50,0,0
38026,-100,4,1,1,50,0,0
38111,-100,4,2,1,50,0,0
38283,-100,4,1,1,50,0,0
38454,-100,4,2,1,50,0,0
38626,-100,4,1,1,50,0,0
38883,-100,4,2,1,50,0,0
38969,-100,4,1,1,50,0,0
39140,-100,4,2,1,50,0,0
39311,-100,4,1,1,50,0,0
39569,-100,4,2,1,50,0,0
39654,-100,4,1,1,50,0,0
39826,-100,4,2,1,50,0,0
39997,-100,4,1,1,50,0,0
40511,-100,4,2,1,50,0,0
40683,-100,4,1,1,50,0,0
41197,-100,4,2,1,50,0,0
41369,-100,4,1,1,50,0,0
41626,-100,4,2,1,50,0,0
41711,-100,4,1,1,50,0,0
41883,-100,4,2,1,50,0,0
42054,-100,4,1,1,50,0,0
42311,-100,4,2,1,50,0,0
42397,-100,4,1,1,50,0,0
42569,-100,4,2,1,50,0,0
42740,-100,4,1,1,50,0,0
46769,-100,4,1,1,50,0,0
46940,-100,4,1,1,10,0,0
46983,-100,4,1,1,15,0,0
47026,-100,4,1,1,20,0,0
47111,-100,4,1,1,25,0,0
47197,-100,4,1,1,30,0,0
47283,-100,4,1,1,35,0,0
47369,-100,4,1,1,40,0,0
47454,-100,4,1,1,45,0,0
47540,-100,4,1,1,50,0,0
47626,-100,4,1,1,50,0,0
49083,-100,4,2,1,50,0,0
54054,-100,4,1,1,30,0,0
54569,-100,4,2,1,50,0,0
59197,-100,4,1,1,10,0,0
59369,-100,4,1,1,15,0,0
59540,-100,4,1,1,20,0,0
59711,-100,4,1,1,25,0,0
59883,-100,4,1,1,50,0,0
60054,-100,4,2,1,50,0,0
60226,-100,4,1,1,50,0,0
60397,-100,4,2,1,50,0,0
60569,-100,4,1,1,50,0,0
61083,-100,4,2,1,50,0,0
61254,-100,4,1,1,50,0,0
61426,-100,4,2,1,50,0,0
61597,-100,4,1,1,50,0,0
61769,-100,4,2,1,50,0,0
62283,-100,4,1,1,50,0,0
62454,-100,4,2,1,50,0,0
62626,-100,4,1,1,50,0,0
63140,-100,4,2,1,50,0,0
63311,-100,4,1,1,50,0,0
63569,-100,4,2,1,50,0,0
63654,-100,4,1,1,50,0,0
63826,-100,4,2,1,50,0,0
63997,-100,4,1,1,50,0,0
64169,-100,4,2,1,50,0,0
64340,-100,4,1,1,50,0,0
64511,-100,4,2,1,50,0,0
65026,-100,4,1,1,50,0,0
65197,-100,4,2,1,50,0,0
65369,-100,4,1,1,40,0,0
69569,-133.333333333333,4,1,1,40,0,0
70683,-133.333333333333,4,2,1,40,0,0
70940,-100,4,1,1,40,0,0
81911,-100,4,1,1,40,0,1
81997,-100,4,1,1,40,0,0
86101,-100,4,2,1,40,0,0
86283,-100,4,1,1,40,0,0
86454,-100,4,2,1,40,0,0
86626,-100,4,1,1,40,0,0
87140,-100,4,2,1,40,0,0
87311,-100,4,1,1,40,0,0
91340,-133.333333333333,4,2,1,40,0,0
91426,-133.333333333333,4,1,1,40,0,0
92197,-100,4,1,1,40,0,0
92283,-100,4,2,1,40,0,0
92454,-100,4,1,1,40,0,0
101197,-100,4,2,1,40,0,0
101369,-100,4,1,1,40,0,0
101883,-100,4,2,1,40,0,0
102054,-100,4,1,1,40,0,0
103854,-100,4,1,1,40,0,1
103940,-100,4,2,1,40,0,0
104197,-100,4,1,1,40,0,0
104283,-100,4,2,1,40,0,0
104454,-100,4,1,1,40,0,0
104711,-100,4,2,1,40,0,0
104797,-100,4,1,1,40,0,0
104969,-100,4,2,1,40,0,0
105140,-100,4,2,1,40,0,0
105226,-100,4,1,1,40,0,0
105311,-100,4,2,1,40,0,0
105483,-100,4,1,1,40,0,0
105654,-100,4,2,1,40,0,0
105911,-100,4,1,1,40,0,0
105997,-100,4,2,1,40,0,0
106169,-100,4,1,1,40,0,0
106340,-100,4,2,1,40,0,0
106511,-100,4,1,1,40,0,0
107026,-100,4,2,1,40,0,0
107197,-100,4,1,1,40,0,0
107369,-100,4,2,1,40,0,0
107540,-100,4,1,1,40,0,0
107797,-100,4,2,1,40,0,0
107883,-100,4,1,1,40,0,0
108397,-100,4,2,1,40,0,0
108569,-100,4,1,1,40,0,0
109426,-100,4,2,1,40,0,0
109597,-100,4,1,1,40,0,0
109854,-100,4,2,1,40,0,0
109940,-100,4,1,1,40,0,0
110283,-100,4,2,1,40,0,0
110369,-100,4,1,1,40,0,0
110454,-100,4,2,1,40,0,0
110626,-100,4,1,1,40,0,0
110797,-100,4,2,1,40,0,0
110969,-100,4,1,1,40,0,0
111140,-100,4,2,1,40,0,0
111311,-100,4,1,1,40,0,0
111826,-100,4,2,1,40,0,0
111997,-100,4,1,1,40,0,0
112254,-100,4,2,1,40,0,0
112426,-100,4,1,1,40,0,0
112511,-100,4,2,1,40,0,0
112683,-100,4,1,1,40,0,0
112854,-100,4,2,1,40,0,0
113026,-100,4,1,1,40,0,0
113197,-100,4,2,1,40,0,0
113454,-100,4,1,1,40,0,0
113711,-100,4,2,1,40,0,0
113797,-100,4,1,1,40,0,0
113904,-100,4,2,1,40,0,0
114054,-100,4,1,1,40,0,0
114997,-100,4,2,1,40,0,0
115169,-100,4,1,1,40,0,0
115254,-100,4,2,1,40,0,0
115426,-100,4,1,1,40,0,0
115597,-100,4,2,1,40,0,0
115769,-100,4,1,1,40,0,0
116283,-100,4,2,1,40,0,0
116454,-100,4,1,1,40,0,0
116626,-100,4,2,1,40,0,0
116797,-100,4,1,1,40,0,0
117311,-100,4,2,1,40,0,0
117483,-100,4,1,1,40,0,0
117740,-100,4,2,1,40,0,0
117826,-100,4,1,1,40,0,0
118083,-100,4,2,1,40,0,0
118169,-100,4,1,1,40,0,0
118426,-100,4,2,1,40,0,0
118511,-100,4,1,1,40,0,0
118683,-100,4,2,1,40,0,0
118854,-100,4,1,1,40,0,0
119111,-100,4,2,1,40,0,0
119283,-100,4,1,1,40,0,0
119369,-100,4,2,1,40,0,0
119540,-100,4,1,1,40,0,0
119711,-100,4,2,1,40,0,0
119883,-100,4,1,1,40,0,0
121683,-100,4,1,1,45,0,0
123054,-100,4,1,1,30,0,0
123397,-100,4,1,1,35,0,0
123740,-100,4,1,1,40,0,0
125797,-100,4,1,1,40,0,1
125883,-100,4,1,1,40,0,0

[Colours]
Combo1 : 125,217,43
Combo2 : 24,165,211
Combo3 : 47,109,117
Combo4 : 62,149,47

[HitObjects]
112,92,2368,1,2,0:0:0
116,100,3054,1,2,0:0:0
216,332,3569,1,0,0:0:0
252,264,3740,1,2,0:0:0
252,264,4083,6,0,B|300:272|332:260,1,70,0|2,0:0|0:0,0:0:0
424,136,4426,2,0,B|384:128|348:140,1,70,0|2,0:0|0:0,0:0:0
276,120,4769,2,0,B|280:44,1,70,2|0,0:0|0:0,0:0:0
180,20,5111,5,2,0:0:0
180,28,5797,1,2,0:0:0
28,200,6311,1,0,0:0:0
104,180,6483,1,2,0:0:0
104,180,6826,6,0,B|100:256,1,70,0|2,0:0|0:0,0:0:0
184,320,7169,2,0,B|187:250,1,70,0|2,0:0|0:0,0:0:0
240,192,7511,1,2,0:0:0
308,156,7683,1,0,0:0:0
372,196,7854,5,2,0:0:0
380,200,8540,1,2,0:0:0
196,60,9054,1,0,0:0:0
272,40,9226,1,2,0:0:0
116,40,9569,6,0,B|104:84|120:120,1,70,0|2,0:0|0:0,0:0:0
200,220,9911,2,0,B|196:180|180:152,1,70,0|2,0:0|0:0,0:0:0
32,196,10254,2,0,B|72:200|104:184,1,70,2|0,0:0|0:0,0:0:0
128,256,10597,5,2,0:0:0
132,264,11283,1,2,0:0:0
352,332,11797,1,0,0:0:0
352,332,11969,6,0,B|392:312|412:264|392:208|352:196|352:196|328:152|332:96|368:48|448:48|484:104,1,420.000016021729,4|4,0:0|0:0,0:0:0
420,148,13511,5,2,0:0:0
304,120,13683,2,0,B|224:128,1,70,0|2,0:0|0:0,0:0:0
160,40,14026,2,0,B|229:33,1,70,2|0,0:0|0:0,0:0:0
104,124,14540,1,2,0:0:0
32,96,14711,1,0,0:0:0
40,172,14883,1,0,0:0:0
104,124,15054,1,2,0:0:0
40,172,15226,2,0,B|20:236|48:316,1,140
120,284,15740,2,0,B|160:284|192:304,1,70,2|0,0:0|0:0,0:0:0
244,352,16083,6,0,B|280:360|312:344,1,70,0|2,0:0|0:0,0:0:0
356,252,16426,2,0,B|320:244|288:260,1,70,0|2,0:0|0:0,0:0:0
416,328,16769,1,0,0:0:0
416,328,16940,2,0,B|460:260|424:192,1,140,2|2,0:0|0:0,0:0:0
444,120,17454,2,0,B|440:84|452:48,2,70,0|2|0,0:0|0:0|0:0,0:0:0
425,197,17969,2,0,B|388:192|360:164|352:128|364:92,1,140,2|2,0:0|0:0,0:0:0
284,64,18483,2,0,B|192:48,1,70,0|2,0:0|0:0,0:0:0
80,128,18826,5,4,0:0:0
80,128,19511,1,4,0:0:0
80,128,20197,1,4,0:0:0
80,128,20883,1,4,0:0:0
80,128,21569,5,4,0:0:0
56,292,21911,1,0,0:0:0
248,248,22254,1,4,0:0:0
276,76,22597,1,0,0:0:0
276,76,22940,5,4,0:0:0
352,60,23111,1,0,0:0:0
424,92,23283,1,4,0:0:0
456,160,23454,1,0,0:0:0
440,236,23626,2,0,B|432:284,8,35,0|0|0|0|0|0|0|0|4,0:0|0:0|0:0|0:0|0:0|0:0|0:0|0:0|0:0,0:0:0
320,332,24654,6,0,B|228:340,1,70,0|2,0:0|0:0,0:0:0
116,264,24997,2,0,B|185:257,1,70
36,116,25511,1,0,0:0:0
36,116,25683,1,4,0:0:0
36,116,26026,6,0,B|128:124,1,70,0|2,0:0|0:0,0:0:0
240,48,26369,2,0,B|170:41,1,70
400,56,26883,1,0,0:0:0
400,56,27054,6,0,B|384:96|392:136,1,70,4|2,0:0|0:0,0:0:0
468,192,27397,2,0,B|484:152|476:120,1,70,0|2,0:0|0:0,0:0:0
344,188,27740,2,0,B|268:192,1,70,0|2,0:0|0:0,0:0:0
316,276,28083,2,0,B|385:272,1,70,0|2,0:0|0:0,0:0:0
204,336,28426,2,0,B|216:268,1,70,0|2,0:0|0:0,0:0:0
136,176,28769,2,0,B|124:244,1,70,0|2,0:0|0:0,0:0:0
48,264,29111,5,0,0:0:0
44,148,29369,1,0,0:0:0
44,148,29454,2,0,B|40:72,1,70,0|2,0:0|0:0,0:0:0
128,36,29797,2,0,B|136:176,1,140
48,264,30311,1,2,0:0:0
124,248,30483,6,0,B|192:264,1,70,0|2,0:0|0:0,0:0:0
284,172,30826,2,0,B|216:188,1,70,0|2,0:0|0:0,0:0:0
284,252,31169,2,0,B|424:260,1,140
452,332,31683,1,2,0:0:0
472,188,31854,1,0,0:0:0
488,72,32111,1,0,0:0:0
488,72,32197,2,0,B|396:52,1,70,0|2,0:0|0:0,0:0:0
364,4,32540,6,0,B|316:60|348:140,1,140,0|0,0:0|0:0,0:0:0
472,188,33054,1,2,0:0:0
346,135,33226,2,0,B|312:152|296:188,1,70,0|2,0:0|0:0,0:0:0
208,180,33569,2,0,B|216:220|240:244,1,70,0|2,0:0|0:0,0:0:0
156,296,33911,6,0,B|186:324|220:336|263:328|284:312,1,140
356,272,34426,1,2,0:0:0
432,288,34597,1,0,0:0:0
472,188,34854,1,0,0:0:0
472,188,34940,1,0,0:0:0
460,48,35111,1,2,0:0:0
432,120,35283,6,0,B|280:132,1,140
196,56,35797,1,2,0:0:0
292,131,35969,2,0,B|296:216,1,70,0|2,0:0|0:0,0:0:0
188,256,36311,2,0,B|190:186,1,70,0|2,0:0|0:0,0:0:0
196,56,36654,5,4,0:0:0
196,56,38026,2,0,B|124:52,1,70,4|2,0:0|0:0,0:0:0
60,124,38369,2,0,B|128:128,1,70,0|2,0:0|0:0,0:0:0
200,164,38711,2,0,B|192:248,1,70,0|2,0:0|0:0,0:0:0
276,280,39054,2,0,B|282:210,1,70,0|2,0:0|0:0,0:0:0
404,128,39397,2,0,B|332:136,1,70,0|2,0:0|0:0,0:0:0
336,60,39740,2,0,B|405:52,1,70,0|2,0:0|0:0,0:0:0
472,88,40083,5,0,0:0:0
468,240,40340,1,0,0:0:0
468,240,40426,1,0,0:0:0
444,312,40597,1,2,0:0:0
368,312,40769,6,0,B|296:288|232:328,1,140
156,332,41283,1,2,0:0:0
84,300,41454,2,0,B|8:312,1,70,0|2,0:0|0:0,0:0:0
24,236,41797,2,0,B|93:225,1,70,0|2,0:0|0:0,0:0:0
136,84,42140,2,0,B|132:156,1,70,0|2,0:0|0:0,0:0:0
208,172,42483,2,0,B|211:102,1,70,0|2,0:0|0:0,0:0:0
268,52,42826,5,0,0:0:0
384,36,43083,1,0,0:0:0
384,36,43169,1,0,0:0:0
448,76,43340,1,0,0:0:0
476,148,43511,2,0,B|504:212|472:296,1,140,4|0,0:0|0:0,0:0:0
332,340,44197,6,0,B|252:344,1,70
184,264,44540,2,0,B|253:260,1,70
332,252,44883,2,0,B|360:180|328:116,2,140,4|0|0,0:0|0:0|0:0,0:0:0
184,264,45740,1,0,0:0:0
248,192,45911,2,0,B|240:116,1,70,0|0,0:0|0:0,0:0:0
156,44,46254,1,4,0:0:0
156,44,46597,1,0,0:0:0
96,92,46769,1,0,0:0:0
40,148,46940,6,0,B|12:144,16,17.5,0|0|0|0|0|0|0|0|0|0|0|0|0|0|0|0|4,0:0|0:0|0:0|0:0|0:0|0:0|0:0|0:0|0:0|0:0|0:0|0:0|0:0|0:0|0:0|0:0|0:0,0:0:0
256,192,47711,12,4,48997,0:0:0
148,72,49340,6,0,B|140:140,1,70,0|2,0:0|0:0,0:0:0
224,184,49683,2,0,B|232:114,1,70,0|2,0:0|0:0,0:0:0
113,223,50026,2,0,B|44:232,1,70,0|2,0:0|0:0,0:0:0
80,320,50369,2,0,B|148:312,1,70,0|2,0:0|0:0,0:0:0
248,288,50711,1,0,0:0:0
344,332,50883,1,2,0:0:0
344,332,51054,2,0,B|424:352|484:328,1,140
512,200,51569,1,2,0:0:0
452,128,51740,6,0,B|400:192|444:260,1,140
352,252,52254,1,2,0:0:0
352,252,52426,2,0,B|280:244,1,70,0|2,0:0|0:0,0:0:0
264,160,52769,2,0,B|333:167,1,70,0|2,0:0|0:0,0:0:0
180,112,53111,2,0,B|172:44,1,70,0|2,0:0|0:0,0:0:0
96,28,53454,2,0,B|104:97,1,70,0|2,0:0|0:0,0:0:0
48,152,53797,1,0,0:0:0
48,152,53969,1,2,0:0:0
36,228,54140,2,0,B|24:304,1,70,4|0,0:0|0:0,0:0:0
124,212,54483,6,0,B|100:356,1,140,4|0,0:0|0:0,0:0:0
208,356,54997,2,0,B|280:328|344:364,1,140,2|2,0:0|0:0,0:0:0
420,352,55511,1,0,0:0:0
492,320,55683,1,2,0:0:0
344,364,55854,2,0,B|320:225,1,140
384,88,56369,1,2,0:0:0
384,88,56540,2,0,B|407:225,1,140
320,228,57054,1,2,0:0:0
260,180,57226,6,0,B|188:184,1,70,0|2,0:0|0:0,0:0:0
168,112,57569,2,0,B|237:108,1,70,0|2,0:0|0:0,0:0:0
92,108,57911,2,0,B|100:36,1,70,0|2,0:0|0:0,0:0:0
24,52,58254,2,0,B|16:121,1,70,0|2,0:0|0:0,0:0:0
48,192,58597,1,4,0:0:0
44,344,58940,6,0,B|83:365|134:354|168:305|155:265|155:265|177:221|225:192|285:194|334:257|306:321,1,419.999987483025,0|4,0:0|0:0,0:0:0
236,288,60140,5,0,0:0:0
292,200,60311,2,0,B|304:128,1,70,0|2,0:0|0:0,0:0:0
404,92,60654,2,0,B|380:232,1,140
440,308,61169,1,2,0:0:0
440,308,61340,2,0,B|520:304,1,70,0|2,0:0|0:0,0:0:0
400,376,61683,1,0,0:0:0
400,376,61854,2,0,B|256:380,1,140,2|2,0:0|0:0,0:0:0
204,324,62369,2,0,B|212:280|204:248,1,70,0|2,0:0|0:0,0:0:0
124,140,62711,6,0,B|104:212|128:284,1,140,4|0,0:0|0:0,0:0:0
204,256,63226,1,2,0:0:0
280,248,63397,2,0,B|320:264|356:248,1,70,0|2,0:0|0:0,0:0:0
408,160,63740,2,0,B|368:144|332:160,1,70,0|2,0:0|0:0,0:0:0
472,224,64083,2,0,B|512:156|476:88,1,140
408,160,64597,1,2,0:0:0
392,76,64769,2,0,B|248:60,1,140
116,40,65283,1,2,0:0:0
180,84,65454,6,0,B|144:144|176:220,1,140,4|0,0:0|0:0,0:0:0
240,264,65969,2,0,B|172:228|104:268,1,140
48,208,66483,1,0,0:0:0
172,344,66654,1,0,0:0:0
172,344,66740,1,0,0:0:0
172,344,66826,2,0,B|248:372|308:336,1,140,4|0,0:0|0:0,0:0:0
384,320,67340,1,0,0:0:0
460,308,67511,2,0,B|472:236,1,70
400,140,67854,2,0,B|388:209,1,70
464,48,68197,6,0,B|352:52,1,105,4|0,0:0|0:0,0:0:0
344,48,68540,1,0,0:0:0
256,100,68711,1,0,0:0:0
64,48,68883,6,0,B|176:52,1,105,4|0,0:0|0:0,0:0:0
184,48,69226,1,0,0:0:0
256,100,69397,1,0,0:0:0
120,204,69569,6,0,B|168:240|216:240|256:212|256:212|288:172|344:160|384:176|408:208,1,314.999990612269,4|0,0:0|0:0,0:0:0
336,252,70769,1,2,0:0:0
400,292,70940,6,0,B|480:284|492:200,1,140,4|0,0:0|0:0,0:0:0
480,128,71454,1,0,0:0:0
480,128,71797,1,0,0:0:0
352,36,71969,1,0,0:0:0
352,36,72311,6,0,B|200:44,1,140
136,28,72826,1,0,0:0:0
136,28,73169,1,0,0:0:0
60,160,73340,1,0,0:0:0
120,208,73511,1,0,0:0:0
120,208,73597,1,0,0:0:0
120,208,73683,6,0,B|136:284|100:344,1,140,4|0,0:0|0:0,0:0:0
100,344,74197,1,0,0:0:0
376,348,74540,1,0,0:0:0
376,348,74711,1,0,0:0:0
376,348,75054,2,0,B|360:264|432:228,1,140
456,312,75569,1,0,0:0:0
476,152,75740,2,0,B|332:116,1,140
284,48,76254,1,0,0:0:0
284,48,76340,1,0,0:0:0
284,48,76426,6,0,B|236:112|284:184,1,140,4|0,0:0|0:0,0:0:0
328,240,76940,1,0,0:0:0
248,264,77111,2,0,B|96:272,1,140
40,200,77626,1,0,0:0:0
40,200,77711,1,0,0:0:0
40,200,77797,6,0,B|179:192,1,140,4|0,0:0|0:0,0:0:0
236,136,78311,1,0,0:0:0
196,68,78483,2,0,B|248:40|300:64|316:104,1,140
236,136,78997,1,0,0:0:0
280,200,79169,6,0,B|304:244,7,35,4|0|0|0|0|0|0|0,0:0|0:0|0:0|0:0|0:0|0:0|0:0|0:0,0:0:0
204,204,79854,2,0,B|184:216,16,17.5,0|0|0|0|0|0|0|0|0|0|0|0|0|0|0|0|4,0:0|0:0|0:0|0:0|0:0|0:0|0:0|0:0|0:0|0:0|0:0|0:0|0:0|0:0|0:0|0:0|0:0,0:0:0
256,192,80626,12,0,81569,0:0:0
196,96,81911,6,0,B|204:136|200:172,1,70,6|0,0:0|0:0,0:0:0
112,216,82254,2,0,B|104:176|108:140,1,70,2|0,0:0|0:0,0:0:0
180,272,82597,1,0,0:0:0
180,272,82769,2,0,B|112:316|44:276,1,140,2|0,0:0|0:0,0:0:0
240,340,83283,2,0,B|280:320|320:328,1,70,6|0,0:0|0:0,0:0:0
336,240,83626,2,0,B|372:264|384:300,1,70,2|2,0:0|0:0,0:0:0
440,208,83969,1,0,0:0:0
440,208,84140,2,0,B|480:272|460:344,1,140,2|0,0:0|0:0,0:0:0
336,240,84654,6,0,B|328:200|336:168,1,70,6|0,0:0|0:0,0:0:0
440,208,84997,2,0,B|444:168|440:136,1,70,2|0,0:0|0:0,0:0:0
392,80,85340,2,0,B|316:88,1,70,2|0,0:0|0:0,0:0:0
144,8,85683,2,0,B|284:16,1,140,0|0,0:0|0:0,0:0:0
192,96,86197,1,2,0:0:0
192,96,86369,2,0,B|120:92,1,70,0|2,0:0|0:0,0:0:0
148,180,86711,2,0,B|4:176,1,140
164,200,87226,1,2,0:0:0
164,200,87397,6,0,B|160:276,1,70,6|0,0:0|0:0,0:0:0
252,348,87740,2,0,B|255:278,1,70,2|0,0:0|0:0,0:0:0
192,96,88083,1,2,0:0:0
248,176,88254,2,0,B|300:164|344:188|356:244,1,140,2|0,0:0|0:0,0:0:0
412,296,88769,2,0,B|484:292,1,70,6|0,0:0|0:0,0:0:0
321,345,89111,2,0,B|251:348,1,70,2|0,0:0|0:0,0:0:0
148,360,89454,1,2,0:0:0
148,360,89626,2,0,B|116:288|152:224,1,140,0|0,0:0|0:0,0:0:0
104,164,90140,6,0,B|28:156,1,70,2|0,0:0|0:0,0:0:0
80,72,90483,2,0,B|149:79,1,70,2|0,0:0|0:0,0:0:0
240,132,90826,2,0,B|248:64,1,70,2|2,0:0|0:0,0:0:0
368,20,91169,1,0,0:0:0
368,20,91340,6,2,B|312:56|332:124|332:124|376:204|308:260,1,262.500010013581,0|0,0:0|0:0,0:0:0
272,184,92369,5,2,0:0:0
314,254,92540,1,2,0:0:0
280,324,92711,1,0,0:0:0
204,348,92883,2,0,B|132:352,1,70,6|0,0:0|0:0,0:0:0
52,236,93226,2,0,B|121:232,1,70,2|2,0:0|0:0,0:0:0
196,204,93569,1,0,0:0:0
272,184,93740,2,0,B|300:116|272:44,1,140,2|0,0:0|0:0,0:0:0
196,44,94254,6,0,B|108:44,1,70,6|0,0:0|0:0,0:0:0
320,112,94597,2,0,B|390:112,1,70,2|0,0:0|0:0,0:0:0
440,56,94940,1,2,0:0:0
440,56,95111,2,0,B|408:120|436:192,1,140,2|0,0:0|0:0,0:0:0
480,256,95626,2,0,B|440:236|400:252,1,70,2|0,0:0|0:0,0:0:0
436,320,95969,1,2,0:0:0
360,300,96140,6,0,B|216:308,1,140,2|0,0:0|0:0,0:0:0
104,232,96654,1,0,0:0:0
104,232,96826,2,0,B|243:224,1,140,2|0,0:0|0:0,0:0:0
316,192,97340,2,0,B|324:124,1,70,2|0,0:0|0:0,0:0:0
232,40,97683,2,0,B|240:109,1,70,2|0,0:0|0:0,0:0:0
140,168,98026,2,0,B|148:100,1,70,2|2,0:0|0:0,0:0:0
56,16,98369,6,0,B|64:85,1,70,6|0,0:0|0:0,0:0:0
140,168,98711,2,0,B|131:237,1,70,2|2,0:0|0:0,0:0:0
68,280,99054,1,0,0:0:0
68,280,99226,2,0,B|144:256|200:312,1,140,2|0,0:0|0:0,0:0:0
268,336,99740,6,0,B|308:348|336:340,1,70,6|0,0:0|0:0,0:0:0
392,264,100083,2,2,B|352:252|324:260,1,70
444,348,100426,1,0,0:0:0
444,348,100597,2,0,B|492:292|468:212,1,140,2|0,0:0|0:0,0:0:0
436,148,101111,6,0,B|440:76,2,70,4|4|0,0:0|0:0|0:0,0:0:0
280,144,101626,1,0,0:0:0
280,144,101797,2,0,B|276:213,2,70,4|4|4,0:0|0:0|0:0,0:0:0
252,72,102311,1,0,0:0:0
172,56,102483,6,0,B|136:28,7,35
128,128,103169,2,0,B|104:124,13,17.5
196,192,103854,6,0,B|216:248|196:300,1,105,4|0,0:0|0:0,0:0:0
200,300,104197,2,0,B|124:304,1,70,0|2,0:0|0:0,0:0:0
236,376,104540,2,0,B|305:372,1,70,0|2,0:0|0:0,0:0:0
384,368,104883,2,0,B|408:320|384:264,1,105,0|0,0:0|0:0,0:0:0
384,256,105226,6,0,B|408:180,1,70,0|2,0:0|0:0,0:0:0
312,196,105569,2,0,B|336:120,1,70,0|2,0:0|0:0,0:0:0
420,48,105911,2,0,B|344:48,1,70,0|2,0:0|0:0,0:0:0
350,48,106254,2,0,B|268:32,1,70,0|2,0:0|0:0,0:0:0
281,34,106597,6,0,B|208:76|136:32,1,140,4|0,0:0|0:0,0:0:0
72,20,107111,1,2,0:0:0
147,38,107283,2,0,B|152:80|144:120,1,70,0|2,0:0|0:0,0:0:0
64,176,107626,2,0,B|59:134|67:94,1,70,0|2,0:0|0:0,0:0:0
132,232,107969,2,0,B|64:276|0:232,1,140
208,176,108483,1,2,0:0:0
208,176,108654,2,0,B|224:232|208:280,1,105
204,292,108997,2,0,B|272:308,1,70
400,256,109340,6,0,B|332:240,1,70,4|2,0:0|0:0,0:0:0
316,140,109683,2,0,B|384:156,1,70,0|2,0:0|0:0,0:0:0
328,52,110026,2,0,B|268:52|240:104,1,105
228,104,110369,2,0,B|160:112,1,70,0|2,0:0|0:0,0:0:0
160,112,110711,2,0,B|85:97,1,70,0|2,0:0|0:0,0:0:0
91,98,111054,2,0,B|20:112,1,70,0|2,0:0|0:0,0:0:0
88,180,111397,2,0,B|64:256|104:316,1,140
12,336,111911,1,2,0:0:0
188,332,112083,6,0,B|260:336,1,70,4|2,0:0|0:0,0:0:0
324,256,112426,2,0,B|254:252,1,70,0|2,0:0|0:0,0:0:0
352,240,112769,2,0,B|364:160,1,70,0|2,0:0|0:0,0:0:0
448,200,113111,2,0,B|460:120,1,70,0|2,0:0|0:0,0:0:0
452,52,113454,2,0,B|344:36,1,105
348,36,113797,2,0,B|272:44,1,70,0|2,0:0|0:0,0:0:0
320,120,114140,6,0,B|243:127,1,70,0|0,0:0|0:0,0:0:0
280,208,114483,2,0,B|203:215,1,70,4|0,0:0|0:0,0:0:0
88,288,114826,6,0,B|200:300,1,105,4|0,0:0|0:0,0:0:0
200,308,115169,2,0,B|288:300,1,70,0|2,0:0|0:0,0:0:0
368,344,115511,2,0,B|376:268,1,70,0|2,0:0|0:0,0:0:0
464,328,115854,2,0,B|476:188,1,140
492,112,116369,1,2,0:0:0
416,132,116540,2,0,B|344:136,1,70,0|2,0:0|0:0,0:0:0
248,60,116883,2,0,B|387:53,1,140
272,136,117397,1,2,0:0:0
272,136,117569,6,0,B|276:176|268:208,1,70,4|2,0:0|0:0,0:0:0
184,236,117911,2,0,B|180:196|192:168,1,70,0|2,0:0|0:0,0:0:0
160,248,118254,2,0,B|80:256,1,70,0|2,0:0|0:0,0:0:0
48,344,118597,2,0,B|117:337,1,70,0|2,0:0|0:0,0:0:0
196,344,118940,2,0,B|276:368|348:332,1,140
404,304,119454,1,2,0:0:0
404,304,119626,2,0,B|448:308|480:300,1,70,0|2,0:0|0:0,0:0:0
504,216,119969,2,0,B|460:212|428:220,1,70
360,196,120311,6,0,B|372:56,1,140,4|0,0:0|0:0,0:0:0
260,280,120997,2,0,B|180:284,1,70
208,204,121340,2,0,B|277:200,1,70
128,224,121683,2,0,B|100:152|132:88,2,140,4|0|0,0:0|0:0|0:0,0:0:0
184,276,122540,1,0,0:0:0
120,316,122711,1,0,0:0:0
120,316,122883,1,0,0:0:0
120,316,123054,6,0,B|72:304,7,35
216,352,123740,2,0,P|244:348,15,17.5,0|0|0|0|0|0|0|0|0|0|0|0|0|0|0|4,0:0|0:0|0:0|0:0|0:0|0:0|0:0|0:0|0:0|0:0|0:0|0:0|0:0|0:0|0:0|0:0,0:0:0
256,192,124511,12,4,125797,0:0:0
