osu file format v9

[General]
AudioFilename: yakusoku.mp3
AudioLeadIn: 2000
PreviewTime: 62225
Countdown: 1
SampleSet: Soft
StackLeniency: 0.7
Mode: 0
LetterboxInBreaks: 1

[Editor]
Bookmarks: 6939,14225,53011,61796
DistanceSpacing: 0.8
BeatDivisor: 4
GridSize: 8

[Metadata]
Title:Yakusoku (TV Size)
Artist:MUCC
Creator:blissfulyoshi
Version:Normal
Source:Senko no Night Raid
Tags:

[Difficulty]
HPDrainRate:5
CircleSize:4
OverallDifficulty:5
ApproachRate:6
SliderMultiplier:1.8
SliderTickRate:2

[Events]
//Background and Video events
0,0,"night.jpg"
Video,-2600,"yakusoku.avi"
//Break Periods
2,17437,20044
//Storyboard Layer 0 (Background)
//Storyboard Layer 1 (Fail)
//Storyboard Layer 2 (Pass)
//Storyboard Layer 3 (Foreground)
//Storyboard Sound Samples
//Background Colour Transformations
3,100,163,162,255

[TimingPoints]
523,428.571428571429,4,2,0,40,1,0
3094,-100,4,2,0,20,0,0
3737,-100,4,2,0,40,0,0
5023,-100,4,2,0,50,0,0
9951,-100,4,2,0,30,0,0
10594,-100,4,1,0,30,0,0
11023,-100,4,1,0,40,0,0
11451,-100,4,1,0,50,0,0
11880,-100,4,1,0,60,0,0
12308,-100,4,2,0,60,0,0
17237,-100,4,2,0,10,0,0
17451,-100,4,2,1,40,0,0
30951,-100,4,2,1,60,0,0
36201,-100,4,2,1,40,0,0
36415,-100,4,2,1,60,0,0
40380,-100,4,2,1,40,0,0
40808,-100,4,2,1,60,0,0
48201,-100,4,2,1,40,0,0
48415,-100,4,2,1,60,0,0
49915,-100,4,2,1,40,0,0
50130,-100,4,2,1,60,0,0
51630,-100,4,2,1,40,0,0
51844,-100,4,2,1,60,0,0
53451,-100,4,2,1,70,0,0
58594,-100,4,2,1,80,0,0
60523,-100,4,2,1,20,0,0
61165,-100,4,2,1,80,0,0
62237,-83.3333333333333,4,2,0,100,0,1
85915,-83.3333333333333,4,2,0,50,0,1
88808,-83.3333333333333,4,2,0,10,0,0

[Colours]
Combo1 : 250,140,31
Combo2 : 0,255,0
Combo3 : 208,111,251

[HitObjects]
32,136,523,2,0,B|80:80|160:80|200:160,1,180,2|0
240,184,1165,1,0
296,136,1380,2,0,B|344:80|416:80|480:168,1,180,2|0
504,184,2023,1,0
448,232,2237,2,0,B|400:288|328:288|264:200,1,180,2|0
240,184,2880,2,0,B|152:184,2,45,0|0|4
472,48,3951,5,2
464,192,4380,1,2
400,320,4808,1,2
256,344,5237,1,2
184,336,5451,1,2
112,320,5665,1,2
48,192,6094,1,2
40,48,6523,1,4
320,56,7380,6,0,B|320:128|320:128|360:160|360:216|296:240,1,180,2|0
256,248,8023,1,0
304,304,8237,2,0,B|304:376|256:384|205:377|208:296,1,180,2|0
256,248,8880,1,0
184,224,9094,2,0,B|152:208|152:144|186:126|186:126|186:54,1,180,2|0
256,88,9737,2,0,B|256:16,2,45,0|0|4
256,328,10808,5,8
336,208,11237,1,8
256,88,11665,1,8
176,208,12094,1,8
256,192,12523,12,0,17237
24,200,21094,5,4
160,160,21523,1,0
256,56,21951,1,2
352,160,22380,1,0
488,200,22808,1,2
304,304,24308,5,0
232,304,24523,2,0,B|120:304|120:304|64:248,1,180,2|0
40,192,25165,1,0
71,128,25380,2,0,B|119:79|119:79|231:79,1,180,2|0
304,80,26023,1,0
368,40,26237,2,2,B|456:96|480:200|440:336|328:360,1,360
208,264,27951,5,2
256,128,28380,1,0
304,264,28808,1,2
184,184,29237,1,0
328,184,29665,1,2
88,216,31165,5,0
40,272,31380,2,0,B|104:325|168:264|176:224|151:177,1,180,2|0
144,136,32023,1,0
70,136,32237,2,0,B|73:52|168:40|200:72|214:117,1,180,2|0
248,144,32880,1,0
280,80,33094,2,2,B|321:99|352:168|292:229|231:214|231:214|224:328|328:328,1,360,2|4
424,32,35237,6,0,B|384:80|424:152,1,90,2|0
472,152,35665,2,0,B|504:224|400:288,1,90,2|0
408,288,36094,1,2
344,328,36308,2,0,B|272:320|240:248|280:192,1,180,4|0
328,144,36951,5,2
200,72,37380,1,2
200,216,37808,1,2
72,144,38237,2,2,B|40:208|80:288|176:288,3,180
208,296,39737,2,0,B|296:312|400:256|400:128,1,270,2|8
40,32,41023,5,2
136,136,41451,2,0,B|200:208,1,90,2|4
472,40,42951,6,0,B|424:144,1,90,2|0
480,184,43380,2,0,B|368:256,1,90,2|0
408,304,43808,1,0
344,344,44023,2,0,B|232:312,1,90,2|0
192,352,44451,2,0,B|128:240,1,90,2|0
256,192,44880,12,4,46594
96,40,47880,5,2
96,112,48094,1,2
96,184,48308,2,0,B|96:304,3,90,4|0|0|0
416,40,49594,5,2
416,112,49808,1,2
416,184,50022,2,0,B|416:304,3,90,4|0|0|0
256,368,51308,5,2
256,296,51523,1,2
256,224,51737,2,0,B|136:216|136:112|136:8|256:8|376:8|376:112|376:216|264:224,1,540,4|0
72,96,53665,5,2
256,368,54308,1,2
440,96,54951,1,2
256,192,55380,12,0,57523
184,192,57951,5,0
328,192,58380,1,0
256,192,58808,12,4,60523
8,64,61380,5,2
16,208,61808,1,2
152,312,62237,2,0,B|264:368|392:296,1,216.000005149841,4|0
360,224,62879,1,0
360,136,63094,2,0,B|248:192|120:120,1,216.000005149841,8|0
152,224,63737,1,0
80,176,63951,2,0,B|48:96|120:24|208:72,1,216.000005149841,8|0
288,80,64594,2,0,B|320:72|336:16,2,54.0000012874604,0|0|4
16,296,65665,6,0,B|72:344|144:304,1,108.000002574921,8|0
200,296,66094,2,0,B|264:280|272:216,1,108.000002574921,8|0
184,208,66523,2,0,B|200:144|272:136,1,108.000002574921,8|0
344,120,66951,21,2
432,136,67165,1,2
504,184,67380,2,0,B|456:248|376:208,1,108.000002574921,8|0
432,136,67808,2,0,B|448:72|368:32,1,108.000002574921,8|0
304,32,68237,1,4
136,344,69094,6,0,B|58:243|58:243|56:144,1,216.000005149841,8|0
144,176,69737,1,0
200,112,69951,2,0,B|277:212|277:212|280:312,1,216.000005149841,8|0
360,264,70594,1,0
360,352,70808,2,0,B|456:344|464:256|456:184|344:160,1,216.000005149841,8|0
352,136,71451,2,0,B|312:96|312:96|384:32,1,108.000002574921,0|4
128,256,72522,5,8
256,32,72951,1,8
384,256,73379,1,8
128,256,73808,1,8
256,32,74237,2,2,B|256:248,3,216.000005149841,8|0|0|0
48,88,75951,6,0,B|40:208|176:248,1,216.000005149841,4|0
256,248,76593,1,0
344,245,76808,2,0,B|472:208|464:80,1,216.000005149841,8|0
376,80,77451,1,0
320,144,77665,2,0,B|256:184|176:168|144:112|144:48,1,216.000005149841,8|0
216,32,78308,2,0,B|256:65|256:65|328:8,1,108.000002574921,0|4
136,336,79379,5,8
256,208,79808,1,8
368,336,80236,1,8
368,160,80665,5,2
304,104,80879,1,2
368,48,81093,1,8
144,160,81523,5,2
208,104,81737,1,2
144,48,81951,1,8
480,192,83237,6,2,B|312:344,1,216.000005149841
280,264,83880,1,2
328,96,84308,2,0,B|208:40,1,108.000002574921,8|0
144,40,84737,2,0,B|32:104,1,108.000002574921,8|0
128,136,85165,2,0,B|32:264,1,108.000002574921,8|0
152,232,85594,2,0,B|120:384,1,108.000002574921,8|0
216,320,86023,1,4
256,192,86237,12,0,88808
