osu file format v9

[General]
AudioFilename: yakusoku.mp3
AudioLeadIn: 2000
PreviewTime: 62225
Countdown: 1
SampleSet: Soft
StackLeniency: 0.4
Mode: 0
LetterboxInBreaks: 1

[Editor]
Bookmarks: 6939,14225,21082
DistanceSpacing: 0.8
BeatDivisor: 4
GridSize: 8

[Metadata]
Title:Yakusoku (TV Size)
Artist:MUCC
Creator:blissfulyoshi
Version:Hard
Source:Senko no Night Raid
Tags:

[Difficulty]
HPDrainRate:5
CircleSize:4
OverallDifficulty:7
ApproachRate:8
SliderMultiplier:2.5
SliderTickRate:2

[Events]
//Background and Video events
0,0,"night.jpg"
Video,-2600,"yakusoku.avi"
//Break Periods
2,14437,20344
//Storyboard Layer 0 (Background)
//Storyboard Layer 1 (Fail)
//Storyboard Layer 2 (Pass)
//Storyboard Layer 3 (Foreground)
//Storyboard Sound Samples
//Background Colour Transformations
3,100,163,162,255

[TimingPoints]
523,428.571428571429,4,2,0,50,1,0
5665,-100,4,2,0,80,0,0
10380,-100,4,2,0,100,0,0
12737,-100,4,1,0,60,0,0
20880,-100,4,2,1,50,0,0
22701,-100,4,2,1,20,0,0
24415,-100,4,2,1,50,0,0
26130,-100,4,2,1,20,0,0
27844,-100,4,2,1,50,0,0
29558,-100,4,2,1,20,0,0
31273,-100,4,2,1,50,0,0
38665,-100,4,2,1,20,0,0
38773,-100,4,2,1,50,0,0
39523,-100,4,2,1,20,0,0
39630,-100,4,2,1,30,0,0
40273,-100,4,2,1,30,0,0
42737,-100,4,2,1,50,0,0
46808,-100,4,2,1,30,0,0
47773,-100,4,2,1,50,0,0
51951,-100,4,2,1,20,0,0
53451,-100,4,2,1,50,0,0
58594,-100,4,2,1,50,0,0
62237,-83.3333333333333,4,2,0,100,0,1
74558,-83.3333333333333,4,2,0,50,0,1
75951,-83.3333333333333,4,2,0,100,0,1
81308,-83.3333333333333,4,1,0,70,0,1
82808,-83.3333333333333,4,2,0,100,0,1
85915,-83.3333333333333,4,2,0,50,0,1
86237,-83.3333333333333,4,2,0,30,0,1
88808,-83.3333333333333,4,2,0,10,0,0

[Colours]
Combo1 : 250,140,31
Combo2 : 0,255,0
Combo3 : 208,111,251

[HitObjects]
32,24,523,6,0,B|168:40|224:176,1,250,2|0
72,304,1380,2,0,B|176:368|336:296,1,250,2|0
392,120,2237,6,0,B|456:240|392:368,1,250,2|0
280,200,3094,2,0,B|136:168|112:32,1,250,2|0
464,192,3951,5,2
256,320,4380,1,0
48,192,4808,1,2
256,64,5237,1,0
464,192,5665,6,0,B|440:264|376:272,1,125,2|0
280,240,6094,2,0,B|296:168|376:168,1,125,2|0
464,192,6523,2,0,B|488:88|416:16|312:32,1,250,4|0
128,56,7380,5,2
64,136,7594,1,0
160,144,7808,2,2,B|72:256,1,125,0|0
184,248,8237,2,2,B|96:360,1,125,0|0
208,352,8665,2,2,B|296:240,1,125,0|0
384,224,9094,2,2,B|256:136,1,125,0|0
224,72,9523,2,2,B|368:72,1,125,0|0
440,40,9951,2,2,B|464:176,1,125,4|0
152,344,10808,6,0,B|224:192,1,125,2|0
240,24,11237,2,0,B|320:168,1,125,2|0
392,328,11665,2,0,B|248:256,1,125,2|0
96,152,12094,2,0,B|232:152,1,125,2|0
448,136,12523,2,0,B|296:240,1,125,2|8
205,232,12951,5,8
104,304,13165,1,8
0,232,13380,1,8
0,104,13594,1,8
104,176,13808,1,8
168,160,13915,1,0
224,128,14023,1,0
264,80,14130,1,0
288,24,14237,1,4
208,32,21094,6,0,B|128:32|96:136,1,125,4|0
32,160,21523,2,0,B|72:232|200:176,1,125,2|0
224,136,21951,2,0,B|272:216|200:296,1,125,2|0
136,288,22380,2,0,B|160:360|296:352,1,125,2|0
336,352,22808,5,8
336,152,23237,1,8
464,304,23665,1,8
464,104,24094,1,8
272,32,24523,6,0,B|128:56|112:224,1,250,2|0
136,296,25165,1,0
208,368,25380,2,0,B|296:248|240:104,1,250,2|0
344,160,26023,1,0
328,256,26237,5,8
136,296,26665,1,8
176,96,27094,1,8
136,296,27523,1,8
40,120,27951,6,0,B|64:264,1,125
128,168,28380,2,0,B|192:176|256:168,1,125
328,104,28808,2,0,B|352:248,1,125
256,256,29237,2,0,B|283:314|323:364,1,125
400,296,29665,5,8
160,224,30094,1,8
400,152,30523,1,8
160,80,30952,1,8
16,240,31380,6,0,B|152:216|80:368|240:336,1,250,2|0
312,296,32023,1,0
232,240,32237,2,0,B|368:152|384:320|504:200,1,250,2|0
472,128,32880,1,0
408,56,33094,5,2
312,32,33308,1,0
216,40,33523,1,4
128,80,33737,1,0
64,160,33951,1,2
72,256,34165,1,0
128,336,34380,2,0,B|152:360|184:368,4,62.5,2|0|2|0|4
360,152,35237,6,0,B|440:136|424:32,1,125,2|0
328,56,35665,1,2
152,152,36094,2,0,B|72:136|88:32,2,125,0|2|0
256,320,36951,6,0,B|408:320,1,125,2|0
312,248,37380,2,0,B|384:240|424:176,1,125,2|0
320,160,37808,2,0,B|376:112|360:32,1,125,2|0
272,96,38237,2,0,B|209:32|93:32|23:119,3,250,2|8|2|8
45,195,39737,2,0,B|108:259|224:259|294:172,1,250
352,136,40380,5,8
336,232,40594,1,8
272,304,40808,2,0,B|240:360|240:360|216:304|216:304|184:360|184:360|160:304|160:304|128:360|128:360|104:304|104:304|72:360|72:360|32:272,1,500,8|4
272,96,42094,5,8
272,304,42523,1,8
200,96,42951,6,0,B|200:56|225:18|282:17|312:32,1,125,2|0
384,24,43380,2,0,B|424:64|424:112|344:176,1,125,2|0
312,200,43808,1,2
232,264,44023,2,0,B|192:304|191:349|272:416,1,125,0|2
312,320,44451,2,0,B|368:328|400:296|400:240,1,125,0|2
312,200,44880,5,0
240,128,45094,1,2
168,200,45308,1,0
96,128,45523,1,2
24,200,45737,1,0
96,272,45951,5,2
112,320,46058,1,0
144,352,46165,1,2
192,368,46273,1,0
239,352,46380,1,2
272,320,46487,1,0
288,272,46595,1,4
192,96,47023,5,0
288,64,47237,1,8
384,96,47451,1,0
288,136,47665,1,8
192,96,47880,5,2
176,192,48094,1,0
128,280,48308,2,0,B|96:352|16:352,1,125,2|4
320,96,49594,5,2
336,192,49808,1,0
384,280,50022,2,0,B|416:352|496:352,1,125,2|4
256,32,51308,5,2
256,128,51522,1,0
256,224,51737,2,0,B|256:368,1,125,2|8
464,192,52380,1,8
256,32,52808,1,8
48,192,53237,1,8
256,352,53665,6,0,B|320:232|424:336|432:184,1,250,2|0
328,216,54308,2,0,B|229:212|203:336|200:272|224:168|80:176,1,250
256,152,54951,2,0,B|320:120|360:136|400:160,1,125
256,192,55380,12,0,57523
24,32,57951,5,2
88,224,58380,1,2
152,32,58808,2,0,B|224:200,1,125,8|2
248,32,59237,1,8
296,144,59451,1,2
344,32,59665,1,8
392,160,59879,1,2
440,32,60094,1,8
488,176,60308,1,2
408,272,60523,6,2,B|248:368|248:368|56:256,1,375,8|2
208,216,61380,6,0,B|208:48,1,125,2|0
280,24,61808,2,0,B|280:192,1,125,2|0
400,160,62237,2,0,B|392:232|416:344|472:344|488:272|384:248|288:240,1,300.000007152558,4|0
208,216,62880,1,0
168,329,63094,2,0,B|92:307|56:217|81:110|201:94,1,300.000007152558,8|0
208,216,63737,1,0
248,328,63951,2,0,B|324:306|360:216|335:109|215:93,1,300.000007152558,8|0
208,216,64594,2,0,B|160:240|248:240|200:280,2,75.0000017881394,0|0|4
400,40,65665,6,0,B|400:200,1,150.000003576279,8|0
312,272,66094,2,0,B|299:338|176:341|202:203,1,150.000003576279,8|0
112,192,66523,2,0,B|112:42,1,150.000003576279,8|0
232,48,66951,1,0
272,160,67165,1,0
376,104,67380,22,0,B|410:38|410:38|456:120,1,150.000003576279,8|0
330,303,67808,2,0,B|162:303,1,150.000003576279,8|0
64,104,68237,2,0,B|98:38|98:38|144:120,1,150.000003576279,8|0
392,352,69094,6,0,B|472:56,1,300.000007152558,8|0
360,120,69737,1,0
256,56,69951,2,0,B|256:216,2,150.000003576279,8|0|0
152,120,70594,1,0
41,62,70808,2,0,B|120:352,1,300.000007152558,8|0
218,283,71451,2,0,B|329:283,2,75.0000017881394,0|0|4
328,224,72523,6,0,B|464:130,1,150.000003576279,8|0
216,168,72952,2,0,B|51:168,1,150.000003576279,8|0
264,290,73381,2,0,B|408:370,1,150.000003576279,8|0
296,144,73809,2,0,B|212:11,1,150.000003576279,8|0
189,249,74238,2,0,B|120:386,1,150.000003576279,8|0
40,240,74665,5,4
96,80,74880,1,0
256,56,75094,1,2
256,56,75201,1,0
256,56,75308,1,2
256,56,75415,1,0
256,56,75523,1,2
256,56,75630,1,0
256,56,75737,1,2
256,56,75844,1,0
256,56,75951,6,0,B|392:64|400:128|392:200|216:192,1,300.000007152558,4|0
88,192,76594,1,0
258,193,76808,2,0,B|394:201|402:265|394:337|218:329,1,300.000007152558,8|0
160,192,77451,1,0
72,56,77665,2,0,B|0:112|-8:288|112:360,1,300.000007152558,8|0
160,192,78308,2,0,B|256:192,2,75.0000017881394,0|0|4
312,32,79380,6,0,B|432:216,1,150.000003576279,8|0
328,312,79808,2,0,B|232:160,1,150.000003576279,8|0
80,168,80237,2,0,B|200:352,1,150.000003576279,8|0
152,128,80665,1,2
256,256,80880,1,2
360,128,81094,1,2
80,40,81523,5,8
256,256,81737,1,8
432,40,81951,1,8
16,160,83237,6,0,B|72:233|31:341|6:329|11:294|124:294|176:368,1,300.000007152558,2|2
120,240,83880,1,4
336,336,84308,2,0,B|328:256|432:288|424:200,1,150.000003576279,2|0
440,104,84737,2,0,B|392:104|368:48|384:40|384:56|337:99|256:40,1,150.000003576279,2|0
352,176,85165,2,0,B|304:248|184:248,1,150.000003576279,2|0
215,128,85594,2,0,B|271:184|375:176,1,150.000003576279,2|0
472,184,86023,1,4
256,192,86237,12,0,88808
