osu file format v7

[General]
AudioFilename: MTNightCoreWelcomeToTheClub.mp3
AudioLeadIn: 0
PreviewTime: 23685
Countdown: 0
SampleSet: Soft
StackLeniency: 0.7
Mode: 0
LetterboxInBreaks: 1

[Editor]
Bookmarks: 79636,124956,127604,130252,134265,155406,165998,200458
DistanceSpacing: 1
BeatDivisor: 2
GridSize: 8

[Metadata]
Title:Welcome To The Club
Artist:MT Nightcore
Creator:Shinxyn
Version:Normal
Source:
Tags:01MemeTranc0909 manian simplistiC

[Difficulty]
HPDrainRate:4
CircleSize:3
OverallDifficulty:4
SliderMultiplier:0.6
SliderTickRate:1

[Events]
//Background and Video events
0,0,"image.jpg"
//Break Periods
2,45728,54801
2,101342,107767
2,122528,130277
//Storyboard Layer 0 (Background)
//Storyboard Layer 1 (Fail)
//Storyboard Layer 2 (Pass)
//Storyboard Layer 3 (Foreground)
//Storyboard Sound Samples
//Background Colour Transformations
3,100,163,162,255

[TimingPoints]
3156,331.035351024799,4,2,0,100,1,0
26831,-100,4,2,0,90,0,0
28156,-100,4,2,0,80,0,0
29480,-100,4,2,0,70,0,0
30805,-100,4,2,0,60,0,0
32129,-100,4,2,0,50,0,0
33454,-100,4,2,0,40,0,0
34778,-100,4,2,0,50,0,0
35440,-100,4,2,0,60,0,0
36765,-100,4,2,0,70,0,0
38089,-100,4,2,0,80,0,0
69032,-100,4,2,0,100,0,0
72507,-100,4,2,0,90,0,0
75156,-100,4,2,0,80,0,0
79956,-100,4,2,0,100,0,1
90386,-100,4,2,0,90,0,0
92372,-100,4,2,0,75,0,0
93696,-100,4,2,0,60,0,0
95103,-100,4,2,0,50,0,0
97669,-100,4,2,0,40,0,0
98993,-100,4,2,0,30,0,0
100648,-100,4,2,0,50,0,0
100979,-100,4,2,0,20,0,0
108756,-100,4,2,0,70,0,0
110080,-100,4,2,0,60,0,0
110907,-100,4,2,0,50,0,0
111569,-100,4,2,0,100,0,0
112231,-100,4,2,0,80,0,0
113224,-100,4,2,0,70,0,0
114549,-100,4,2,0,60,0,0
116204,-100,4,2,0,50,0,0
118190,-100,4,2,0,40,0,0
120176,-100,4,2,0,30,0,0
121831,-100,4,2,0,80,0,0
131266,-100,4,2,0,50,0,0
131762,-100,4,2,0,70,0,0
132093,-100,4,2,0,60,0,0
132424,-100,4,2,0,90,0,0
132921,-100,4,2,0,90,0,0
133335,-100,4,2,0,70,0,0
133666,-100,4,2,0,50,0,0
134245,-100,4,2,0,90,0,0
134411,-100,4,2,0,70,0,0
143431,-100,4,2,0,60,0,0
144756,-100,4,2,0,80,0,0
154397,-100,4,2,0,70,0,0
155390,-100,4,2,0,40,0,0
156259,-100,4,2,0,30,0,0
156921,-100,4,2,0,20,0,0
157583,-100,4,2,0,10,0,0
158576,-100,4,2,0,30,0,0
159983,-100,4,2,0,40,0,0
161969,-100,4,2,0,50,0,0
163293,-100,4,2,0,60,0,0
164618,-100,4,2,0,70,0,0
165859,-100,4,2,0,90,0,0
176769,-100,4,2,0,75,0,0
177100,-100,4,2,0,60,0,0
177431,-100,4,2,0,45,0,0
177762,-100,4,2,0,30,0,0
179251,-100,4,2,0,100,0,1

[Colours]
Combo1 : 253,159,159
Combo2 : 199,157,204
Combo3 : 170,170,253

[HitObjects]
440,128,13749,1,0
440,248,14411,1,0
336,192,15073,2,0,B|192:192,1,120
96,192,16397,1,0
64,304,17059,5,0
176,288,17721,2,0,B|248:264|248:184,1,120
176,104,19045,1,0
280,40,19707,5,0
392,104,20369,2,0,B|464:112|480:208,1,120
360,216,21693,2,0,B|232:216,2,120
296,320,23680,6,0,B|160:320,1,120,0|4
120,320,24673,1,4
64,152,25666,1,4
120,120,25997,1,4
296,80,26990,1,4
480,232,28314,1,4
408,328,28976,6,0,B|354:348|272:336,1,120,0|4
232,328,29969,1,4
72,240,30962,1,4
40,184,31294,1,4
216,144,32287,1,4
448,200,33611,2,0,B|416:272|344:272,1,120,4|0
296,272,34604,5,0
248,240,34935,2,0,B|168:240,1,60,0|2
152,288,35597,2,0,B|64:288,1,60,0|2
32,272,36259,1,0
104,176,36921,6,0,B|128:112|208:104,1,120,2|0
224,224,38245,2,0,B|296:208|320:136,1,120,2|0
344,96,39238,6,0,B|344:16,2,60
376,152,40231,6,0,B|400:208|472:224,1,120,0|2
376,304,41556,1,0
256,304,42218,6,0,B|240:232|144:232,1,120,2|0
48,232,43542,1,2
104,336,44204,1,0
104,336,44535,6,0,B|248:336,1,120,2|2
280,336,45528,1,4
256,64,56121,5,2
368,112,56783,1,2
368,232,57445,2,0,B|360:304|280:336,1,120,2|2
256,288,58438,1,2
210,325,58769,2,0,B|152:304|144:232,1,120,2|2
136,176,59763,1,2
128,120,60094,1,2
184,136,60425,6,0,B|256:120,2,60,2|2|0
128,120,61418,5,4
24,176,62080,1,0
72,288,62742,2,0,B|136:264|208:296,1,120,4|2
248,304,63735,1,0
304,288,64066,2,0,B|368:264|448:304,1,120,4|0
368,184,65390,5,2
312,184,65721,1,0
256,184,66052,2,0,B|128:184,1,120,4|4
112,64,67376,1,0
232,64,68038,2,0,B|376:64,1,120
472,64,69363,5,2
400,160,70025,1,0
328,256,70687,1,2
256,352,71349,2,0,B|176:232,1,120,0|2
128,152,72673,2,0,B|240:64,1,120,0|2
272,40,73666,1,2
312,88,73997,1,2
264,128,74328,1,2
288,184,74659,6,0,B|176:280,1,120,4|0
288,344,75983,1,2
376,264,76645,2,0,B|280:176,1,120,0|2
168,176,77969,5,0
136,288,78632,1,2
80,272,78963,1,2
40,232,79294,1,2
32,176,79625,2,0,B|-16:176,2,30,4|0|4
48,120,80287,5,2
104,96,80618,2,0,B|176:80|248:88,1,120,0|2
280,96,81611,1,2
336,128,81942,2,0,B|408:160|416:232,1,120,0|2
416,272,82935,1,2
360,304,83266,6,0,B|296:280|280:208,1,120,0|2
296,160,84259,1,2
248,128,84590,1,2
200,160,84921,1,0
200,216,85252,5,0
152,248,85583,1,2
104,216,85914,2,0,B|48:192|56:88,1,120,0|2
96,64,86907,1,2
152,80,87238,6,0,B|192:120|280:112,1,120,0|2
320,96,88232,1,2
360,144,88563,2,0,B|352:216|416:272,1,120,0|2
448,288,89556,1,2
400,320,89887,1,0
352,288,90218,5,4
296,288,90549,2,0,B|160:288,1,120,4|0
56,288,91873,2,0,B|32:208|80:96|168:72,2,240
288,224,95845,6,0,B|360:224|400:144,1,120
376,48,97170,2,0,B|240:72|168:192,2,240
360,224,100811,6,0,B|416:280,1,60,4|0
256,88,109087,5,0
136,88,109749,1,0
256,88,110411,1,0
376,88,111073,1,0
256,88,111735,2,0,B|256:336,1,240,4|0
136,328,113721,6,0,B|96:264|136:184,2,120
240,264,115708,2,0,B|296:288|384:264,2,120
176,168,117694,6,0,B|240:152|312:184,2,120
72,232,119680,2,0,B|40:176|64:96,2,120
168,160,121666,6,0,B|248:144,2,60,0|4|0
256,192,131597,12,4,134245
168,272,134908,5,4
80,192,135570,1,2
168,112,136232,2,0,B|304:112,1,120,0|2
376,200,137556,2,0,B|248:200,1,120,0|2
488,128,139542,5,0
400,208,140204,1,0
312,288,140866,1,2
192,288,141528,2,0,B|48:288,1,120,0|2
72,168,142852,2,0,B|200:168,1,120,0|6
248,168,143846,1,4
304,168,144177,1,4
360,168,144508,1,4
416,168,144839,1,4
384,280,145501,5,0
264,280,146163,1,2
152,240,146825,2,0,B|224:240|264:160,1,120,0|2
152,240,148149,2,0,B|144:312|208:368,1,120,0|2
408,192,150135,5,0
288,192,150797,1,0
168,192,151459,1,2
264,264,152121,2,0,B|320:256|408:264,1,120,0|2
383,142,153446,2,0,B|327:150|247:142,1,120,0|2
256,192,155432,12,0,160728
136,312,162052,5,0
376,312,163377,1,0
256,104,164701,1,0
256,344,166025,6,0,B|256:272,1,60,4|0
256,224,166687,1,4
376,224,167349,2,0,B|376:144,1,60,4|0
376,104,168011,1,4
256,104,168673,5,4
136,104,169335,1,4
256,104,169997,1,4
192,208,170659,1,4
72,208,171321,6,0,B|72:296,2,60,4|2|4
192,208,172646,2,0,B|216:280,2,60,4|2|4
264,112,173970,6,0,B|336:112,4,60,4|4|4|4|4
208,112,175625,2,0,B|152:112,4,30,4|4|4|4|4
256,192,176453,12,4,179266
256,256,179928,5,0
160,192,180590,1,2
128,304,181252,2,0,B|56:280|40:200,1,120,0|2
160,192,182576,2,0,B|224:176|272:104,1,120,0|2
264,64,183569,1,2
208,80,183900,1,2
152,96,184231,1,0
96,112,184562,6,0,B|40:144|16:224,1,120,2|0
48,320,185886,1,2
168,336,186548,2,0,B|240:320|288:288,1,120,0|2
384,232,187872,5,0
264,208,188535,1,4
208,208,188866,1,2
152,208,189197,1,4
96,208,189528,2,0,B|96:264,2,30,0|0|4
48,168,190190,5,0
96,136,190521,2,0,B|168:120|240:128,1,120,0|2
272,136,191514,1,2
328,160,191845,2,0,B|344:224|408:264,1,120,0|2
456,256,192838,1,2
480,200,193169,6,0,B|416:176|400:104,1,120,0|2
344,96,194162,1,2
288,96,194493,1,0
256,144,194824,1,0
200,144,195155,5,2
160,192,195486,1,2
120,240,195817,2,0,B|112:320|168:341,1,120,0|2
224,344,196810,1,2
264,296,197141,6,0,B|336:280|368:216,1,120,0|2
376,176,198135,1,2
360,232,198466,2,0,B|352:304|416:360,1,120,0|2
456,352,199459,1,2
456,296,199790,1,0
456,240,200121,1,0
456,184,200453,1,4
