osu file format v13

[General]
AudioFilename: zensekai.mp3
AudioLeadIn: 0
PreviewTime: 101698
Countdown: 0
SampleSet: Soft
StackLeniency: 0.6
Mode: 0
LetterboxInBreaks: 0
WidescreenStoryboard: 0

[Editor]
DistanceSpacing: 0.6
BeatDivisor: 4
GridSize: 4
TimelineZoom: 2.399999

[Metadata]
Title:Zen Sekai Teki Touch Panel
TitleUnicode:全世界的タッチパネル
Artist:MOSAIC.WAV
ArtistUnicode:MOSAIC.WAV
Creator:Laurier
Version:CrystLer
Source:
Tags:mi-ko
BeatmapID:415307
BeatmapSetID:171723

[Difficulty]
HPDrainRate:7
CircleSize:4
OverallDifficulty:7
ApproachRate:9
SliderMultiplier:1.8
SliderTickRate:4

[Events]
//Background and Video events
0,0,"01.png",0,0
//Break Periods
//Storyboard Layer 0 (Background)
//Storyboard Layer 1 (Fail)
//Storyboard Layer 2 (Pass)
//Storyboard Layer 3 (Foreground)
//Storyboard Sound Samples
//Background Colour Transformations
3,100,163,162,255

[TimingPoints]
-170,329.67032967033,4,2,1,60,1,0
1148,-100,4,2,1,40,0,0
3786,-100,4,2,1,50,0,0
6093,-100,4,2,1,5,0,0
6423,-200,4,2,4,50,0,0
6917,-200,4,2,2,50,0,0
8895,-200,4,2,2,30,0,0
9060,-200,4,2,2,50,0,0
10873,-200,4,2,2,40,0,0
11038,-200,4,2,2,50,0,0
14665,-200,4,2,3,50,0,0
15242,-200,4,2,2,50,0,0
15489,-200,4,2,3,50,0,0
15654,-200,4,2,2,50,0,0
16313,-133.333333333333,4,2,2,50,0,0
16395,-133.333333333333,4,2,3,40,0,0
16478,-133.333333333333,4,2,3,50,0,0
16643,-133.333333333333,4,2,3,40,0,0
16725,-133.333333333333,4,2,3,50,0,0
16808,-133.333333333333,4,2,3,40,0,0
16890,-133.333333333333,4,2,3,50,0,0
16972,-100,4,2,1,50,0,0
18291,-100,4,2,2,50,0,0
18373,-100,4,2,1,50,0,0
18950,-100,4,2,2,50,0,0
19033,-100,4,2,1,50,0,0
19610,-100,4,2,4,50,0,0
19939,-100,4,2,3,50,0,0
20104,-100,4,2,4,50,0,0
20434,-100,4,2,3,50,0,0
20599,-100,4,2,4,50,0,0
20928,-100,4,2,3,50,0,0
21093,-100,4,2,4,50,0,0
21423,-100,4,2,3,50,0,0
21588,-100,4,2,4,50,0,0
21917,-100,4,2,2,60,0,0
22247,-100,4,2,3,60,0,0
23731,-100,4,2,1,60,0,0
24555,-100,4,2,2,60,0,0
24720,-100,4,2,1,60,0,0
25214,-100,4,2,4,60,0,0
25503,-100,4,2,5,40,0,0
25585,-100,4,2,4,60,0,0
27357,-100,4,2,1,60,0,0
27522,-100,4,2,4,60,0,0
29335,-100,4,2,3,60,0,0
29500,-100,4,2,4,60,0,0
30118,-100,4,2,5,40,0,0
30200,-100,4,2,4,60,0,0
30489,-100,4,2,3,60,0,0
30654,-100,4,2,4,60,0,0
30777,-100,4,2,5,40,0,0
30860,-100,4,2,4,60,0,0
31148,-100,4,2,3,60,0,0
31313,-100,4,2,4,60,0,0
31808,-100,4,2,3,60,0,0
32467,-100,4,2,4,60,0,0
32755,-100,4,2,5,40,0,0
32838,-100,4,2,4,60,0,0
33415,-100,4,2,5,40,0,0
33497,-100,4,2,4,60,0,0
34280,-100,4,2,1,50,0,0
35269,-100,4,2,3,50,0,0
35434,-100,4,2,1,50,0,0
37371,-100,4,2,5,50,0,0
37453,-100,4,2,1,50,0,0
43305,-100,4,2,5,50,0,0
43387,-100,4,2,1,50,0,0
44335,-100,4,2,3,50,0,0
44665,-100,4,2,1,50,0,0
45324,-100,4,2,1,30,0,0
45654,-100,4,2,3,30,0,0
45736,-100,4,2,1,30,0,0
45983,-100,4,2,1,50,0,0
47920,-100,4,2,5,50,0,0
48003,-100,4,2,1,50,0,0
48580,-100,4,2,5,50,0,0
48662,-100,4,2,1,50,0,0
49898,-100,4,2,5,50,0,0
49981,-100,4,2,1,50,0,0
50558,-100,4,2,5,50,0,0
50640,-100,4,2,1,50,0,0
52412,-100,4,2,1,40,0,0
52577,-100,4,2,1,50,0,0
53071,-100,4,2,1,40,0,0
53195,-100,4,2,5,50,0,0
53277,-100,4,2,1,50,0,0
53566,-100,4,2,4,50,0,0
53731,-100,4,2,3,50,0,0
53854,-100,4,2,5,50,0,0
53937,-100,4,2,1,50,0,0
54225,-100,4,2,3,50,0,0
54514,-100,4,2,5,50,0,0
54596,-100,4,2,1,50,0,0
54720,-100,4,2,3,50,0,0
54884,-100,4,2,1,50,0,0
55049,-100,4,2,3,50,0,0
55214,-100,4,2,1,50,0,0
55544,-100,4,2,3,50,0,0
55709,-100,4,2,4,50,0,0
55873,-100,4,2,4,40,0,0
56203,-100,4,2,1,50,0,0
56533,-100,4,2,6,60,0,0
57810,-100,4,2,5,60,0,0
57893,-100,4,2,6,60,0,0
58470,-100,4,2,5,60,0,0
58552,-100,4,2,6,60,0,0
63744,-100,4,2,5,60,0,0
63827,-100,4,2,6,60,0,0
64610,-100,4,2,3,60,0,0
65104,-100,4,2,6,60,0,0
65269,-100,4,2,3,60,0,0
65434,-100,4,2,6,60,0,0
65722,-100,4,2,5,60,0,0
65805,-100,4,2,6,60,0,0
66093,-100,4,2,3,60,0,0
66588,-100,4,2,2,60,0,0
66753,-100,4,2,4,60,0,0
67082,-100,4,2,6,60,0,0
69019,-100,4,2,5,60,0,0
69101,-100,4,2,6,60,0,0
71656,-100,4,2,5,60,0,0
71739,-100,4,2,6,60,0,0
74294,-100,4,2,5,60,0,0
74376,-100,4,2,6,60,0,0
75159,-100,4,2,3,60,0,0
75654,-100,4,2,6,60,0,0
75819,-100,4,2,3,60,0,0
75983,-100,4,2,6,60,0,0
76478,-100,4,2,3,60,0,0
76972,-100,4,2,6,40,0,0
77632,-100,4,2,6,60,0,0
79569,-100,4,2,5,60,0,0
79651,-100,4,2,6,60,0,0
81670,-100,4,2,3,60,0,0
82906,-100,4,2,6,60,0,0
84843,-100,4,2,5,60,0,0
84926,-100,4,2,6,60,0,0
85379,-100,4,2,4,60,0,0
85503,-100,4,2,5,60,0,0
85585,-100,4,2,6,60,0,0
86038,-100,4,2,4,60,0,0
86162,-100,4,2,5,60,0,0
86244,-100,4,2,6,60,0,0
86698,-100,4,2,4,60,0,0
86821,-100,4,2,5,60,0,0
86904,-100,4,2,6,60,0,0
87687,-100,4,2,4,60,0,0
87851,-100,4,2,6,60,0,0
89459,-100,4,2,5,60,0,0
89541,-100,4,2,6,60,0,0
91437,-100,4,2,5,60,0,0
91519,-100,4,2,6,60,0,0
92096,-100,4,2,5,60,0,0
92178,-100,4,2,6,60,0,0
94074,-100,4,2,5,60,0,0
94156,-100,4,2,6,60,0,0
97082,-100,4,2,6,40,0,0
97412,-100,4,2,6,60,0,0
98731,-100,4,2,4,60,0,0
98978,-100,4,2,3,60,0,0
99060,-100,4,2,6,60,0,0
99472,-100,4,2,3,60,0,0
99555,-100,4,2,6,60,0,0
99884,-100,4,2,6,40,0,0
100379,-100,4,2,2,50,0,0
101038,-100,4,2,3,50,0,0
101121,-100,4,2,3,60,0,0
101368,-100,4,2,6,70,0,1
104417,-100,4,2,3,60,0,1
104582,-100,4,2,6,70,0,1
104747,-100,4,2,3,60,0,1
104994,-100,4,2,6,70,0,1
105489,-100,4,2,3,60,0,1
105654,-100,4,2,6,70,0,1
106066,-100,4,2,3,60,0,1
106313,-100,4,2,6,70,0,1
106395,-100,4,2,3,70,0,1
106643,-100,4,2,6,70,0,1
107714,-100,4,2,3,60,0,1
107961,-100,4,2,6,70,0,1
109033,-100,4,2,3,60,0,1
109280,-100,4,2,6,70,0,1
111340,-100,4,2,3,70,0,1
111753,-100,4,2,2,70,0,1
111917,-100,4,2,6,70,0,1
115956,-100,4,2,3,60,0,1
116203,-100,4,2,6,70,0,1
116286,-100,4,2,3,60,0,1
116533,-100,4,2,6,70,0,1
116615,-100,4,2,3,60,0,1
116862,-100,4,2,6,70,0,1
117027,-100,4,2,4,70,0,1
117522,-100,4,2,6,70,0,1
121643,-100,4,2,3,70,0,1
121808,-100,4,2,6,50,0,1
122137,-100,4,2,6,70,0,1
122302,-100,4,2,3,50,0,1
122467,-100,4,2,6,70,0,1
127247,-100,4,2,2,70,0,1
127412,-100,4,2,6,70,0,1
130873,-100,4,2,3,50,0,1
131038,-100,4,2,6,70,0,1
134994,-100,4,2,6,5,0,0
135324,-100,4,2,6,60,0,0
135489,-100,4,2,4,60,0,0
135612,-100,4,2,5,40,0,0
135695,-100,4,2,4,60,0,0
136272,-100,4,2,5,40,0,0
136354,-100,4,2,4,60,0,0
136931,-100,4,2,5,40,0,0
137014,-100,4,2,4,60,0,0
138126,-100,4,2,6,60,0,0
138621,-100,4,2,4,60,0,0
139280,-100,4,2,3,60,0,0
139445,-100,4,2,4,60,0,0
140599,-100,4,2,3,60,0,0
140764,-100,4,2,4,60,0,0
140887,-100,4,2,5,40,0,0
140970,-100,4,2,4,60,0,0
141547,-100,4,2,5,40,0,0
141629,-100,4,2,4,60,0,0
142577,-100,4,2,3,60,0,0
142906,-100,4,2,4,60,0,0
143236,-100,4,2,3,60,0,0
143401,-100,4,2,4,60,0,0
143525,-100,4,2,5,40,0,0
143607,-100,4,2,4,60,0,0
144184,-100,4,2,5,40,0,0
144266,-100,4,2,4,60,0,0
145709,-100,4,2,3,60,0,0
145956,-100,4,2,6,60,0,0
146038,-100,4,2,3,60,0,0
146203,-100,4,2,6,60,0,0
147481,-100,4,2,5,60,0,0
147563,-100,4,2,6,60,0,0
148181,-100,4,2,5,60,0,0
148264,-100,4,2,6,60,0,0
150118,-100,4,2,5,60,0,0
150200,-100,4,2,6,60,0,0
150777,-100,4,2,5,60,0,0
150860,-100,4,2,6,60,0,0
153786,-100,4,2,4,60,0,0
153950,-100,4,2,3,60,0,0
154074,-100,4,2,5,60,0,0
154156,-100,4,2,6,60,0,0
154733,-100,4,2,5,60,0,0
154816,-100,4,2,6,60,0,0
155681,-100,4,2,3,60,0,0
156093,-100,4,2,6,50,0,0
156753,-100,4,2,6,60,0,0
158030,-100,4,2,5,60,0,0
158112,-100,4,2,6,60,0,0
158689,-100,4,2,5,60,0,0
158772,-100,4,2,6,60,0,0
161327,-100,4,2,5,60,0,0
161409,-100,4,2,6,60,0,0
163511,-100,4,2,6,40,0,0
163676,-100,4,2,6,60,0,0
163964,-100,4,2,5,60,0,0
164047,-100,4,2,6,60,0,0
164335,-100,4,2,4,60,0,0
164500,-100,4,2,3,60,0,0
164623,-100,4,2,5,60,0,0
164706,-100,4,2,6,60,0,0
165283,-100,4,2,5,60,0,0
165365,-100,4,2,6,60,0,0
166313,-100,4,2,3,60,0,0
166643,-100,4,2,6,50,0,0
167302,-100,4,2,6,60,0,0
169239,-100,4,2,5,60,0,0
169321,-100,4,2,6,60,0,0
171876,-100,4,2,5,60,0,0
171959,-100,4,2,6,60,0,0
174514,-100,4,2,5,60,0,0
174596,-100,4,2,6,60,0,0
175379,-100,4,2,3,60,0,0
175544,-100,4,2,6,60,0,0
176038,-100,4,2,3,60,0,0
176203,-100,4,2,6,60,0,0
176492,-100,4,2,5,60,0,0
176574,-100,4,2,6,60,0,0
176698,-100,4,2,3,60,0,0
177192,-100,4,2,6,60,0,0
177522,-100,4,2,3,60,0,0
177851,-100,4,2,6,60,0,0
179788,-100,4,2,5,60,0,0
179871,-100,4,2,6,60,0,0
182426,-100,4,2,5,60,0,0
182508,-100,4,2,6,60,0,0
185063,-100,4,2,5,60,0,0
185145,-100,4,2,6,60,0,0
185599,-100,4,2,4,60,0,0
185928,-100,4,2,3,60,0,0
186423,-100,4,2,6,60,0,0
186588,-100,4,2,3,60,0,0
187742,-100,4,2,4,60,0,0
187824,-100,4,2,3,60,0,0
188401,-100,4,2,4,60,0,0
188731,-100,4,2,6,60,0,0
190338,-100,4,2,5,60,0,0
190420,-100,4,2,6,60,0,0
192357,-100,4,2,4,60,0,0
192439,-100,4,2,3,60,0,0
193016,-100,4,2,4,60,0,0
193181,-100,4,2,3,60,0,0
193346,-100,4,2,4,50,0,0
193676,-100,4,2,6,60,0,0
195612,-100,4,2,5,60,0,0
195695,-100,4,2,6,60,0,0
196148,-100,4,2,4,60,0,0
196272,-100,4,2,5,60,0,0
196354,-100,4,2,6,60,0,0
196808,-100,4,2,4,60,0,0
196931,-100,4,2,5,60,0,0
197014,-100,4,2,6,60,0,0
197467,-100,4,2,4,60,0,0
197590,-100,4,2,5,60,0,0
197673,-100,4,2,4,60,0,0
197961,-100,4,2,6,60,0,0
200228,-100,4,2,5,60,0,0
200310,-100,4,2,6,60,0,0
200887,-100,4,2,5,60,0,0
200970,-100,4,2,6,60,0,0
202206,-100,4,2,5,60,0,0
202288,-100,4,2,6,60,0,0
202865,-100,4,2,5,60,0,0
202948,-100,4,2,6,60,0,0
203525,-100,4,2,5,60,0,0
203607,-100,4,2,6,60,0,0
207851,-100,4,2,6,40,0,0
208181,-100,4,2,6,60,0,0
209747,-100,4,2,3,60,0,0
209830,-100,4,2,6,60,0,0
210242,-100,4,2,3,60,0,0
210324,-100,4,2,6,60,0,0
210654,-100,4,2,3,60,0,0
210819,-100,4,2,6,40,0,0
211148,-100,4,2,4,50,0,0
211890,-100,4,2,4,60,0,0
212137,-100,4,2,6,70,0,1
214857,-100,4,2,3,70,0,1
215434,-100,4,2,4,70,0,1
215764,-100,4,2,6,70,0,1
216917,-100,4,2,4,70,0,1
217082,-100,4,2,3,70,0,1
217412,-100,4,2,6,70,0,1
222522,-100,4,2,3,70,0,1
222687,-100,4,2,6,70,0,1
223428,-100,4,2,3,70,0,1
223676,-100,4,2,6,70,0,1
226972,-100,4,2,3,70,0,1
227302,-100,4,2,4,70,0,1
227467,-100,4,2,3,70,0,1
227797,-100,4,2,4,70,0,1
228291,-100,4,2,6,70,0,1
229898,-100,4,2,5,60,0,1
229981,-100,4,2,6,70,0,1
232659,-100,4,2,3,70,0,1
232948,-100,4,2,4,50,0,1
233236,-100,4,2,6,70,0,1
234060,-100,4,2,3,70,0,1
234514,-100,4,2,5,60,0,1
234596,-100,4,2,6,70,0,1
237810,-100,4,2,5,60,0,1
237893,-100,4,2,6,70,0,1
239788,-100,4,2,5,60,0,1
239871,-100,4,2,6,70,0,1
241766,-100,4,2,5,60,0,1
241849,-100,4,2,6,70,0,1
244775,-100,4,2,3,60,0,0
245104,-100,4,2,3,40,0,0
245764,-100,4,2,6,60,0,0
246052,-100,4,2,5,50,0,0
246134,-100,4,2,6,60,0,0
246423,-100,4,2,6,60,0,0
247165,-100,4,2,3,60,0,0
247412,-100,4,2,6,60,0,0
250461,-100,4,2,3,60,0,0
250709,-100,4,2,6,60,0,0
252975,-100,4,2,5,60,0,0
253058,-100,4,2,6,60,0,0
256643,-100,4,2,4,60,0,0
256808,-100,4,2,6,60,0,0
258786,-100,4,2,3,60,0,0
259610,-100,4,2,6,60,0,0
260887,-100,4,2,5,60,0,0
260970,-100,4,2,6,60,0,0
267027,-100,4,2,1,40,0,0
267522,-133.333333333333,4,2,6,60,0,0
271478,-133.333333333333,4,2,4,60,0,0
272302,-133.333333333333,4,2,3,60,0,0
275269,-133.333333333333,4,2,4,60,0,0
275599,-133.333333333333,4,2,3,60,0,0
275928,-133.333333333333,4,2,4,60,0,0
276340,-133.333333333333,4,2,3,60,0,0
276588,-133.333333333333,4,2,4,60,0,0
277082,-100,4,2,6,60,0,0
279349,-100,4,2,5,60,0,0
279431,-100,4,2,6,60,0,0
281327,-100,4,2,5,60,0,0
281409,-100,4,2,6,60,0,0
285283,-100,4,2,5,60,0,0
285365,-100,4,2,6,60,0,0
286972,-100,4,2,6,40,0,0
287302,-100,4,2,6,60,0,0
292906,-100,4,2,3,60,0,0
293895,-200,4,2,6,60,0,0
296533,-200,4,2,4,60,0,0
298840,-200,4,2,6,60,0,0
299170,-100,4,2,6,70,0,1
301107,-100,4,2,5,60,0,1
301189,-100,4,2,6,70,0,1
303868,-100,4,2,3,70,0,1
304445,-100,4,2,6,70,0,1
305104,-100,4,2,4,70,0,1
305434,-100,4,2,6,70,0,1
308483,-100,4,2,3,70,0,1
309060,-100,4,2,4,70,0,1
309225,-100,4,2,3,70,0,1
309555,-100,4,2,4,70,0,1
310049,-100,4,2,6,70,0,1
311656,-100,4,2,5,60,0,1
311739,-100,4,2,6,70,0,1
316931,-100,4,2,5,60,0,1
317014,-100,4,2,6,70,0,1
317137,-100,4,2,3,70,0,1
317632,-100,4,2,6,70,0,1
327522,-100,4,2,6,60,0,0
328140,-100,4,2,5,40,0,0
328222,-100,4,2,6,60,0,0
328676,-100,4,2,4,60,0,0
328799,-100,4,2,5,40,0,0
328882,-100,4,2,6,60,0,0
329335,-100,4,2,4,60,0,0
329459,-100,4,2,5,40,0,0
329541,-100,4,2,6,60,0,0
329994,-100,4,2,3,60,0,0
330159,-100,4,2,4,60,0,0
330489,-100,4,2,6,60,0,0
331313,-100,4,2,4,60,0,0
331437,-100,4,2,5,40,0,0
331519,-100,4,2,6,60,0,0
331972,-100,4,2,4,60,0,0
332096,-100,4,2,5,40,0,0
332178,-100,4,2,6,60,0,0
332632,-100,4,2,3,60,0,0
332797,-100,4,2,4,60,0,0
333126,-100,4,2,6,60,0,0
333291,-100,4,2,4,60,0,0
333415,-100,4,2,5,40,0,0
333497,-100,4,2,6,60,0,0
333950,-100,4,2,4,60,0,0
334074,-100,4,2,5,40,0,0
334156,-100,4,2,6,60,0,0
334610,-100,4,2,4,60,0,0
334733,-100,4,2,5,40,0,0
334816,-100,4,2,3,60,0,0
335434,-100,4,2,4,60,0,0
335764,-100,4,2,6,60,0,0
336052,-100,4,2,5,40,0,0
336134,-100,4,2,6,60,0,0
336588,-100,4,2,4,60,0,0
336711,-100,4,2,5,40,0,0
336794,-100,4,2,6,60,0,0
337247,-100,4,2,4,60,0,0
337742,-100,4,2,6,60,0,0
338154,-100,4,2,3,60,0,0
338689,-100,4,2,5,40,0,0
338772,-100,4,2,6,60,0,0
339225,-100,4,2,4,60,0,0
339349,-100,4,2,5,40,0,0
339431,-100,4,2,6,60,0,0
340461,-100,4,2,3,60,0,0
340709,-100,4,2,4,60,0,0
341038,-100,4,2,6,60,0,0
341862,-100,4,2,4,60,0,0
341986,-100,4,2,5,40,0,0
342069,-100,4,2,6,60,0,0
342522,-100,4,2,4,60,0,0
342645,-100,4,2,5,40,0,0
342728,-100,4,2,6,60,0,0
343428,-100,4,2,3,60,0,0
343964,-100,4,2,5,40,0,0
344047,-100,4,2,6,60,0,0
344500,-100,4,2,4,60,0,0
344623,-100,4,2,5,40,0,0
344706,-100,4,2,6,60,0,0
345159,-100,4,2,4,60,0,0
345283,-100,4,2,5,40,0,0
345365,-100,4,2,6,60,0,0
346601,-100,4,2,5,40,0,0
346684,-100,4,2,6,60,0,0
347137,-100,4,2,4,60,0,0
347261,-100,4,2,5,40,0,0
347343,-100,4,2,6,60,0,0
347797,-100,4,2,4,60,0,0
347961,-100,4,2,6,60,0,0
350558,-100,4,2,5,40,0,0
350640,-100,4,2,6,60,0,0
351340,-100,4,2,3,60,0,0
351876,-100,4,2,5,40,0,0
351959,-100,4,2,6,60,0,0
352412,-100,4,2,4,60,0,0
352906,-100,4,2,6,60,0,0
353195,-100,4,2,5,40,0,0
353277,-100,4,2,6,60,0,0
353854,-100,4,2,5,40,0,0
353937,-100,4,2,6,60,0,0
354390,-100,4,2,4,60,0,0
354884,-100,4,2,6,60,0,0
355709,-100,4,2,4,60,0,0
355832,-100,4,2,5,40,0,0
355915,-100,4,2,6,60,0,0
357151,-100,4,2,5,40,0,0
357233,-100,4,2,6,60,0,0
357687,-100,4,2,4,60,0,0
357810,-100,4,2,5,50,0,0
357893,-100,4,2,6,60,0,0
358346,-100,4,2,4,60,0,0
358470,-100,4,2,5,50,0,0
358552,-100,4,2,6,60,0,0
359253,-100,4,2,3,60,0,0
359830,-100,4,2,6,60,0,0
360324,-100,4,2,4,60,0,0
360489,-100,4,2,6,60,0,0
361107,-100,4,2,5,40,0,0
361189,-100,4,2,6,60,0,0
361890,-100,4,2,3,60,0,0
362467,-100,4,2,6,60,0,0
362961,-100,4,2,4,60,0,0
363126,-100,4,2,6,60,0,0
363744,-100,4,2,5,40,0,0
363827,-100,4,2,6,60,0,0
365599,-100,4,2,4,60,0,0
365764,-100,4,2,6,60,0,0
366382,-100,4,2,5,40,0,0
366464,-100,4,2,6,60,0,0
368360,-100,4,2,5,40,0,0
368442,-100,4,2,6,60,0,0
369019,-100,4,2,5,40,0,0
369101,-100,4,2,6,60,0,0
370997,-100,4,2,5,40,0,0
371080,-100,4,2,6,60,0,0
371533,-100,4,2,4,60,0,0
371656,-100,4,2,5,40,0,0
371739,-100,4,2,6,60,0,0
372975,-100,4,2,5,40,0,0
373058,-100,4,2,6,60,0,0
373511,-100,4,2,4,60,0,0
373634,-100,4,2,5,40,0,0
373717,-100,4,2,6,60,0,0
374170,-100,4,2,4,60,0,0
374294,-100,4,2,5,40,0,0
374376,-100,4,2,6,60,0,0
375489,-100,4,2,4,60,0,0
375612,-100,4,2,5,40,0,0
375695,-100,4,2,6,60,0,0
376148,-100,4,2,4,60,0,0
376272,-100,4,2,5,40,0,0
376354,-100,4,2,6,60,0,0
376808,-100,4,2,4,60,0,0
379445,-100,4,2,1,50,0,0
379527,-100,4,2,1,20,0,0
382247,-100,4,2,1,10,0,0
384884,-100,4,2,1,5,0,0

[Colours]
Combo1 : 168,255,255
Combo2 : 255,157,253
Combo3 : 147,255,201
Combo4 : 255,184,149

[HitObjects]
256,192,1148,12,0,6093,0:0:0:0:
67,290,6423,6,0,P|135:287|207:276,1,135,6|0,0:0|0:0,0:0:0:0:
189,152,7082,2,0,P|255:141|323:139,1,135,2|0,0:0|0:0,0:0:0:0:
479,192,7742,1,2,0:0:0:0:
479,192,8401,1,2,0:0:0:0:
347,68,8731,1,0,0:0:0:0:
422,20,8895,1,2,0:0:0:0:
422,20,8978,1,2,0:0:0:0:
422,20,9060,6,0,P|437:62|428:109,1,90,2|0,0:0|0:0,0:0:0:0:
396,180,9555,1,0,0:0:0:0:
396,180,9720,2,0,L|385:278,1,90,2|0,0:0|0:0,0:0:0:0:
253,22,10379,2,0,L|242:120,1,90,2|0,0:0|0:0,0:0:0:0:
183,166,10873,1,2,0:0:0:0:
183,166,10956,1,2,0:0:0:0:
183,166,11038,2,0,L|92:204,1,90,2|0,0:0|0:0,0:0:0:0:
217,313,11698,6,0,L|300:278,1,90,2|0,0:0|0:0,0:0:0:0:
346,88,12357,2,0,L|335:186,1,90,2|0,0:0|0:0,0:0:0:0:
440,356,13016,2,0,P|459:293|459:220,1,135,2|2,0:0|0:0,0:0:0:0:
462,227,13593,1,2,0:0:0:0:
462,227,13676,1,2,0:0:0:0:
347,87,14005,1,0,0:0:0:0:
270,28,14170,2,0,L|270:67,1,22.5,2|2,0:0|0:0,0:0:0:0:
266,128,14335,5,6,0:0:0:0:
252,146,14417,1,0,0:0:0:0:
235,160,14500,1,0,0:0:0:0:
215,170,14582,1,0,0:0:0:0:
193,174,14665,1,2,0:0:0:0:
170,173,14747,1,0,0:0:0:0:
149,167,14830,1,0,0:0:0:0:
129,155,14912,1,0,0:0:0:0:
105,249,14994,5,0,0:0:0:0:
108,267,15077,1,0,0:0:0:0:
111,285,15159,1,0,0:0:0:0:
113,302,15242,1,2,0:0:0:0:
116,320,15324,1,0,0:0:0:0:
119,338,15406,1,0,0:0:0:0:
122,356,15489,1,2,0:0:0:0:
125,373,15571,1,0,0:0:0:0:
214,320,15654,5,4,0:0:0:0:
232,306,15736,1,0,0:0:0:0:
252,297,15819,1,0,0:0:0:0:
274,294,15901,1,0,0:0:0:0:
297,295,15983,1,0,0:0:0:0:
318,302,16066,1,0,0:0:0:0:
337,314,16148,1,0,0:0:0:0:
353,329,16231,1,0,0:0:0:0:
444,269,16313,6,0,L|458:226,1,33.7500012874604,4|8,0:0|0:0,0:0:0:0:
409,130,16478,2,0,L|398:162,1,33.7500012874604,0|0,0:0|0:0,0:0:0:0:
308,203,16643,2,0,L|306:157,1,33.7500012874604,8|0,0:0|0:0,0:0:0:0:
228,84,16808,2,0,L|229:117,1,33.7500012874604,8|0,0:0|0:0,0:0:0:0:
179,181,16972,5,6,0:0:0:0:
168,195,17055,1,0,0:0:0:0:
155,207,17137,1,0,0:0:0:0:
140,217,17220,1,0,0:0:0:0:
123,224,17302,1,0,0:0:0:0:
105,227,17384,1,0,0:0:0:0:
87,227,17467,1,8,0:0:0:0:
70,224,17549,1,0,0:0:0:0:
34,137,17632,5,0,0:0:0:0:
44,122,17714,1,0,0:0:0:0:
57,110,17797,1,8,0:0:0:0:
72,100,17879,1,0,0:0:0:0:
89,93,17961,1,0,0:0:0:0:
107,90,18044,1,0,0:0:0:0:
125,90,18126,1,12,0:0:0:0:
142,93,18209,1,0,0:0:0:0:
229,82,18291,6,0,L|283:64,1,45,2|0,0:0|0:0,0:0:0:0:
315,136,18456,2,0,L|369:118,1,45,8|0,0:0|0:0,0:0:0:0:
407,186,18621,2,0,L|461:168,1,45,8|0,0:0|0:0,0:0:0:0:
326,226,18786,1,2,0:0:0:0:
326,226,18868,1,2,0:0:0:0:
326,226,18950,6,0,L|309:268,1,45,6|0,0:0|0:0,0:0:0:0:
224,354,19115,2,0,L|207:312,1,45,2|0,0:0|0:0,0:0:0:0:
221,205,19280,2,0,L|167:190,1,45,8|0,0:0|0:0,0:0:0:0:
70,257,19445,2,0,L|124:272,1,45,8|0,0:0|0:0,0:0:0:0:
221,205,19610,6,0,P|253:123|208:42,1,180,14|8,0:0|0:0,0:0:0:0:
100,185,20104,2,0,P|68:267|113:348,1,180,14|8,0:0|0:0,0:0:0:0:
287,317,20599,2,0,P|346:295|421:308,1,135,14|0,0:0|0:0,0:0:0:0:
450,234,20928,5,8,0:0:0:0:
450,234,21011,1,0,0:0:0:0:
450,234,21093,2,0,L|472:93,1,135,14|0,0:0|0:0,0:0:0:0:
408,38,21423,1,8,0:0:0:0:
408,38,21505,1,0,0:0:0:0:
408,38,21588,2,0,P|348:67|280:51,1,135,14|0,0:0|0:0,0:0:0:0:
256,152,21917,2,0,L|239:248,1,90,6|0,0:0|0:0,0:0:0:0:
196,73,22247,5,14,0:0:0:0:
236,264,22412,1,10,0:0:0:0:
196,73,22742,1,10,0:0:0:0:
225,293,23071,1,10,0:0:0:0:
256,152,23236,1,8,0:0:0:0:
357,311,23401,1,10,0:0:0:0:
357,311,23731,5,2,0:0:0:0:
330,307,23813,5,2,0:0:0:0:
303,304,23895,5,2,0:0:0:0:
276,300,23978,5,2,0:0:0:0:
249,297,24060,5,2,0:0:0:0:
223,294,24143,5,2,0:0:0:0:
196,290,24225,5,6,0:0:0:0:
49,63,24555,1,8,0:0:0:0:
106,154,24720,1,4,0:0:0:0:
71,255,24884,6,0,L|42:346,1,90,2|0,0:0|0:0,0:0:0:0:
106,154,25214,1,2,0:0:0:0:
227,51,25379,2,0,P|265:129|229:208,1,180,10|0,0:0|0:0,0:0:0:0:
228,208,25791,1,0,0:0:0:0:
228,208,25873,1,2,0:0:0:0:
106,154,26038,1,8,0:0:0:0:
228,51,26203,6,0,P|272:64|319:59,1,90,2|0,0:0|0:0,0:0:0:0:
454,17,26533,1,2,0:0:0:0:
367,132,26698,1,4,0:0:0:0:
354,150,26780,1,0,0:0:0:0:
344,170,26862,1,2,0:0:0:0:
338,192,26945,1,0,0:0:0:0:
335,214,27027,1,0,0:0:0:0:
337,237,27110,1,0,0:0:0:0:
342,259,27192,1,2,0:0:0:0:
350,279,27275,1,0,0:0:0:0:
362,299,27357,6,0,P|313:288|268:286,1,90,4|2,0:0|0:0,0:0:0:0:
122,346,27687,1,0,0:0:0:0:
222,220,27851,1,2,0:0:0:0:
362,300,28016,2,0,P|409:309|455:309,1,90,12|2,0:0|0:0,0:0:0:0:
462,201,28346,1,0,0:0:0:0:
222,220,28511,2,0,L|225:313,1,90,2|8,0:0|0:0,0:0:0:0:
461,202,28840,6,0,L|458:109,1,90,2|0,0:0|0:0,0:0:0:0:
357,21,29170,1,2,0:0:0:0:
249,103,29335,1,2,0:0:0:0:
226,117,29417,1,0,0:0:0:0:
200,125,29500,1,2,0:0:0:0:
173,127,29582,1,0,0:0:0:0:
147,121,29665,1,0,0:0:0:0:
123,109,29747,1,0,0:0:0:0:
103,90,29830,1,2,0:0:0:0:
357,21,29994,6,0,L|337:200,1,180,12|0,0:0|0:0,0:0:0:0:
448,121,30489,1,8,0:0:0:0:
413,279,30654,2,0,P|328:304|250:262,1,180,8|0,0:0|0:0,0:0:0:0:
174,128,31148,1,8,0:0:0:0:
73,217,31313,1,8,0:0:0:0:
251,264,31478,5,2,0:0:0:0:
281,231,31560,1,0,0:0:0:0:
298,189,31643,1,0,0:0:0:0:
298,144,31725,1,0,0:0:0:0:
283,102,31808,6,0,L|269:53,1,45,8|0,0:0|0:0,0:0:0:0:
174,128,31972,2,0,L|159:177,1,45,0|0,0:0|0:0,0:0:0:0:
298,189,32137,2,0,L|348:190,2,45,4|0|0,0:0|0:0|0:0,0:0:0:0:
451,249,32467,1,10,0:0:0:0:
443,66,32632,6,0,P|371:116|279:98,1,180,6|0,0:0|0:0,0:0:0:0:
190,30,33126,1,2,0:0:0:0:
80,171,33291,2,0,B|57:202|68:236|68:236|41:273|41:273|65:297|67:335,1,180,12|0,0:0|0:0,0:0:0:0:
174,283,33786,1,2,0:0:0:0:
321,362,33950,1,12,0:0:0:0:
301,246,34115,5,2,0:0:0:0:
458,149,34280,1,8,0:0:0:0:
458,149,34362,1,8,0:0:0:0:
458,149,34445,2,0,L|504:120,2,45,0|8|8,0:0|0:0|0:0,0:0:0:0:
421,260,34775,1,8,0:0:0:0:
425,281,34857,1,8,0:0:0:0:
430,303,34939,1,0,0:0:0:0:
435,325,35022,1,8,0:0:0:0:
440,347,35104,2,0,L|474:302,1,45,8|0,0:0|0:0,0:0:0:0:
346,324,35269,2,0,L|312:369,2,45,2|0|6,0:0|0:0|0:0,0:0:0:0:
257,154,35599,5,0,0:0:0:0:
194,303,35764,1,2,0:0:0:0:
302,247,35928,1,0,0:0:0:0:
212,69,36093,2,0,P|163:140|196:230,1,180,2|2,0:0|0:0,0:0:0:0:
342,167,36588,6,0,P|383:154|439:154,1,90,0|2,0:0|0:0,0:0:0:0:
434,311,36917,2,0,P|393:324|337:324,1,90,0|2,0:0|0:0,0:0:0:0:
194,303,37247,2,0,B|154:324|154:324|121:304|121:304|95:320|65:302|65:302|25:309,1,180
93,199,37742,1,2,0:0:0:0:
214,70,37906,2,0,L|206:169,1,90,0|2,0:0|0:0,0:0:0:0:
286,348,38236,5,0,0:0:0:0:
338,264,38401,1,2,0:0:0:0:
391,180,38566,1,0,0:0:0:0:
435,311,38731,1,2,0:0:0:0:
338,264,38895,2,0,L|339:170,1,90,0|2,0:0|0:0,0:0:0:0:
435,311,39225,1,0,0:0:0:0:
259,221,39390,6,0,P|218:239|165:241,1,90,2|0,0:0|0:0,0:0:0:0:
33,189,39720,1,2,0:0:0:0:
87,301,39884,1,0,0:0:0:0:
94,51,40049,1,2,0:0:0:0:
182,140,40214,1,0,0:0:0:0:
216,18,40379,1,2,0:0:0:0:
94,51,40544,2,0,L|94:142,1,90,0|2,0:0|0:0,0:0:0:0:
87,301,40873,5,0,0:0:0:0:
87,301,41038,2,0,P|46:322|-2:329,1,90,2|0,0:0|0:0,0:0:0:0:
174,253,41368,2,0,P|263:241|343:284,1,180,2|2,0:0|0:0,0:0:0:0:
474,159,41862,6,0,P|434:178|388:186,1,90,0|2,0:0|0:0,0:0:0:0:
263,165,42192,2,0,P|219:163|174:173,1,90,0|2,0:0|0:0,0:0:0:0:
56,219,42522,1,0,0:0:0:0:
105,34,42687,1,2,0:0:0:0:
13,106,42851,1,0,0:0:0:0:
105,34,43016,1,2,0:0:0:0:
306,97,43181,6,0,P|341:177|275:244,1,180,4|0,0:0|0:0,0:0:0:0:
31,230,43676,1,2,0:0:0:0:
31,230,43840,2,0,P|72:214|124:208,1,90,0|2,0:0|0:0,0:0:0:0:
215,316,44170,1,0,0:0:0:0:
263,165,44335,1,8,0:0:0:0:
245,308,44500,1,0,0:0:0:0:
118,208,44665,6,0,L|118:117,1,90,2|0,0:0|0:0,0:0:0:0:
123,84,44912,1,0,0:0:0:0:
140,52,44994,1,2,0:0:0:0:
167,30,45076,1,0,0:0:0:0:
201,18,45159,1,0,0:0:0:0:
236,20,45241,1,0,0:0:0:0:
269,33,45324,2,0,L|300:42,6,22.5,6|2|2|2|2|2|2,0:0|0:0|0:0|0:0|0:0|0:0|0:0,0:0:0:0:
342,108,45654,2,0,L|373:117,6,22.5,8|2|2|2|2|2|2,0:0|0:0|0:0|0:0|0:0|0:0|0:0,0:0:0:0:
444,64,45983,5,2,0:0:0:0:
396,237,46148,1,0,0:0:0:0:
268,239,46313,1,2,0:0:0:0:
395,237,46478,1,0,0:0:0:0:
392,363,46643,1,2,0:0:0:0:
486,279,46808,1,0,0:0:0:0:
445,160,46972,1,2,0:0:0:0:
317,318,47137,6,0,P|276:327|221:321,1,90,0|2,0:0|0:0,0:0:0:0:
99,198,47467,2,0,P|140:189|195:195,1,90,0|2,0:0|0:0,0:0:0:0:
395,237,47797,2,0,P|414:164|422:97,1,135
422,69,48126,1,0,0:0:0:0:
301,132,48291,1,2,0:0:0:0:
211,56,48456,6,0,P|125:80|46:44,1,180
309,171,48950,2,0,P|266:160|217:162,1,90,2|0,0:0|0:0,0:0:0:0:
100,198,49280,1,2,0:0:0:0:
211,56,49445,1,0,0:0:0:0:
201,181,49610,1,2,0:0:0:0:
341,239,49775,6,0,P|384:166|328:98,1,180
201,181,50269,1,2,0:0:0:0:
259,322,50434,2,0,B|230:352|230:352|203:338|203:338|154:374|97:346,1,180
201,181,50928,2,0,P|185:226|159:272,1,90,2|0,0:0|0:0,0:0:0:0:
50,69,51258,5,6,0:0:0:0:
100,199,51423,1,0,0:0:0:0:
148,100,51588,1,2,0:0:0:0:
12,160,51753,1,0,0:0:0:0:
165,263,51917,1,6,0:0:0:0:
62,363,52082,2,0,P|57:318|68:273,1,90,0|2,0:0|0:0,0:0:0:0:
201,182,52412,6,0,L|292:167,1,90,4|2,0:0|0:0,0:0:0:0:
373,286,52742,2,0,P|394:241|399:195,1,90,4|0,0:0|0:0,0:0:0:0:
326,11,53071,2,0,P|291:67|287:134,1,135,4|0,0:0|0:0,0:0:0:0:
291,169,53401,1,0,0:0:0:0:
421,108,53566,1,6,0:0:0:0:
373,286,53731,6,0,B|332:320|332:320|303:306|273:320|273:320|246:296|210:304,1,180,2|0,0:0|0:0,0:0:0:0:
125,212,54225,1,8,0:0:0:0:
64,36,54390,2,0,P|31:93|48:158,1,135,2|0,0:0|0:0,0:0:0:0:
88,138,54720,2,0,P|129:131|181:147,1,90,2|2,0:0|0:0,0:0:0:0:
301,211,55049,1,2,0:0:0:0:
172,356,55214,5,2,0:0:0:0:
151,347,55296,1,0,0:0:0:0:
133,334,55378,1,0,0:0:0:0:
119,317,55461,1,0,0:0:0:0:
109,296,55543,1,8,0:0:0:0:
105,274,55626,1,0,0:0:0:0:
106,252,55708,1,12,0:0:0:0:
113,231,55790,1,8,0:0:0:0:
125,211,55873,6,0,L|148:174,1,45,10|0,0:0|0:0,0:0:0:0:
217,83,56038,2,0,L|239:120,1,45,10|0,0:0|0:0,0:0:0:0:
300,211,56203,2,0,L|322:173,1,45,8|0,0:0|0:0,0:0:0:0:
395,91,56368,2,0,L|417:128,1,45,2|0,0:0|0:0,0:0:0:0:
463,192,56533,5,6,0:0:0:0:
396,309,56698,1,0,0:0:0:0:
305,121,56862,1,8,0:0:0:0:
389,226,57027,1,0,0:0:0:0:
293,321,57192,1,2,0:0:0:0:
301,211,57357,1,0,0:0:0:0:
463,192,57522,1,8,0:0:0:0:
301,211,57687,6,0,P|236:208|164:199,1,135
133,185,58016,1,0,0:0:0:0:
178,316,58181,1,8,0:0:0:0:
301,211,58346,2,0,P|311:119|303:31,1,180
212,117,58840,1,8,0:0:0:0:
301,211,59005,2,0,L|397:202,1,90,0|2,0:0|0:0,0:0:0:0:
212,117,59335,5,0,0:0:0:0:
303,33,59500,1,8,0:0:0:0:
212,117,59665,1,0,0:0:0:0:
300,211,59830,2,0,L|280:304,1,90,2|0,0:0|0:0,0:0:0:0:
420,161,60159,2,0,L|400:254,1,90,8|0,0:0|0:0,0:0:0:0:
217,199,60489,5,2,0:0:0:0:
282,299,60654,1,0,0:0:0:0:
346,124,60819,1,8,0:0:0:0:
301,211,60983,1,0,0:0:0:0:
212,117,61148,2,0,P|175:108|122:107,1,90,2|0,0:0|0:0,0:0:0:0:
11,249,61478,2,0,P|55:248|99:238,1,90,8|0,0:0|0:0,0:0:0:0:
282,299,61808,6,0,P|370:288|457:317,2,180,2|8|2,0:0|0:0|0:0,0:0:0:0:
182,359,62632,1,0,0:0:0:0:
212,117,62797,1,8,0:0:0:0:
131,201,62961,1,0,0:0:0:0:
281,299,63126,5,2,0:0:0:0:
217,200,63291,1,0,0:0:0:0:
182,359,63456,1,8,0:0:0:0:
281,299,63621,2,0,P|294:228|319:166,1,135
335,139,63950,1,0,0:0:0:0:
217,200,64115,1,8,0:0:0:0:
355,362,64280,6,0,P|370:318|377:272,1,90,4|2,0:0|0:0,0:0:0:0:
316,37,64610,1,2,0:0:0:0:
316,37,64692,1,2,0:0:0:0:
316,37,64775,1,8,0:0:0:0:
316,37,64857,1,0,0:0:0:0:
316,37,64939,2,0,P|361:27|410:22,1,90,4|2,0:0|0:0,0:0:0:0:
335,139,65269,1,2,0:0:0:0:
335,139,65351,1,2,0:0:0:0:
335,139,65434,1,8,0:0:0:0:
335,139,65516,1,0,0:0:0:0:
335,139,65599,6,0,P|247:124|210:49,1,180,4|0,0:0|0:0,0:0:0:0:
434,116,66093,2,0,L|414:215,1,90,10|0,0:0|0:0,0:0:0:0:
411,226,66340,1,2,0:0:0:0:
406,248,66423,1,2,0:0:0:0:
401,269,66505,1,0,0:0:0:0:
396,291,66588,1,2,0:0:0:0:
215,312,66753,1,10,0:0:0:0:
173,295,66835,1,0,0:0:0:0:
128,295,66917,1,0,0:0:0:0:
86,312,67000,1,0,0:0:0:0:
54,342,67082,1,6,0:0:0:0:
45,194,67247,6,0,P|88:204|133:193,1,90,0|8,0:0|0:0,0:0:0:0:
258,96,67577,1,0,0:0:0:0:
246,212,67742,1,2,0:0:0:0:
258,96,67906,1,0,0:0:0:0:
326,282,68071,1,8,0:0:0:0:
220,295,68236,6,0,P|224:251|246:212,1,90,0|2,0:0|0:0,0:0:0:0:
360,85,68566,2,0,P|356:129|334:168,1,90,0|8,0:0|0:0,0:0:0:0:
179,143,68895,2,0,P|113:127|44:120,1,135
10,117,69225,1,0,0:0:0:0:
155,15,69390,1,8,0:0:0:0:
179,143,69555,2,0,L|150:231,1,90,0|2,0:0|0:0,0:0:0:0:
10,117,69884,5,0,0:0:0:0:
180,143,70049,1,8,0:0:0:0:
68,219,70214,1,0,0:0:0:0:
155,15,70379,1,2,0:0:0:0:
180,143,70544,1,0,0:0:0:0:
10,117,70709,2,0,L|10:22,1,90,8|0,0:0|0:0,0:0:0:0:
68,219,71038,6,0,P|94:253|134:278,1,90,2|0,0:0|0:0,0:0:0:0:
256,246,71368,1,8,0:0:0:0:
424,132,71533,2,0,P|397:215|388:312,1,180
301,66,72027,2,0,P|314:107|310:158,1,90,8|0,0:0|0:0,0:0:0:0:
215,340,72357,5,6,0:0:0:0:
165,224,72522,1,0,0:0:0:0:
372,229,72687,2,0,L|351:325,1,90,8|0,0:0|0:0,0:0:0:0:
116,291,73016,2,0,P|82:212|140:146,1,180,6|8,0:0|0:0,0:0:0:0:
424,132,73511,5,8,0:0:0:0:
215,340,73840,1,8,0:0:0:0:
256,29,74170,2,0,P|280:85|254:156,1,135,8|0,0:0|0:0,0:0:0:0:
232,178,74500,1,0,0:0:0:0:
127,65,74665,1,8,0:0:0:0:
37,189,74830,6,0,L|54:286,1,90,4|2,0:0|0:0,0:0:0:0:
127,65,75159,1,2,0:0:0:0:
127,65,75242,1,2,0:0:0:0:
127,65,75324,2,0,L|119:115,1,45,8|0,0:0|0:0,0:0:0:0:
225,223,75489,2,0,L|233:173,2,45,2|0|2,0:0|0:0|0:0,0:0:0:0:
324,340,75819,1,2,0:0:0:0:
324,340,75901,1,2,0:0:0:0:
324,340,75983,2,0,L|371:313,1,45,8|0,0:0|0:0,0:0:0:0:
398,208,76148,2,0,L|358:185,1,45
276,151,76313,5,2,0:0:0:0:
255,141,76395,1,0,0:0:0:0:
233,136,76477,1,2,0:0:0:0:
211,137,76560,1,0,0:0:0:0:
189,143,76642,1,10,0:0:0:0:
170,154,76725,1,2,0:0:0:0:
154,170,76807,1,2,0:0:0:0:
143,189,76889,1,2,0:0:0:0:
136,211,76972,6,0,L|121:258,1,45,2|2,0:0|0:0,0:0:0:0:
210,344,77137,2,0,L|225:302,1,45,2|2,0:0|0:0,0:0:0:0:
315,221,77302,2,0,L|335:264,1,45,8|0,0:0|0:0,0:0:0:0:
436,340,77467,2,0,L|456:297,1,45,2|2,0:0|0:0,0:0:0:0:
398,207,77632,5,6,0:0:0:0:
324,339,77797,1,0,0:0:0:0:
346,142,77961,1,8,0:0:0:0:
366,276,78126,1,0,0:0:0:0:
471,191,78291,1,2,0:0:0:0:
346,142,78456,2,0,P|308:155|253:158,1,90,0|8,0:0|0:0,0:0:0:0:
115,126,78786,6,0,P|134:164|136:213,1,90,0|2,0:0|0:0,0:0:0:0:
67,363,79115,2,0,P|48:325|46:276,1,90,0|8,0:0|0:0,0:0:0:0:
155,64,79445,2,0,P|70:66|47:155,1,180
125,298,79939,2,0,L|217:278,1,90,8|0,0:0|0:0,0:0:0:0:
390,327,80269,5,2,0:0:0:0:
403,192,80434,2,0,P|363:211|315:214,1,90,0|8,0:0|0:0,0:0:0:0:
331,97,80764,2,0,P|371:78|419:75,1,90,0|2,0:0|0:0,0:0:0:0:
256,31,81093,1,0,0:0:0:0:
403,192,81258,1,8,0:0:0:0:
418,75,81423,1,0,0:0:0:0:
256,31,81588,5,2,0:0:0:0:
240,47,81670,1,2,0:0:0:0:
221,59,81752,1,2,0:0:0:0:
200,67,81835,1,0,0:0:0:0:
178,70,81917,1,8,0:0:0:0:
156,69,82000,1,0,0:0:0:0:
134,63,82082,1,2,0:0:0:0:
114,52,82164,1,2,0:0:0:0:
97,37,82247,5,2,0:0:0:0:
92,68,82329,1,2,0:0:0:0:
86,99,82411,1,2,0:0:0:0:
81,130,82494,1,2,0:0:0:0:
75,161,82577,5,10,0:0:0:0:
91,203,82659,1,2,0:0:0:0:
107,245,82742,1,2,0:0:0:0:
123,286,82824,1,2,0:0:0:0:
139,327,82906,5,6,0:0:0:0:
256,251,83071,1,0,0:0:0:0:
178,70,83236,2,0,L|170:166,1,90,8|0,0:0|0:0,0:0:0:0:
317,32,83566,1,2,0:0:0:0:
317,32,83731,2,0,L|294:118,1,90,0|8,0:0|0:0,0:0:0:0:
256,251,84060,6,0,P|267:295|288:336,1,90,0|2,0:0|0:0,0:0:0:0:
423,337,84390,2,0,P|412:293|391:252,1,90,0|8,0:0|0:0,0:0:0:0:
455,97,84720,2,0,P|379:141|291:118,1,180
185,38,85214,1,8,0:0:0:0:
22,150,85379,6,0,P|107:129|183:173,1,180,12|0,0:0|0:0,0:0:0:0:
255,287,85873,1,8,0:0:0:0:
50,339,86038,2,0,P|29:258|102:213,1,180,12|0,0:0|0:0,0:0:0:0:
255,287,86533,1,8,0:0:0:0:
438,182,86698,6,0,P|458:101|385:56,1,180,4|0,0:0|0:0,0:0:0:0:
351,214,87192,2,0,L|342:309,1,90,12|0,0:0|0:0,0:0:0:0:
229,93,87522,1,6,0:0:0:0:
270,202,87687,1,8,0:0:0:0:
393,127,87851,1,12,0:0:0:0:
190,166,88016,1,0,0:0:0:0:
318,36,88181,6,0,L|309:131,1,90,4|0,0:0|0:0,0:0:0:0:
211,348,88511,1,8,0:0:0:0:
211,348,88676,2,0,L|202:253,1,90,0|2,0:0|0:0,0:0:0:0:
306,288,89005,1,0,0:0:0:0:
190,166,89170,1,8,0:0:0:0:
364,241,89335,6,0,P|370:327|293:361,1,180
110,311,89830,2,0,L|101:216,1,90,8|0,0:0|0:0,0:0:0:0:
202,259,90159,1,2,0:0:0:0:
10,272,90324,2,0,L|1:177,1,90,0|8,0:0|0:0,0:0:0:0:
75,103,90654,1,0,0:0:0:0:
202,259,90819,5,6,0:0:0:0:
286,155,90983,1,0,0:0:0:0:
158,13,91148,1,8,0:0:0:0:
158,13,91313,2,0,L|180:151,1,135
186,181,91643,1,0,0:0:0:0:
281,300,91808,1,8,0:0:0:0:
360,170,91972,6,0,P|327:91|235:96,1,180
202,259,92467,1,8,0:0:0:0:
286,155,92632,1,0,0:0:0:0:
159,14,92797,2,0,L|109:5,2,45,2|0|0,0:0|0:0|0:0,0:0:0:0:
286,156,93126,2,0,L|236:147,2,45,8|0|0,0:0|0:0|0:0,0:0:0:0:
448,32,93456,6,0,P|497:103|450:180,1,180,6|8,0:0|0:0,0:0:0:0:
286,155,93950,2,0,L|265:297,1,135
281,321,94280,1,0,0:0:0:0:
462,282,94445,2,0,P|418:266|369:260,1,90,8|0,0:0|0:0,0:0:0:0:
184,341,94775,6,0,P|99:362|31:310,1,180,6|8,0:0|0:0,0:0:0:0:
140,125,95269,2,0,B|158:169|158:169|114:209|114:209|133:242|119:279,1,180,6|2,0:0|0:0,0:0:0:0:
285,182,95764,2,0,L|210:239,1,90,8|0,0:0|0:0,0:0:0:0:
62,144,96093,5,6,0:0:0:0:
119,280,96258,1,0,0:0:0:0:
221,131,96423,1,8,0:0:0:0:
134,198,96588,1,0,0:0:0:0:
134,14,96753,5,8,0:0:0:0:
62,144,96917,1,8,0:0:0:0:
230,282,97082,1,8,0:0:0:0:
265,275,97165,1,8,0:0:0:0:
300,268,97247,1,8,0:0:0:0:
335,261,97330,1,8,0:0:0:0:
370,254,97412,5,6,0:0:0:0:
343,364,97577,1,8,0:0:0:0:
343,364,97659,1,8,0:0:0:0:
343,364,97742,1,8,0:0:0:0:
343,95,97906,1,6,0:0:0:0:
344,84,98236,5,2,0:0:0:0:
266,183,98401,1,8,0:0:0:0:
370,254,98566,1,0,0:0:0:0:
450,156,98731,5,6,0:0:0:0:
266,183,98978,2,0,L|223:202,1,45,2|2,0:0|0:0,0:0:0:0:
129,48,99225,1,2,0:0:0:0:
257,282,99472,2,0,L|256:332,1,45,2|2,0:0|0:0,0:0:0:0:
370,254,99720,1,8,0:0:0:0:
266,183,99884,5,2,0:0:0:0:
264,178,99967,1,2,0:0:0:0:
262,173,100049,1,2,0:0:0:0:
260,168,100132,1,2,0:0:0:0:
258,163,100214,1,2,0:0:0:0:
256,158,100297,1,2,0:0:0:0:
240,125,100379,5,6,0:0:0:0:
212,102,100461,1,2,0:0:0:0:
179,88,100543,1,2,0:0:0:0:
143,86,100626,1,2,0:0:0:0:
108,95,100708,1,2,0:0:0:0:
77,113,100791,1,2,0:0:0:0:
54,141,100873,1,2,0:0:0:0:
42,175,100956,1,2,0:0:0:0:
39,210,101038,6,0,L|30:270,1,45,10|0,0:0|0:0,0:0:0:0:
123,360,101203,2,0,L|132:300,1,45,2|0,0:0|0:0,0:0:0:0:
152,208,101368,6,0,P|238:242|305:186,2,180,6|8|2,0:0|0:0|0:0,0:0:0:0:
240,39,102192,1,0,0:0:0:0:
226,165,102357,1,8,0:0:0:0:
315,104,102522,1,0,0:0:0:0:
315,104,102604,1,0,0:0:0:0:
315,104,102687,6,0,L|410:81,1,90,2|0,0:0|0:0,0:0:0:0:
485,14,103016,1,8,0:0:0:0:
485,155,103181,2,0,P|472:200|468:252,1,90,0|2,0:0|0:0,0:0:0:0:
366,351,103511,2,0,P|361:306|348:263,1,90,0|8,0:0|0:0,0:0:0:0:
226,165,103840,1,0,0:0:0:0:
379,44,104005,5,6,0:0:0:0:
330,186,104170,1,0,0:0:0:0:
190,91,104335,1,8,0:0:0:0:
170,102,104417,1,2,0:0:0:0:
155,119,104499,1,2,0:0:0:0:
145,139,104582,1,0,0:0:0:0:
141,161,104664,1,6,0:0:0:0:
143,183,104747,1,2,0:0:0:0:
152,204,104829,1,2,0:0:0:0:
165,222,104911,1,2,0:0:0:0:
183,235,104994,2,0,L|165:333,1,90,8|0,0:0|0:0,0:0:0:0:
330,186,105324,5,6,0:0:0:0:
271,277,105489,1,2,0:0:0:0:
167,74,105654,1,8,0:0:0:0:
226,165,105819,1,0,0:0:0:0:
330,21,105983,1,2,0:0:0:0:
330,21,106066,1,2,0:0:0:0:
330,21,106148,2,0,L|330:69,1,45,2|0,0:0|0:0,0:0:0:0:
396,124,106313,1,8,0:0:0:0:
396,124,106395,1,2,0:0:0:0:
396,124,106478,2,0,L|419:168,1,45,2|0,0:0|0:0,0:0:0:0:
403,248,106643,5,6,0:0:0:0:
484,106,106808,1,0,0:0:0:0:
330,186,106972,1,8,0:0:0:0:
426,43,107137,1,0,0:0:0:0:
485,211,107302,2,0,P|488:260|473:307,1,90,2|0,0:0|0:0,0:0:0:0:
390,364,107632,1,8,0:0:0:0:
390,364,107714,1,2,0:0:0:0:
390,364,107797,2,0,L|344:340,1,45,2|0,0:0|0:0,0:0:0:0:
312,269,107961,6,0,P|277:295|230:308,1,90,2|0,0:0|0:0,0:0:0:0:
56,237,108291,1,8,0:0:0:0:
80,217,108373,1,0,0:0:0:0:
109,204,108455,1,0,0:0:0:0:
140,200,108538,1,0,0:0:0:0:
171,204,108621,1,2,0:0:0:0:
258,77,108786,1,0,0:0:0:0:
117,18,108950,1,8,0:0:0:0:
117,18,109033,1,2,0:0:0:0:
117,18,109115,2,0,L|90:66,1,45,2|0,0:0|0:0,0:0:0:0:
75,127,109280,6,0,P|83:166|79:217,1,90,6|0,0:0|0:0,0:0:0:0:
76,374,109610,2,0,P|100:342|142:313,1,90,8|0,0:0|0:0,0:0:0:0:
271,347,109939,1,2,0:0:0:0:
185,242,110104,1,0,0:0:0:0:
300,172,110269,1,8,0:0:0:0:
328,185,110351,1,0,0:0:0:0:
359,188,110433,1,0,0:0:0:0:
390,181,110516,1,0,0:0:0:0:
416,164,110599,6,0,L|488:93,1,90,12|0,0:0|0:0,0:0:0:0:
377,357,110928,2,0,L|399:270,1,90,12|0,0:0|0:0,0:0:0:0:
300,172,111258,1,2,0:0:0:0:
263,145,111340,1,2,0:0:0:0:
220,137,111422,1,2,0:0:0:0:
177,150,111505,1,2,0:0:0:0:
144,180,111588,2,0,L|101:194,1,45,10|2,0:0|0:0,0:0:0:0:
63,322,111753,2,0,L|105:307,1,45,14|0,0:0|0:0,0:0:0:0:
216,319,111917,6,0,L|229:230,1,90,6|0,0:0|0:0,0:0:0:0:
356,297,112247,2,0,P|441:314|508:250,2,180,8|2|8,0:0|0:0|0:0,0:0:0:0:
407,173,113071,1,0,0:0:0:0:
285,67,113236,5,2,0:0:0:0:
356,298,113401,1,0,0:0:0:0:
376,90,113566,1,8,0:0:0:0:
272,177,113731,2,0,L|170:164,1,90,0|2,0:0|0:0,0:0:0:0:
48,43,114060,2,0,P|61:86|61:137,1,90,0|8,0:0|0:0,0:0:0:0:
27,262,114390,1,0,0:0:0:0:
197,334,114555,6,0,P|163:254|183:165,2,180,6|8|6,0:0|0:0|0:0,0:0:0:0:
299,246,115379,1,0,0:0:0:0:
328,377,115544,1,8,0:0:0:0:
328,377,115626,1,0,0:0:0:0:
328,377,115709,1,0,0:0:0:0:
424,284,115873,5,2,0:0:0:0:
437,266,115955,1,2,0:0:0:0:
447,245,116037,1,2,0:0:0:0:
452,224,116120,1,0,0:0:0:0:
453,201,116202,1,8,0:0:0:0:
449,179,116285,1,2,0:0:0:0:
440,158,116367,1,2,0:0:0:0:
428,140,116449,1,0,0:0:0:0:
412,124,116533,5,2,0:0:0:0:
389,126,116615,1,2,0:0:0:0:
367,127,116698,1,2,0:0:0:0:
344,127,116780,1,0,0:0:0:0:
322,124,116862,1,8,0:0:0:0:
300,119,116945,1,0,0:0:0:0:
279,112,117027,1,8,0:0:0:0:
258,103,117109,1,0,0:0:0:0:
238,93,117192,6,0,P|194:89|145:92,1,90,14|0,0:0|0:0,0:0:0:0:
91,214,117522,2,0,P|135:218|184:215,1,90,8|0,0:0|0:0,0:0:0:0:
355,217,117851,2,0,P|324:272|324:348,1,135,2|0,0:0|0:0,0:0:0:0:
251,369,118181,2,0,P|234:328|203:295,1,90,8|0,0:0|0:0,0:0:0:0:
26,290,118511,6,0,P|108:307|208:294,1,180,6|8,0:0|0:0,0:0:0:0:
356,218,119005,2,0,L|377:129,1,90,0|2,0:0|0:0,0:0:0:0:
282,146,119335,1,0,0:0:0:0:
459,192,119500,2,0,L|480:105,1,90,8|0,0:0|0:0,0:0:0:0:
336,28,119830,6,0,P|278:46|203:22,1,135,6|0,0:0|0:0,0:0:0:0:
167,95,120159,2,0,P|181:136|181:186,1,90,8|0,0:0|0:0,0:0:0:0:
271,244,120489,2,0,P|251:282|216:318,1,90,2|0,0:0|0:0,0:0:0:0:
56,319,120819,2,0,P|75:280|110:244,1,90,8|0,0:0|0:0,0:0:0:0:
283,146,121148,5,6,0:0:0:0:
219,316,121313,1,0,0:0:0:0:
167,95,121478,1,12,0:0:0:0:
271,244,121643,1,2,0:0:0:0:
271,244,121725,1,0,0:0:0:0:
271,244,121808,2,0,L|303:289,1,45,2|2,0:0|0:0,0:0:0:0:
372,343,121972,2,0,L|404:298,1,45,2|2,0:0|0:0,0:0:0:0:
417,222,122137,2,0,L|363:222,1,45,12|0,0:0|0:0,0:0:0:0:
283,146,122302,1,2,0:0:0:0:
283,146,122384,1,2,0:0:0:0:
283,146,122467,6,0,P|268:98|267:55,1,90,6|0,0:0|0:0,0:0:0:0:
371,0,122797,2,0,P|385:42|387:91,1,90,8|0,0:0|0:0,0:0:0:0:
283,146,123126,1,2,0:0:0:0:
251,142,123209,1,0,0:0:0:0:
219,139,123291,1,0,0:0:0:0:
187,136,123373,1,0,0:0:0:0:
155,131,123456,1,8,0:0:0:0:
46,244,123621,6,0,L|138:226,1,90,0|2,0:0|0:0,0:0:0:0:
257,293,123950,1,0,0:0:0:0:
283,146,124115,1,8,0:0:0:0:
443,91,124280,2,0,L|419:196,1,90,0|2,0:0|0:0,0:0:0:0:
283,146,124610,1,0,0:0:0:0:
370,288,124775,1,8,0:0:0:0:
388,313,124857,1,0,0:0:0:0:
405,338,124939,1,0,0:0:0:0:
257,293,125104,5,2,0:0:0:0:
283,146,125269,1,0,0:0:0:0:
257,293,125434,1,8,0:0:0:0:
257,293,125516,1,0,0:0:0:0:
257,293,125599,2,0,P|216:315|172:320,1,90,0|2,0:0|0:0,0:0:0:0:
82,220,125928,2,0,P|123:198|167:193,1,90,0|8,0:0|0:0,0:0:0:0:
283,146,126258,1,0,0:0:0:0:
137,30,126423,6,0,L|117:124,1,90,2|0,0:0|0:0,0:0:0:0:
150,270,126753,1,8,0:0:0:0:
150,270,126917,1,0,0:0:0:0:
283,146,127082,1,2,0:0:0:0:
83,221,127247,1,4,0:0:0:0:
68,248,127329,1,0,0:0:0:0:
65,279,127411,1,8,0:0:0:0:
74,310,127494,1,0,0:0:0:0:
93,334,127576,1,0,0:0:0:0:
279,262,127742,5,6,0:0:0:0:
208,365,127906,1,0,0:0:0:0:
201,157,128071,1,8,0:0:0:0:
278,339,128236,2,0,P|351:294|338:209,1,180,6|2,0:0|0:0,0:0:0:0:
201,157,128731,1,8,0:0:0:0:
174,152,128813,1,0,0:0:0:0:
147,147,128895,1,0,0:0:0:0:
120,142,128978,1,0,0:0:0:0:
93,138,129060,5,6,0:0:0:0:
186,53,129225,1,0,0:0:0:0:
201,157,129390,1,8,0:0:0:0:
32,199,129555,2,0,P|11:115|70:52,1,180,6|2,0:0|0:0,0:0:0:0:
186,53,130049,2,0,P|232:54|277:44,1,90,8|0,0:0|0:0,0:0:0:0:
466,165,130379,6,0,P|381:144|297:185,1,180,6|8,0:0|0:0,0:0:0:0:
176,358,130873,1,2,0:0:0:0:
176,358,130956,1,2,0:0:0:0:
176,358,131038,2,0,P|117:378|45:366,1,135,2|0,0:0|0:0,0:0:0:0:
32,289,131368,2,0,L|32:196,1,90,8|0,0:0|0:0,0:0:0:0:
177,132,131698,6,0,B|228:128|228:128|249:95|249:95|298:97|330:64,1,180,6|8,0:0|0:0,0:0:0:0:
215,12,132192,1,0,0:0:0:0:
108,79,132357,2,0,P|92:118|97:165,1,90,2|0,0:0|0:0,0:0:0:0:
207,226,132687,2,0,L|350:215,1,135,8|0,0:0|0:0,0:0:0:0:
377,215,133016,5,6,0:0:0:0:
256,192,133099,12,0,134994,0:0:0:0:
390,311,135324,5,12,0:0:0:0:
276,256,135489,2,0,P|190:241|113:289,1,180,8|0,0:0|0:0,0:0:0:0:
214,364,135983,1,2,0:0:0:0:
390,311,136148,2,0,B|394:284|414:269|414:269|382:230|399:217|399:217|414:182|390:149,1,180,8|0,0:0|0:0,0:0:0:0:
306,42,136643,1,2,0:0:0:0:
194,118,136808,6,0,P|108:133|31:85,1,180,10|0,0:0|0:0,0:0:0:0:
306,42,137302,1,2,0:0:0:0:
266,192,137467,1,0,0:0:0:0:
262,219,137549,1,0,0:0:0:0:
248,241,137631,1,2,0:0:0:0:
225,256,137714,1,0,0:0:0:0:
205,274,137796,1,0,0:0:0:0:
210,301,137879,1,0,0:0:0:0:
224,324,137961,1,2,0:0:0:0:
245,340,138043,1,0,0:0:0:0:
271,349,138126,6,0,P|315:339|362:336,1,90,6|0,0:0|0:0,0:0:0:0:
503,270,138456,1,0,0:0:0:0:
365,74,138621,1,2,0:0:0:0:
400,222,138786,2,0,P|431:191|475:168,1,90,8|2,0:0|0:0,0:0:0:0:
503,270,139115,1,0,0:0:0:0:
365,74,139280,2,0,P|334:105|290:128,1,90,8|8,0:0|0:0,0:0:0:0:
96,50,139610,6,0,P|79:91|76:145,1,90,2|0,0:0|0:0,0:0:0:0:
147,277,139939,1,2,0:0:0:0:
257,199,140104,1,0,0:0:0:0:
281,186,140186,1,0,0:0:0:0:
307,180,140269,1,2,0:0:0:0:
334,181,140351,1,0,0:0:0:0:
360,188,140433,1,0,0:0:0:0:
383,203,140516,1,0,0:0:0:0:
401,222,140598,1,8,0:0:0:0:
147,277,140764,6,0,P|168:189|185:101,1,180,8|0,0:0|0:0,0:0:0:0:
319,264,141258,1,2,0:0:0:0:
196,342,141423,2,0,P|110:350|63:279,1,180,8|0,0:0|0:0,0:0:0:0:
274,112,141917,2,0,P|263:155|258:202,1,90,2|8,0:0|0:0,0:0:0:0:
290,347,142247,5,2,0:0:0:0:
462,232,142412,1,0,0:0:0:0:
438,220,142494,1,0,0:0:0:0:
411,217,142576,1,8,0:0:0:0:
384,219,142659,1,0,0:0:0:0:
359,227,142741,1,0,0:0:0:0:
337,243,142824,1,0,0:0:0:0:
320,263,142906,2,0,L|266:269,2,45,2|0|0,0:0|0:0|0:0,0:0:0:0:
275,112,143236,1,8,0:0:0:0:
143,55,143401,6,0,P|117:138|163:212,1,180,8|0,0:0|0:0,0:0:0:0:
275,112,143895,1,2,0:0:0:0:
117,137,144060,2,0,P|117:226|86:326,1,180
233,284,144555,2,0,P|278:271|325:264,1,90,2|8,0:0|0:0,0:0:0:0:
458,317,144884,5,2,0:0:0:0:
390,199,145049,1,0,0:0:0:0:
296,348,145214,1,2,0:0:0:0:
458,317,145379,1,0,0:0:0:0:
485,282,145461,1,0,0:0:0:0:
496,238,145543,1,2,0:0:0:0:
489,194,145626,1,0,0:0:0:0:
464,157,145709,6,0,L|464:113,1,45,8|0,0:0|0:0,0:0:0:0:
332,27,145873,2,0,L|332:71,1,45,0|2,0:0|0:0,0:0:0:0:
390,199,146038,2,0,L|356:237,2,45,10|0|6,0:0|0:0|0:0,0:0:0:0:
332,27,146368,5,0,0:0:0:0:
263,154,146533,2,0,P|221:169|177:175,1,90,2|0,0:0|0:0,0:0:0:0:
47,112,146862,1,2,0:0:0:0:
67,254,147027,2,0,L|78:346,1,90,0|2,0:0|0:0,0:0:0:0:
206,277,147357,6,0,P|260:250|336:259,1,135
390,199,147687,2,0,L|413:109,1,90,0|2,0:0|0:0,0:0:0:0:
220,0,148016,2,0,L|230:134,1,135
265,154,148346,1,0,0:0:0:0:
332,27,148511,1,2,0:0:0:0:
142,61,148676,2,0,P|98:59|51:54,1,90,0|2,0:0|0:0,0:0:0:0:
40,211,149005,5,0,0:0:0:0:
170,149,149170,1,2,0:0:0:0:
161,292,149335,1,0,0:0:0:0:
68,117,149500,2,0,P|150:145|227:93,1,180,2|2,0:0|0:0,0:0:0:0:
462,145,149994,6,0,P|380:117|303:169,1,180
306,163,150489,1,2,0:0:0:0:
366,350,150654,2,0,B|400:322|400:322|382:300|382:300|401:274|373:237|373:237|392:192,1,180
478,282,151148,2,0,P|484:327|473:376,1,90,2|0,0:0|0:0,0:0:0:0:
286,249,151478,5,2,0:0:0:0:
366,350,151643,1,0,0:0:0:0:
389,202,151808,1,2,0:0:0:0:
412,65,151972,1,0,0:0:0:0:
307,163,152137,1,2,0:0:0:0:
478,282,152302,2,0,L|495:190,1,90,0|2,0:0|0:0,0:0:0:0:
286,249,152632,6,0,P|243:255|192:273,1,90,0|2,0:0|0:0,0:0:0:0:
59,145,152961,2,0,P|101:159|146:165,1,90,0|2,0:0|0:0,0:0:0:0:
256,72,153291,1,0,0:0:0:0:
412,65,153456,2,0,L|403:159,1,90,2|0,0:0|0:0,0:0:0:0:
256,72,153786,1,10,0:0:0:0:
440,112,153950,6,0,L|427:258,1,135,2|0,0:0|0:0,0:0:0:0:
444,278,154280,1,0,0:0:0:0:
307,163,154445,1,8,0:0:0:0:
185,274,154610,2,0,P|269:301|342:245,1,180
256,72,155104,1,8,0:0:0:0:
204,187,155269,1,0,0:0:0:0:
141,26,155434,6,0,P|153:71|148:116,1,90,2|0,0:0|0:0,0:0:0:0:
119,148,155681,1,2,0:0:0:0:
88,180,155763,1,8,0:0:0:0:
69,221,155845,1,0,0:0:0:0:
66,265,155928,1,2,0:0:0:0:
79,308,156010,1,2,0:0:0:0:
106,344,156093,6,0,L|146:366,1,45,2|2,0:0|0:0,0:0:0:0:
300,330,156258,2,0,L|260:308,1,45,8|8,0:0|0:0,0:0:0:0:
204,187,156423,2,0,L|204:134,1,45,8|8,0:0|0:0,0:0:0:0:
316,186,156588,2,0,L|316:231,2,45,8|8|6,0:0|0:0|0:0,0:0:0:0:
257,21,156917,6,0,P|297:39|342:43,1,90,0|2,0:0|0:0,0:0:0:0:
457,15,157247,1,0,0:0:0:0:
437,130,157412,1,2,0:0:0:0:
486,236,157577,2,0,L|454:322,1,90,0|2,0:0|0:0,0:0:0:0:
300,331,157906,6,0,P|237:313|171:331,1,135
137,344,158236,2,0,L|154:252,1,90,0|2,0:0|0:0,0:0:0:0:
257,21,158566,2,0,P|287:105|253:186,1,180
55,241,159060,1,2,0:0:0:0:
130,129,159225,1,0,0:0:0:0:
138,345,159390,5,2,0:0:0:0:
252,273,159555,1,0,0:0:0:0:
132,210,159720,1,2,0:0:0:0:
138,345,159884,1,0,0:0:0:0:
347,309,160049,5,2,0:0:0:0:
257,190,160214,1,0,0:0:0:0:
201,329,160379,1,2,0:0:0:0:
347,309,160543,1,0,0:0:0:0:
390,158,160709,5,2,0:0:0:0:
270,269,160874,1,0,0:0:0:0:
424,315,161039,1,2,0:0:0:0:
466,122,161203,2,0,P|393:77|316:116,1,180
270,269,161698,2,0,P|243:289|186:302,1,90,2|0,0:0|0:0,0:0:0:0:
29,192,162027,5,6,0:0:0:0:
94,310,162192,1,0,0:0:0:0:
195,220,162357,2,0,L|208:130,1,90,2|0,0:0|0:0,0:0:0:0:
90,18,162687,2,0,L|103:108,1,90,6|0,0:0|0:0,0:0:0:0:
219,39,163016,1,2,0:0:0:0:
195,220,163181,6,0,P|206:264|208:313,1,90,4|2,0:0|0:0,0:0:0:0:
402,341,163511,2,0,P|391:297|389:248,1,90,4|2,0:0|0:0,0:0:0:0:
462,71,163840,2,0,P|388:118|304:93,1,180,4|0,0:0|0:0,0:0:0:0:
304,93,164335,1,10,0:0:0:0:
139,140,164500,6,0,P|98:216|137:294,1,180,2|0,0:0|0:0,0:0:0:0:
137,294,164994,1,8,0:0:0:0:
354,242,165159,2,0,P|280:194|196:219,1,180
248,370,165654,2,0,L|266:281,1,90,8|0,0:0|0:0,0:0:0:0:
304,93,165983,5,2,0:0:0:0:
304,93,166066,1,0,0:0:0:0:
304,93,166148,1,0,0:0:0:0:
304,93,166231,1,0,0:0:0:0:
304,93,166313,1,2,0:0:0:0:
304,93,166395,1,2,0:0:0:0:
304,93,166478,1,2,0:0:0:0:
304,93,166560,1,2,0:0:0:0:
304,93,166643,6,0,L|254:79,1,45,2|2,0:0|0:0,0:0:0:0:
164,29,166808,2,0,L|118:54,1,45,2|2,0:0|0:0,0:0:0:0:
16,53,166972,2,0,L|1:103,1,45,8|2,0:0|0:0,0:0:0:0:
123,208,167137,2,0,L|135:164,1,45,2|2,0:0|0:0,0:0:0:0:
164,30,167302,5,6,0:0:0:0:
220,152,167467,1,0,0:0:0:0:
25,237,167632,1,8,0:0:0:0:
81,115,167797,1,0,0:0:0:0:
126,325,167961,1,2,0:0:0:0:
304,266,168126,1,0,0:0:0:0:
123,208,168291,1,8,0:0:0:0:
214,370,168456,6,0,L|214:280,1,90,0|2,0:0|0:0,0:0:0:0:
398,223,168786,2,0,L|398:313,1,90,0|8,0:0|0:0,0:0:0:0:
468,115,169115,2,0,P|386:143|305:107,1,180
164,31,169610,1,8,0:0:0:0:
124,207,169775,1,0,0:0:0:0:
220,153,169939,5,2,0:0:0:0:
81,115,170104,1,0,0:0:0:0:
126,325,170269,1,8,0:0:0:0:
124,207,170434,1,0,0:0:0:0:
24,268,170599,1,2,0:0:0:0:
126,325,170764,1,0,0:0:0:0:
220,153,170928,1,8,0:0:0:0:
81,115,171093,1,0,0:0:0:0:
214,280,171258,5,2,0:0:0:0:
124,207,171423,1,0,0:0:0:0:
164,31,171588,1,8,0:0:0:0:
220,153,171753,2,0,P|303:175|371:121,1,180
421,256,172247,2,0,P|408:297|403:348,1,90,8|0,0:0|0:0,0:0:0:0:
214,280,172577,5,2,0:0:0:0:
214,280,172906,2,0,P|151:258|87:278,1,135,8|0,0:0|0:0,0:0:0:0:
59,301,173236,1,2,0:0:0:0:
101,172,173401,1,0,0:0:0:0:
152,344,173566,1,8,0:0:0:0:
286,327,173731,6,0,P|297:285|286:240,1,90,0|2,0:0|0:0,0:0:0:0:
101,172,174060,2,0,P|61:160|12:163,1,90,0|8,0:0|0:0,0:0:0:0:
203,133,174390,2,0,P|287:158|372:130,1,180
276,35,174884,1,8,0:0:0:0:
100,81,175049,6,0,L|101:176,1,90,0|6,0:0|0:0,0:0:0:0:
285,326,175379,1,2,0:0:0:0:
246,303,175461,1,2,0:0:0:0:
201,299,175543,1,8,0:0:0:0:
159,313,175626,1,0,0:0:0:0:
126,343,175709,2,0,P|84:355|30:351,1,90,0|2,0:0|0:0,0:0:0:0:
137,227,176038,1,2,0:0:0:0:
179,212,176120,1,2,0:0:0:0:
223,208,176202,1,8,0:0:0:0:
267,216,176285,1,0,0:0:0:0:
308,235,176368,6,0,P|393:250|452:187,1,180,0|2,0:0|0:0,0:0:0:0:
390,25,176862,1,8,0:0:0:0:
366,169,177027,1,2,0:0:0:0:
366,169,177110,1,2,0:0:0:0:
366,169,177192,1,2,0:0:0:0:
366,169,177275,1,0,0:0:0:0:
366,169,177357,1,8,0:0:0:0:
198,82,177522,1,10,0:0:0:0:
158,103,177604,1,2,0:0:0:0:
114,105,177686,1,0,0:0:0:0:
73,87,177769,1,0,0:0:0:0:
43,53,177851,1,2,0:0:0:0:
28,229,178016,6,0,P|72:214|117:209,1,90,0|8,0:0|0:0,0:0:0:0:
290,255,178346,1,0,0:0:0:0:
196,352,178511,1,2,0:0:0:0:
199,216,178676,1,0,0:0:0:0:
198,82,178840,1,8,0:0:0:0:
290,255,179005,6,0,L|275:357,1,90,0|2,0:0|0:0,0:0:0:0:
401,214,179335,2,0,L|386:316,1,90,0|8,0:0|0:0,0:0:0:0:
196,352,179665,2,0,P|111:329|24:369,1,180
199,216,180159,1,8,0:0:0:0:
103,119,180324,1,0,0:0:0:0:
68,249,180489,5,2,0:0:0:0:
206,113,180654,1,0,0:0:0:0:
148,284,180819,1,8,0:0:0:0:
23,163,180983,1,0,0:0:0:0:
199,216,181148,1,2,0:0:0:0:
103,119,181313,1,0,0:0:0:0:
214,24,181478,2,0,L|206:117,1,90,8|0,0:0|0:0,0:0:0:0:
244,293,181808,5,2,0:0:0:0:
329,189,181972,1,0,0:0:0:0:
360,360,182137,1,8,0:0:0:0:
395,151,182302,2,0,P|317:114|254:171,1,180
160,358,182797,2,0,P|158:291|146:219,1,135,8|0,0:0|0:0,0:0:0:0:
119,201,183126,5,6,0:0:0:0:
244,293,183291,1,0,0:0:0:0:
258,56,183456,1,8,0:0:0:0:
329,189,183621,1,0,0:0:0:0:
167,109,183786,2,0,P|184:141|206:190,1,90,6|0,0:0|0:0,0:0:0:0:
316,365,184115,2,0,P|334:323|355:283,1,90,8|8,0:0|0:0,0:0:0:0:
405,222,184362,1,0,0:0:0:0:
405,222,184445,5,2,0:0:0:0:
244,293,184610,2,0,L|152:308,1,90,8|2,0:0|0:0,0:0:0:0:
20,162,184939,2,0,P|106:170|167:108,1,180,8|0,0:0|0:0,0:0:0:0:
89,6,185434,1,8,0:0:0:0:
19,162,185599,6,0,L|26:258,1,90,8|2,0:0|0:0,0:0:0:0:
158,308,185928,1,2,0:0:0:0:
189,310,186010,1,2,0:0:0:0:
220,313,186092,1,8,0:0:0:0:
252,315,186175,1,0,0:0:0:0:
283,318,186258,2,0,P|330:308|375:300,1,90,0|2,0:0|0:0,0:0:0:0:
443,174,186588,1,2,0:0:0:0:
452,144,186670,1,2,0:0:0:0:
454,112,186752,1,8,0:0:0:0:
447,81,186835,1,0,0:0:0:0:
433,53,186917,2,0,L|374:32,1,45
261,92,187082,6,0,L|303:107,1,45,0|8,0:0|0:0,0:0:0:0:
353,209,187247,2,0,L|310:224,1,45
211,228,187412,1,8,0:0:0:0:
189,217,187494,1,0,0:0:0:0:
165,212,187576,1,2,0:0:0:0:
140,212,187659,1,2,0:0:0:0:
116,218,187741,1,2,0:0:0:0:
94,229,187824,1,2,0:0:0:0:
75,242,187906,1,2,0:0:0:0:
61,222,187988,1,2,0:0:0:0:
51,199,188071,1,2,0:0:0:0:
46,175,188153,1,2,0:0:0:0:
48,150,188236,1,2,0:0:0:0:
56,127,188318,1,0,0:0:0:0:
69,106,188401,6,0,P|110:89|163:81,1,90,14|0,0:0|0:0,0:0:0:0:
330,19,188731,2,0,P|347:59|355:112,1,90,8|0,0:0|0:0,0:0:0:0:
307,259,189060,1,2,0:0:0:0:
378,181,189225,2,0,P|417:166|467:162,1,90,0|8,0:0|0:0,0:0:0:0:
269,157,189555,6,0,P|228:174|175:182,1,90,0|2,0:0|0:0,0:0:0:0:
93,338,189884,2,0,P|134:321|187:313,1,90,0|8,0:0|0:0,0:0:0:0:
393,337,190214,2,0,P|423:255|372:176,1,180
274,292,190709,2,0,L|259:385,1,90,8|0,0:0|0:0,0:0:0:0:
159,135,191038,6,0,L|173:223,1,90,2|0,0:0|0:0,0:0:0:0:
270,157,191368,1,8,0:0:0:0:
208,68,191533,2,0,P|164:54|119:61,1,90,0|2,0:0|0:0,0:0:0:0:
56,146,191862,1,0,0:0:0:0:
188,299,192027,2,0,P|232:304|274:291,1,90,8|0,0:0|0:0,0:0:0:0:
382,224,192357,5,10,0:0:0:0:
386,201,192439,1,2,0:0:0:0:
391,179,192521,1,2,0:0:0:0:
395,157,192604,1,2,0:0:0:0:
400,135,192686,1,8,0:0:0:0:
404,113,192769,1,0,0:0:0:0:
409,91,192851,1,0,0:0:0:0:
413,69,192933,1,0,0:0:0:0:
418,47,193016,6,0,L|452:89,1,45,10|0,0:0|0:0,0:0:0:0:
320,78,193181,2,0,L|286:36,1,45,10|0,0:0|0:0,0:0:0:0:
254,148,193346,2,0,L|287:189,1,45,14|0,0:0|0:0,0:0:0:0:
156,179,193511,2,0,L|122:137,1,45,14|0,0:0|0:0,0:0:0:0:
214,244,193676,6,0,L|196:338,1,90,6|0,0:0|0:0,0:0:0:0:
3,273,194005,2,0,P|46:260|90:263,1,90,8|0,0:0|0:0,0:0:0:0:
197,334,194335,1,2,0:0:0:0:
323,334,194500,2,0,P|367:330|408:313,1,90,0|8,0:0|0:0,0:0:0:0:
277,170,194830,6,0,P|235:152|191:149,1,90,0|2,0:0|0:0,0:0:0:0:
147,30,195159,2,0,P|106:50|75:82,1,90,0|8,0:0|0:0,0:0:0:0:
266,43,195489,2,0,P|350:65|425:20,1,180
425,20,195983,1,8,0:0:0:0:
465,175,196148,6,0,B|443:206|458:258|458:258|406:260|406:260|379:293|379:293|405:293,1,180,8|0,0:0|0:0,0:0:0:0:
473,363,196643,1,8,0:0:0:0:
371,184,196808,2,0,P|295:138|211:161,1,180,8|0,0:0|0:0,0:0:0:0:
211,161,197302,1,12,0:0:0:0:
127,322,197467,6,0,P|214:317|272:251,1,180,8|8,0:0|0:0,0:0:0:0:
126,81,197961,2,0,L|98:173,1,90,12|0,0:0|0:0,0:0:0:0:
300,338,198291,2,0,L|272:246,1,90,12|0,0:0|0:0,0:0:0:0:
292,178,198538,1,0,0:0:0:0:
292,178,198621,2,0,L|305:125,1,45,12|0,0:0|0:0,0:0:0:0:
399,193,198786,2,0,L|388:236,1,45
273,252,198950,6,0,P|232:269|184:267,1,90,6|0,0:0|0:0,0:0:0:0:
23,189,199280,1,8,0:0:0:0:
46,303,199445,1,0,0:0:0:0:
164,384,199610,1,2,0:0:0:0:
187,270,199775,1,0,0:0:0:0:
46,303,199939,1,8,0:0:0:0:
229,335,200104,6,0,P|262:256|204:194,1,180
23,189,200599,1,8,0:0:0:0:
187,270,200764,2,0,L|325:244,1,135
362,259,201093,1,0,0:0:0:0:
288,124,201258,1,8,0:0:0:0:
414,38,201423,1,0,0:0:0:0:
414,38,201505,1,0,0:0:0:0:
414,38,201588,6,0,L|396:127,1,90,6|0,0:0|0:0,0:0:0:0:
275,31,201917,1,8,0:0:0:0:
462,163,202082,2,0,P|404:200|333:171,1,135
287,124,202412,2,0,P|243:120|203:101,1,90,0|8,0:0|0:0,0:0:0:0:
29,258,202742,6,0,P|111:228|186:273,1,180
186,273,203236,1,8,0:0:0:0:
314,357,203401,2,0,P|401:359|458:294,1,180
462,164,203895,1,8,0:0:0:0:
462,164,203978,1,0,0:0:0:0:
462,164,204060,1,0,0:0:0:0:
330,84,204225,6,0,P|292:163|328:242,1,180,6|8,0:0|0:0,0:0:0:0:
315,357,204720,1,0,0:0:0:0:
186,273,204884,2,0,P|197:205|172:142,1,135,2|0,0:0|0:0,0:0:0:0:
98,109,205214,2,0,L|3:99,1,90,8|0,0:0|0:0,0:0:0:0:
175,51,205544,6,0,B|210:78|210:78|243:48|243:48|288:69|330:42,1,180,6|8,0:0|0:0,0:0:0:0:
494,107,206038,2,0,P|427:108|367:139,1,135,6|0,0:0|0:0,0:0:0:0:
342,165,206368,1,2,0:0:0:0:
443,340,206533,2,0,P|454:297|452:251,1,90,8|0,0:0|0:0,0:0:0:0:
257,191,206862,5,6,0:0:0:0:
331,43,207027,1,2,0:0:0:0:
443,178,207192,1,8,0:0:0:0:
342,165,207357,1,2,0:0:0:0:
443,340,207522,5,8,0:0:0:0:
325,252,207687,1,8,0:0:0:0:
401,102,207851,1,8,0:0:0:0:
401,102,207934,1,8,0:0:0:0:
401,102,208016,1,8,0:0:0:0:
401,102,208099,1,8,0:0:0:0:
401,102,208181,5,6,0:0:0:0:
325,252,208346,1,0,0:0:0:0:
325,252,208428,1,0,0:0:0:0:
325,252,208511,2,0,L|325:297,1,45,2|0,0:0|0:0,0:0:0:0:
256,192,208676,2,0,P|177:154|98:191,1,180,6|2,0:0|0:0,0:0:0:0:
240,290,209170,2,0,P|281:305|325:297,1,90,8|0,0:0|0:0,0:0:0:0:
466,193,209500,5,0,0:0:0:0:
312,40,209747,2,0,L|311:87,1,45,2|2,0:0|0:0,0:0:0:0:
466,193,209994,1,2,0:0:0:0:
224,11,210242,2,0,L|223:58,1,45,0|2,0:0|0:0,0:0:0:0:
257,192,210489,1,8,0:0:0:0:
156,132,210654,5,2,0:0:0:0:
152,129,210736,1,2,0:0:0:0:
148,126,210819,1,2,0:0:0:0:
144,123,210901,1,2,0:0:0:0:
140,120,210983,1,2,0:0:0:0:
136,117,211066,1,2,0:0:0:0:
97,94,211148,5,8,0:0:0:0:
86,119,211230,1,8,0:0:0:0:
81,145,211312,1,8,0:0:0:0:
84,172,211395,1,8,0:0:0:0:
93,197,211477,1,8,0:0:0:0:
108,219,211560,1,8,0:0:0:0:
128,237,211642,1,8,0:0:0:0:
153,249,211724,1,8,0:0:0:0:
179,254,211808,6,0,L|232:247,1,45,8|0,0:0|0:0,0:0:0:0:
381,217,211972,2,0,L|338:184,1,45
256,119,212137,6,0,P|249:75|256:31,1,90,4|0,0:0|0:0,0:0:0:0:
434,147,212467,2,0,P|467:227|417:303,1,180,8|2,0:0|0:0,0:0:0:0:
289,268,212961,1,0,0:0:0:0:
336,365,213126,1,8,0:0:0:0:
383,217,213291,1,0,0:0:0:0:
256,119,213456,6,0,P|212:106|168:98,1,90,2|0,0:0|0:0,0:0:0:0:
63,133,213786,1,8,0:0:0:0:
41,238,213950,2,0,P|84:250|128:258,1,90,0|2,0:0|0:0,0:0:0:0:
170,239,214198,1,0,0:0:0:0:
170,239,214280,2,0,L|177:334,1,90,0|8,0:0|0:0,0:0:0:0:
289,269,214610,1,0,0:0:0:0:
254,117,214775,5,6,0:0:0:0:
209,109,214857,1,2,0:0:0:0:
165,101,214939,1,2,0:0:0:0:
121,93,215022,1,2,0:0:0:0:
77,81,215104,5,10,0:0:0:0:
122,73,215187,1,0,0:0:0:0:
166,65,215269,1,0,0:0:0:0:
210,57,215351,1,0,0:0:0:0:
254,49,215434,1,10,0:0:0:0:
362,144,215599,1,0,0:0:0:0:
289,269,215764,2,0,L|278:365,1,90,8|0,0:0|0:0,0:0:0:0:
440,338,216093,5,6,0:0:0:0:
353,223,216258,1,0,0:0:0:0:
428,100,216423,1,8,0:0:0:0:
428,100,216505,1,0,0:0:0:0:
428,100,216588,2,0,L|418:150,1,45
388,238,216753,5,2,0:0:0:0:
268,159,216917,1,8,0:0:0:0:
396,94,217082,1,8,0:0:0:0:
388,238,217247,1,2,0:0:0:0:
294,37,217412,5,2,0:0:0:0:
348,163,217577,1,0,0:0:0:0:
165,191,217742,1,8,0:0:0:0:
279,120,217906,1,0,0:0:0:0:
258,330,218071,1,2,0:0:0:0:
246,197,218236,1,0,0:0:0:0:
219,64,218401,1,8,0:0:0:0:
219,64,218483,1,0,0:0:0:0:
219,64,218566,1,0,0:0:0:0:
348,163,218731,6,0,P|335:213|330:260,1,90,2|0,0:0|0:0,0:0:0:0:
165,191,219060,1,8,0:0:0:0:
165,191,219143,1,0,0:0:0:0:
165,191,219225,1,0,0:0:0:0:
258,330,219390,1,2,0:0:0:0:
411,237,219555,1,0,0:0:0:0:
419,44,219720,2,0,P|361:80|289:77,1,135,8|0,0:0|0:0,0:0:0:0:
219,64,220049,6,0,L|242:162,1,90,6|0,0:0|0:0,0:0:0:0:
258,330,220379,1,8,0:0:0:0:
323,250,220544,2,0,P|366:239|411:236,1,90,0|2,0:0|0:0,0:0:0:0:
506,345,220873,2,0,P|462:355|417:358,1,90,0|8,0:0|0:0,0:0:0:0:
258,330,221203,1,0,0:0:0:0:
375,155,221368,5,6,0:0:0:0:
324,250,221533,1,0,0:0:0:0:
219,64,221698,1,12,0:0:0:0:
269,161,221863,1,0,0:0:0:0:
470,144,222027,1,6,0:0:0:0:
452,103,222109,1,0,0:0:0:0:
418,73,222191,1,0,0:0:0:0:
375,61,222274,1,0,0:0:0:0:
331,69,222357,2,0,L|284:91,1,45,12|0,0:0|0:0,0:0:0:0:
117,76,222522,2,0,L|136:35,1,45,2|2,0:0|0:0,0:0:0:0:
184,147,222687,6,0,L|196:256,1,90,6|0,0:0|0:0,0:0:0:0:
46,359,223016,2,0,P|123:319|205:350,1,180,8|2,0:0|0:0,0:0:0:0:
205,350,223428,1,2,0:0:0:0:
205,350,223511,1,2,0:0:0:0:
337,323,223676,2,0,L|358:234,1,90,8|0,0:0|0:0,0:0:0:0:
248,71,224005,6,0,L|269:160,1,90,6|0,0:0|0:0,0:0:0:0:
419,39,224335,1,8,0:0:0:0:
382,161,224500,1,0,0:0:0:0:
248,71,224665,1,2,0:0:0:0:
419,39,224830,1,0,0:0:0:0:
313,117,224994,1,8,0:0:0:0:
318,252,225159,1,0,0:0:0:0:
498,113,225324,6,0,P|452:155|369:157,1,135,6|0,0:0|0:0,0:0:0:0:
313,117,225654,2,0,P|259:155|230:218,1,135,8|0,0:0|0:0,0:0:0:0:
241,292,225983,2,0,L|241:337,2,45,6|0|0,0:0|0:0|0:0,0:0:0:0:
168,150,226313,2,0,P|131:164|77:172,1,90,8|0,0:0|0:0,0:0:0:0:
13,311,226643,6,0,P|57:317|99:332,1,90,6|0,0:0|0:0,0:0:0:0:
241,292,226972,1,8,0:0:0:0:
276,283,227055,1,2,0:0:0:0:
310,275,227137,1,2,0:0:0:0:
345,267,227220,1,2,0:0:0:0:
380,259,227302,1,2,0:0:0:0:
393,225,227384,1,0,0:0:0:0:
410,193,227467,1,2,0:0:0:0:
431,164,227549,1,2,0:0:0:0:
457,139,227632,2,0,L|497:120,1,45,10|0,0:0|0:0,0:0:0:0:
420,42,227797,2,0,L|380:61,1,45,8|0,0:0|0:0,0:0:0:0:
322,133,227961,6,0,L|227:127,1,90,14|0,0:0|0:0,0:0:0:0:
61,57,228291,1,8,0:0:0:0:
147,121,228456,1,0,0:0:0:0:
50,200,228621,5,2,0:0:0:0:
149,239,228786,1,0,0:0:0:0:
78,342,228950,5,8,0:0:0:0:
183,354,229115,1,0,0:0:0:0:
183,354,229198,1,0,0:0:0:0:
183,354,229280,6,0,P|228:340|275:333,1,90,6|0,0:0|0:0,0:0:0:0:
452,358,229610,1,8,0:0:0:0:
359,224,229775,2,0,P|347:140|348:40,1,180
458,170,230269,2,0,P|465:215|466:262,1,90,8|0,0:0|0:0,0:0:0:0:
271,334,230599,5,6,0:0:0:0:
359,224,230764,1,0,0:0:0:0:
147,121,230928,1,8,0:0:0:0:
254,242,231093,1,0,0:0:0:0:
257,18,231258,1,2,0:0:0:0:
256,144,231423,1,0,0:0:0:0:
458,170,231588,1,8,0:0:0:0:
419,290,231753,1,0,0:0:0:0:
254,242,231917,6,0,L|165:226,1,90,6|0,0:0|0:0,0:0:0:0:
25,60,232247,2,0,L|114:44,1,90,12|0,0:0|0:0,0:0:0:0:
325,85,232577,1,6,0:0:0:0:
361,101,232659,1,2,0:0:0:0:
401,102,232741,1,2,0:0:0:0:
439,88,232824,1,0,0:0:0:0:
468,60,232906,2,0,L|496:47,6,22.5,12|2|2|2|2|2|2,0:0|0:0|0:0|0:0|0:0|0:0|0:0,0:0:0:0:
458,169,233236,6,0,P|443:205|434:257,1,90,6|0,0:0|0:0,0:0:0:0:
278,329,233566,2,0,P|270:284|254:242,1,90,8|0,0:0|0:0,0:0:0:0:
232,214,233813,1,0,0:0:0:0:
207,188,233895,1,2,0:0:0:0:
174,172,233978,2,0,L|110:167,2,45,0|0|2,0:0|0:0|0:0,0:0:0:0:
236,88,234225,1,8,0:0:0:0:
91,95,234390,6,0,P|47:169|92:242,1,180
232,214,234884,1,8,0:0:0:0:
236,88,235049,2,0,P|281:70|325:59,1,90,0|2,0:0|0:0,0:0:0:0:
457,169,235379,2,0,P|415:185|371:197,1,90,0|8,0:0|0:0,0:0:0:0:
232,214,235709,1,0,0:0:0:0:
232,214,235791,1,0,0:0:0:0:
232,214,235873,5,2,0:0:0:0:
236,88,236038,1,0,0:0:0:0:
299,300,236203,1,8,0:0:0:0:
372,197,236368,1,0,0:0:0:0:
153,144,236533,1,2,0:0:0:0:
297,147,236698,1,0,0:0:0:0:
206,300,236862,1,8,0:0:0:0:
232,214,237027,1,0,0:0:0:0:
153,53,237192,5,2,0:0:0:0:
69,147,237357,1,0,0:0:0:0:
157,237,237522,1,8,0:0:0:0:
296,147,237687,2,0,P|376:112|450:158,1,180,0|2,0:0|0:0,0:0:0:0:
385,322,238181,2,0,P|348:337|290:341,1,90,8|0,0:0|0:0,0:0:0:0:
157,237,238511,5,6,0:0:0:0:
217,377,238676,1,0,0:0:0:0:
319,264,238840,1,8,0:0:0:0:
157,237,239005,2,0,L|56:229,1,90,2|0,0:0|0:0,0:0:0:0:
198,148,239335,1,2,0:0:0:0:
243,294,239500,1,8,0:0:0:0:
257,96,239665,6,0,P|174:74|120:140,1,180,4|0,0:0|0:0,0:0:0:0:
156,237,240159,1,8,0:0:0:0:
319,264,240324,2,0,L|335:124,1,135,6|0,0:0|0:0,0:0:0:0:
380,65,240654,1,2,0:0:0:0:
380,65,240736,1,2,0:0:0:0:
380,65,240819,2,0,P|423:82|475:83,1,90,8|0,0:0|0:0,0:0:0:0:
472,215,241148,6,0,P|385:205|320:263,1,180,6|8,0:0|0:0,0:0:0:0:
54,286,241643,2,0,P|140:296|205:238,1,180
256,97,242137,2,0,L|256:7,1,90,8|0,0:0|0:0,0:0:0:0:
103,42,242467,6,0,L|103:176,1,135,6|0,0:0|0:0,0:0:0:0:
119,209,242797,1,8,0:0:0:0:
256,97,242961,1,0,0:0:0:0:
328,188,243126,2,0,P|291:207|239:213,1,90,2|0,0:0|0:0,0:0:0:0:
148,346,243456,2,0,L|284:320,1,135,8|0,0:0|0:0,0:0:0:0:
325,313,243786,5,6,0:0:0:0:
256,192,243868,12,2,244775,0:0:0:0:
256,191,245104,5,8,0:0:0:0:
256,191,245187,1,8,0:0:0:0:
256,191,245269,1,8,0:0:0:0:
256,191,245351,1,8,0:0:0:0:
256,191,245434,1,8,0:0:0:0:
256,191,245516,1,8,0:0:0:0:
256,191,245599,1,8,0:0:0:0:
256,191,245681,1,8,0:0:0:0:
256,191,245764,2,0,B|262:246|237:277|237:277|248:305|243:320,2,135,0|0|0,0:0|0:0|0:0,0:0:0:0:
332,57,246423,5,4,0:1:0:0:
263,199,246588,1,0,0:0:0:0:
263,199,246670,1,0,0:0:0:0:
263,199,246753,2,0,P|219:192|171:196,1,90,8|0,0:0|0:0,0:0:0:0:
125,60,247082,1,2,0:0:0:0:
153,73,247164,1,2,0:0:0:0:
184,79,247246,1,2,0:0:0:0:
215,77,247329,1,0,0:0:0:0:
244,67,247412,2,0,P|287:56|332:56,1,90,8|0,0:0|0:0,0:0:0:0:
373,185,247742,5,2,0:0:0:0:
453,77,247906,1,0,0:0:0:0:
401,202,248071,1,8,0:0:0:0:
506,285,248236,1,0,0:0:0:0:
506,285,248319,1,0,0:0:0:0:
506,285,248401,1,2,0:0:0:0:
402,372,248566,1,0,0:0:0:0:
293,234,248731,2,0,P|283:190|292:142,1,90,8|0,0:0|0:0,0:0:0:0:
308,104,248978,1,0,0:0:0:0:
308,104,249060,6,0,P|224:128|147:87,2,180,2|8|2,0:0|0:0|0:0,0:0:0:0:
452,28,249884,1,0,0:0:0:0:
400,202,250049,1,8,0:0:0:0:
309,104,250214,1,0,0:0:0:0:
470,121,250379,6,0,L|516:111,2,45,2|2|2,0:0|0:0|0:0,0:0:0:0:
290,219,250709,2,0,P|246:210|198:207,1,90,8|0,0:0|0:0,0:0:0:0:
120,348,251038,2,0,P|164:344|208:335,1,90,2|0,0:0|0:0,0:0:0:0:
235,327,251286,1,0,0:0:0:0:
259,315,251368,1,8,0:0:0:0:
285,308,251450,1,0,0:0:0:0:
312,306,251533,1,0,0:0:0:0:
338,309,251615,1,0,0:0:0:0:
364,318,251698,6,0,P|390:280|399:237,1,90,2|0,0:0|0:0,0:0:0:0:
345,23,252027,2,0,P|319:61|310:104,1,90,8|0,0:0|0:0,0:0:0:0:
247,156,252275,1,0,0:0:0:0:
247,156,252357,2,0,L|156:170,1,90,2|0,0:0|0:0,0:0:0:0:
220,15,252687,1,8,0:0:0:0:
87,94,252851,6,0,P|58:176|96:259,1,180
220,243,253346,1,8,0:0:0:0:
251,237,253428,1,0,0:0:0:0:
282,232,253510,1,0,0:0:0:0:
313,226,253593,1,0,0:0:0:0:
344,221,253675,1,2,0:0:0:0:
459,121,253840,1,0,0:0:0:0:
459,121,253923,1,0,0:0:0:0:
459,121,254005,2,0,L|434:229,1,90,8|0,0:0|0:0,0:0:0:0:
344,139,254335,5,2,0:0:0:0:
304,314,254500,1,2,0:0:0:0:
210,160,254665,1,8,0:0:0:0:
171,335,254830,1,0,0:0:0:0:
282,232,254994,1,2,0:0:0:0:
280,52,255159,1,2,0:0:0:0:
280,52,255242,1,2,0:0:0:0:
280,52,255324,1,8,0:0:0:0:
434,197,255489,6,0,P|366:251|282:231,1,180,6|8,0:0|0:0,0:0:0:0:
193,74,255983,1,8,0:0:0:0:
106,200,256148,1,8,0:0:0:0:
106,200,256231,1,0,0:0:0:0:
106,200,256313,2,0,L|92:249,1,45,2|2,0:0|0:0,0:0:0:0:
171,333,256478,2,0,L|183:289,1,45,2|2,0:0|0:0,0:0:0:0:
194,164,256643,2,0,L|194:70,1,90,4|8,0:0|0:0,0:0:0:0:
423,22,256972,5,6,0:0:0:0:
451,126,257137,1,0,0:0:0:0:
346,154,257302,1,8,0:0:0:0:
316,49,257467,1,0,0:0:0:0:
316,49,257549,1,0,0:0:0:0:
316,49,257632,1,2,0:0:0:0:
346,154,257797,1,0,0:0:0:0:
376,257,257961,1,8,0:0:0:0:
346,154,258126,1,0,0:0:0:0:
451,126,258291,5,2,0:0:0:0:
346,154,258456,1,0,0:0:0:0:
193,74,258621,1,8,0:0:0:0:
254,249,258786,1,2,0:0:0:0:
254,249,259115,5,2,0:0:0:0:
174,322,259280,1,8,0:0:0:0:
98,244,259445,1,0,0:0:0:0:
254,249,259610,5,2,0:0:0:0:
290,350,259775,1,0,0:0:0:0:
254,249,259939,1,8,0:0:0:0:
346,154,260104,1,0,0:0:0:0:
193,74,260269,1,2,0:0:0:0:
252,164,260434,1,0,0:0:0:0:
98,244,260599,1,8,0:0:0:0:
254,249,260764,6,0,P|343:238|433:237,1,180
474,217,261176,1,0,0:0:0:0:
474,217,261258,2,0,P|485:171|488:125,1,90,8|0,0:0|0:0,0:0:0:0:
360,66,261588,2,0,P|349:112|346:158,1,90,2|0,0:0|0:0,0:0:0:0:
378,345,261917,2,0,P|334:343|287:350,1,90,8|0,0:0|0:0,0:0:0:0:
98,244,262247,5,6,0:0:0:0:
99,37,262412,1,2,0:0:0:0:
133,158,262577,1,0,0:0:0:0:
8,176,262742,1,0,0:0:0:0:
181,73,262906,1,8,0:0:0:0:
98,244,263071,1,8,0:0:0:0:
56,111,263236,1,0,0:0:0:0:
217,211,263401,6,0,P|304:225|370:167,1,180,8|8,0:0|0:0,0:0:0:0:
372,171,263813,1,0,0:0:0:0:
372,171,263895,2,0,L|373:82,1,90,0|8,0:0|0:0,0:0:0:0:
469,229,264225,2,0,P|445:269|432:321,1,90,8|8,0:0|0:0,0:0:0:0:
28,270,264720,6,0,P|74:195|56:109,1,180,8|8,0:0|0:0,0:0:0:0:
165,45,265214,1,8,0:0:0:0:
323,76,265379,2,0,P|276:150|294:236,1,180,8|8,0:0|0:0,0:0:0:0:
389,319,265873,1,0,0:0:0:0:
157,264,266038,6,0,L|123:353,1,90,12|0,0:0|0:0,0:0:0:0:
290,358,266368,1,8,0:0:0:0:
295,237,266533,1,8,0:0:0:0:
418,157,266698,2,0,P|435:243|389:317,1,180,8|8,0:0|0:0,0:0:0:0:
389,319,267110,1,8,0:0:0:0:
389,319,267192,1,8,0:0:0:0:
389,319,267275,1,8,0:0:0:0:
389,319,267357,1,8,0:0:0:0:
389,319,267439,1,8,0:0:0:0:
389,319,267522,5,4,0:0:0:0:
295,237,267687,2,0,P|289:201|295:162,2,67.5000025749208,2|0|0,0:0|0:0|0:0,0:0:0:0:
418,157,268181,1,0,0:0:0:0:
418,157,268346,1,0,0:0:0:0:
255,35,268676,5,0,0:0:0:0:
295,236,269005,1,0,0:0:0:0:
332,64,269335,2,0,P|285:110|220:109,1,135.000005149842
169,44,269830,2,0,P|148:71|136:113,1,67.5000025749208
170,259,270159,5,0,0:0:0:0:
170,259,270324,2,0,L|140:336,1,67.5000025749208
320,173,270654,2,0,L|295:235,1,67.5000025749208
474,94,270983,2,0,L|430:223,1,135.000005149842
393,327,271478,5,8,0:0:0:0:
375,341,271560,1,8,0:0:0:0:
354,352,271642,1,8,0:0:0:0:
331,358,271725,1,8,0:0:0:0:
307,361,271807,1,8,0:0:0:0:
284,359,271890,1,8,0:0:0:0:
261,353,271972,1,8,0:0:0:0:
240,343,272054,1,8,0:0:0:0:
221,329,272137,1,8,0:0:0:0:
320,173,272302,1,10,0:0:0:0:
192,42,272467,1,10,0:0:0:0:
180,73,272549,1,0,0:0:0:0:
167,104,272632,1,2,0:0:0:0:
155,135,272714,1,2,0:0:0:0:
142,166,272797,5,2,0:0:0:0:
221,329,272961,2,0,P|254:320|296:322,2,67.5000025749208,8|0|0,0:0|0:0|0:0,0:0:0:0:
150,262,273456,1,0,0:0:0:0:
150,262,273621,2,0,P|131:293|123:327,1,67.5000025749208
233,246,273950,6,0,P|244:195|233:149,1,101.250003862381
244,116,274280,2,0,L|315:95,1,67.5000025749208
475,192,274610,2,0,P|402:206|335:191,1,135.000005149842
244,116,275104,1,0,0:0:0:0:
458,21,275269,6,0,L|426:122,1,101.250003862381,10|0,0:0|0:0,0:0:0:0:
475,192,275599,1,8,0:0:0:0:
475,192,275681,1,8,0:0:0:0:
475,192,275764,1,8,0:0:0:0:
475,192,275846,1,8,0:0:0:0:
475,192,275928,2,0,L|425:318,1,135.000005149842,10|0,0:0|0:0,0:0:0:0:
425,317,276340,1,8,0:0:0:0:
425,317,276423,1,8,0:0:0:0:
274,282,276588,6,0,P|210:263|141:280,1,135.000005149842,10|0,0:0|0:0,0:0:0:0:
118,298,277000,1,0,0:0:0:0:
118,298,277082,2,0,L|130:205,1,90,12|0,0:0|0:0,0:0:0:0:
257,41,277412,2,0,L|269:134,1,90,6|0,0:0|0:0,0:0:0:0:
475,192,277742,1,12,0:0:0:0:
436,170,277824,1,0,0:0:0:0:
391,166,277906,1,0,0:0:0:0:
349,181,277989,1,0,0:0:0:0:
317,212,278071,6,0,L|294:316,1,90,6|0,0:0|0:0,0:0:0:0:
118,298,278401,1,8,0:0:0:0:
186,118,278566,2,0,L|205:205,1,90,0|2,0:0|0:0,0:0:0:0:
118,298,278895,1,0,0:0:0:0:
118,298,279060,1,8,0:0:0:0:
31,163,279225,6,0,P|117:174|186:119,1,180
371,91,279720,2,0,P|326:101|285:137,1,90,8|0,0:0|0:0,0:0:0:0:
340,264,280049,1,2,0:0:0:0:
118,298,280214,1,0,0:0:0:0:
225,202,280379,1,8,0:0:0:0:
257,342,280544,1,0,0:0:0:0:
449,333,280709,6,0,P|479:252|433:174,1,180,6|8,0:0|0:0,0:0:0:0:
212,45,281203,2,0,P|182:126|228:204,1,180
341,264,281698,1,8,0:0:0:0:
374,92,281862,6,0,P|328:93|289:111,1,90,0|2,0:0|0:0,0:0:0:0:
125,190,282192,1,2,0:0:0:0:
212,46,282357,1,8,0:0:0:0:
341,264,282522,1,0,0:0:0:0:
341,264,282604,1,0,0:0:0:0:
341,264,282687,1,2,0:0:0:0:
225,203,282851,1,0,0:0:0:0:
374,92,283016,1,8,0:0:0:0:
309,189,283181,1,0,0:0:0:0:
99,119,283346,6,0,P|49:187|95:258,1,180,6|8,0:0|0:0,0:0:0:0:
341,264,283840,1,0,0:0:0:0:
341,264,283923,1,0,0:0:0:0:
341,264,284005,2,0,P|385:253|430:253,1,90,2|0,0:0|0:0,0:0:0:0:
374,92,284335,2,0,P|330:105|285:106,1,90,8|0,0:0|0:0,0:0:0:0:
483,0,284665,6,0,P|467:89|454:180,1,180,6|8,0:0|0:0,0:0:0:0:
409,353,285159,2,0,P|324:371|253:320,1,180,4|0,0:0|0:0,0:0:0:0:
279,186,285654,1,8,0:0:0:0:
284,155,285736,1,0,0:0:0:0:
289,123,285819,1,0,0:0:0:0:
295,92,285901,1,0,0:0:0:0:
301,61,285983,5,6,0:0:0:0:
381,187,286148,1,2,0:0:0:0:
204,281,286313,1,8,0:0:0:0:
284,155,286478,1,0,0:0:0:0:
412,355,286643,1,8,0:0:0:0:
306,270,286808,1,8,0:0:0:0:
387,96,286972,1,8,0:0:0:0:
387,96,287055,1,8,0:0:0:0:
387,96,287137,1,8,0:0:0:0:
387,96,287220,1,8,0:0:0:0:
387,96,287302,5,6,0:0:0:0:
189,118,287467,1,8,0:0:0:0:
192,149,287549,1,8,0:0:0:0:
195,180,287632,1,8,0:0:0:0:
457,246,287797,2,0,P|375:218|307:271,1,180,6|2,0:0|0:0,0:0:0:0:
174,338,288291,1,8,0:0:0:0:
132,353,288373,1,0,0:0:0:0:
87,349,288455,1,0,0:0:0:0:
49,326,288538,1,0,0:0:0:0:
26,288,288620,5,2,0:0:0:0:
189,118,288840,1,4,0:0:0:0:
119,266,289060,1,4,0:0:0:0:
49,60,289280,5,2,0:0:0:0:
204,263,289500,1,4,0:0:0:0:
325,141,289720,1,4,0:0:0:0:
111,174,289939,5,2,0:0:0:0:
257,26,290159,1,4,0:0:0:0:
254,196,290379,1,4,0:0:0:0:
426,326,290599,5,2,0:0:0:0:
394,71,290819,1,4,0:0:0:0:
339,233,291038,1,4,0:0:0:0:
184,81,291258,5,2,0:0:0:0:
414,191,291478,1,4,0:0:0:0:
267,278,291698,1,4,0:0:0:0:
258,26,291917,5,2,0:0:0:0:
169,267,292137,1,4,0:0:0:0:
256,119,292357,1,4,0:0:0:0:
256,119,292577,5,2,0:0:0:0:
256,119,292906,5,10,0:0:0:0:
225,151,292988,1,2,0:0:0:0:
183,167,293070,1,2,0:0:0:0:
139,164,293153,1,2,0:0:0:0:
100,143,293236,5,2,0:0:0:0:
94,169,293318,1,2,0:0:0:0:
89,196,293400,1,2,0:0:0:0:
83,222,293483,1,2,0:0:0:0:
78,249,293565,1,2,0:0:0:0:
72,275,293648,1,2,0:0:0:0:
67,302,293730,1,2,0:0:0:0:
61,328,293812,1,2,0:0:0:0:
56,354,293895,5,6,0:0:0:0:
257,275,294225,1,0,0:0:0:0:
256,274,294555,2,0,P|298:290|343:285,1,90
418,173,295214,2,0,P|373:167|331:183,1,90
257,163,295709,2,0,L|169:144,2,90
199,58,296533,5,2,0:0:0:0:
112,83,296698,1,8,0:0:0:0:
94,170,296862,1,2,0:0:0:0:
162,228,297027,1,0,0:0:0:0:
112,83,297192,5,2,0:0:0:0:
26,110,297357,1,8,0:0:0:0:
11,198,297522,1,2,0:0:0:0:
77,259,297687,1,0,0:0:0:0:
171,146,297851,5,2,0:0:0:0:
231,279,298016,1,10,0:0:0:0:
317,29,298181,5,2,0:0:0:0:
257,162,298346,1,2,0:0:0:0:
112,83,298511,1,2,0:0:0:0:
112,83,298593,1,0,0:0:0:0:
112,83,298676,1,2,0:0:0:0:
359,109,298840,1,8,0:0:0:0:
337,236,299005,1,2,0:0:0:0:
337,236,299088,1,2,0:0:0:0:
337,236,299170,5,6,0:0:0:0:
171,146,299335,1,0,0:0:0:0:
231,279,299500,1,8,0:0:0:0:
226,79,299665,1,0,0:0:0:0:
226,79,299747,1,0,0:0:0:0:
226,79,299830,2,0,L|226:27,1,45,2|0,0:0|0:0,0:0:0:0:
317,29,299994,1,0,0:0:0:0:
112,83,300159,1,8,0:0:0:0:
258,161,300324,1,0,0:0:0:0:
414,48,300489,6,0,P|437:86|436:130,1,90,2|0,0:0|0:0,0:0:0:0:
338,236,300819,1,8,0:0:0:0:
196,212,300983,2,0,P|156:265|174:327,1,135
200,353,301313,1,0,0:0:0:0:
338,236,301478,2,0,L|338:145,1,90,8|0,0:0|0:0,0:0:0:0:
225,78,301808,6,0,P|145:109|74:61,1,180,2|8,0:0|0:0,0:0:0:0:
51,194,302302,2,0,P|59:237|52:284,1,90,0|2,0:0|0:0,0:0:0:0:
199,354,302632,2,0,P|242:346|289:353,1,90,0|8,0:0|0:0,0:0:0:0:
419,380,302961,1,0,0:0:0:0:
338,236,303126,5,6,0:0:0:0:
455,168,303291,1,0,0:0:0:0:
359,11,303456,1,12,0:0:0:0:
369,145,303621,1,0,0:0:0:0:
372,312,303786,1,6,0:0:0:0:
328,320,303868,1,2,0:0:0:0:
286,304,303950,1,2,0:0:0:0:
259,269,304033,1,0,0:0:0:0:
255,225,304115,1,8,0:0:0:0:
210,217,304197,1,2,0:0:0:0:
166,209,304279,1,2,0:0:0:0:
122,201,304362,1,2,0:0:0:0:
77,193,304445,6,0,P|165:184|208:106,1,180,6|8,0:0|0:0,0:0:0:0:
133,20,304939,1,0,0:0:0:0:
76,193,305104,2,0,P|63:235|57:280,1,90,10|0,0:0|0:0,0:0:0:0:
240,357,305434,2,0,P|253:314|259:269,1,90,8|0,0:0|0:0,0:0:0:0:
303,125,305764,6,0,P|383:157|461:117,1,180,2|8,0:0|0:0,0:0:0:0:
270,41,306258,2,0,P|232:67|207:106,1,90,0|2,0:0|0:0,0:0:0:0:
77,105,306588,2,0,P|68:150|78:195,1,90,0|8,0:0|0:0,0:0:0:0:
137,293,306917,1,0,0:0:0:0:
297,220,307082,6,0,P|311:287|271:340,1,135,6|0,0:0|0:0,0:0:0:0:
240,355,307412,1,8,0:0:0:0:
137,293,307577,1,0,0:0:0:0:
298,220,307742,1,2,0:0:0:0:
138,139,307906,1,0,0:0:0:0:
292,45,308071,1,8,0:0:0:0:
224,172,308236,1,0,0:0:0:0:
292,298,308401,5,2,0:0:0:0:
292,298,308483,1,0,0:0:0:0:
292,298,308566,2,0,L|340:282,1,45,2|2,0:0|0:0,0:0:0:0:
374,223,308731,1,8,0:0:0:0:
374,223,308813,1,0,0:0:0:0:
374,223,308895,2,0,L|394:182,1,45,2|2,0:0|0:0,0:0:0:0:
424,116,309060,1,2,0:0:0:0:
420,93,309142,1,0,0:0:0:0:
411,73,309224,1,2,0:0:0:0:
397,55,309307,1,2,0:0:0:0:
379,42,309389,1,8,0:0:0:0:
358,34,309472,1,0,0:0:0:0:
336,32,309554,1,8,0:0:0:0:
314,36,309636,1,0,0:0:0:0:
293,46,309720,6,0,P|252:59|203:61,1,90,10|0,0:0|0:0,0:0:0:0:
45,194,310049,2,0,P|107:171|173:182,1,135,8|0,0:0|0:0,0:0:0:0:
216,197,310379,1,2,0:0:0:0:
206,61,310544,1,0,0:0:0:0:
216,197,310709,2,0,L|197:288,1,90,8|0,0:0|0:0,0:0:0:0:
338,113,311038,6,0,L|303:292,1,180,2|8,0:0|0:0,0:0:0:0:
50,319,311533,2,0,P|133:342|199:286,1,180
109,161,312027,2,0,L|115:252,1,90,8|0,0:0|0:0,0:0:0:0:
216,197,312357,5,2,0:0:0:0:
216,197,312522,1,0,0:0:0:0:
20,104,312687,2,0,L|14:193,1,90,8|0,0:0|0:0,0:0:0:0:
184,112,313016,2,0,P|249:109|298:154,1,135,2|0,0:0|0:0,0:0:0:0:
374,180,313346,2,0,L|466:164,1,90,8|0,0:0|0:0,0:0:0:0:
306,266,313676,5,6,0:0:0:0:
353,102,313840,1,0,0:0:0:0:
404,316,314005,1,12,0:0:0:0:
353,102,314170,1,0,0:0:0:0:
306,266,314335,1,6,0:0:0:0:
285,283,314417,1,0,0:0:0:0:
261,295,314499,1,0,0:0:0:0:
235,302,314582,1,0,0:0:0:0:
208,304,314664,1,8,0:0:0:0:
181,299,314747,1,0,0:0:0:0:
156,289,314829,1,0,0:0:0:0:
134,275,314911,1,0,0:0:0:0:
115,255,314994,6,0,P|85:289|72:331,1,90,6|0,0:0|0:0,0:0:0:0:
200,197,315324,2,0,P|166:167|124:153,1,90,8|0,0:0|0:0,0:0:0:0:
124,153,315571,1,0,0:0:0:0:
124,153,315654,1,2,0:0:0:0:
22,212,315819,1,0,0:0:0:0:
101,49,315983,1,8,0:0:0:0:
203,104,316148,6,0,P|245:118|290:115,1,90,0|2,0:0|0:0,0:0:0:0:
407,46,316478,1,0,0:0:0:0:
462,217,316643,1,8,0:0:0:0:
462,217,316808,2,0,P|409:245|334:238,1,135
305,217,317137,1,2,0:0:0:0:
407,46,317302,2,0,L|392:142,1,90,10|0,0:0|0:0,0:0:0:0:
201,104,317632,5,2,0:0:0:0:
104,199,317797,1,0,0:0:0:0:
193,299,317961,1,8,0:0:0:0:
305,217,318126,2,0,L|304:128,1,90,0|2,0:0|0:0,0:0:0:0:
283,86,318373,1,0,0:0:0:0:
283,86,318456,1,0,0:0:0:0:
390,275,318621,1,8,0:0:0:0:
204,206,318786,1,0,0:0:0:0:
407,46,318950,6,0,L|392:142,1,90,2|0,0:0|0:0,0:0:0:0:
476,353,319280,1,8,0:0:0:0:
390,275,319445,1,0,0:0:0:0:
407,46,319610,1,2,0:0:0:0:
476,161,319775,1,2,0:0:0:0:
345,192,319939,1,8,0:0:0:0:
309,200,320022,1,0,0:0:0:0:
274,208,320104,1,0,0:0:0:0:
238,216,320187,1,0,0:0:0:0:
203,224,320269,6,0,L|112:225,1,90,6|0,0:0|0:0,0:0:0:0:
225,101,320599,1,8,0:0:0:0:
64,169,320764,2,0,P|41:251|110:300,1,180,6|2,0:0|0:0,0:0:0:0:
253,305,321258,1,8,0:0:0:0:
289,297,321341,1,0,0:0:0:0:
324,289,321423,1,0,0:0:0:0:
360,281,321506,1,0,0:0:0:0:
395,273,321588,5,6,0:0:0:0:
501,151,321753,1,0,0:0:0:0:
374,50,321917,1,8,0:0:0:0:
501,151,322082,2,0,P|479:209|484:286,1,135,6|0,0:0|0:0,0:0:0:0:
432,345,322412,2,0,L|386:357,1,45,2|2,0:0|0:0,0:0:0:0:
320,311,322577,2,0,P|274:297|230:297,1,90,8|0,0:0|0:0,0:0:0:0:
76,343,322906,6,0,P|46:291|39:217,1,135,6|0,0:0|0:0,0:0:0:0:
51,183,323236,1,8,0:0:0:0:
177,97,323401,1,0,0:0:0:0:
135,206,323566,1,2,0:0:0:0:
95,95,323731,1,0,0:0:0:0:
234,16,323895,1,8,0:0:0:0:
234,16,323978,1,0,0:0:0:0:
234,16,324060,1,0,0:0:0:0:
234,16,324143,1,0,0:0:0:0:
234,16,324225,6,0,P|310:58|393:17,1,180,6|8,0:0|0:0,0:0:0:0:
458,117,324720,1,0,0:0:0:0:
458,117,324884,2,0,L|448:208,1,90,2|0,0:0|0:0,0:0:0:0:
324,332,325214,2,0,L|308:186,1,135,8|0,0:0|0:0,0:0:0:0:
305,152,325544,5,6,0:0:0:0:
256,192,325626,12,2,327522,0:0:0:0:
116,323,327851,5,8,0:0:0:0:
179,238,328016,2,0,P|254:194|336:225,1,180,6|0,0:0|0:0,0:0:0:0:
263,305,328511,1,8,0:0:0:0:
420,308,328676,2,0,B|446:284|446:284|433:254|433:254|450:223|431:188|431:188|449:141,1,180,8|0,0:0|0:0,0:0:0:0:
477,44,329170,1,8,0:0:0:0:
326,36,329335,6,0,P|250:79|168:48,1,180,8|0,0:0|0:0,0:0:0:0:
65,82,329830,1,8,0:0:0:0:
62,189,329994,1,2,0:0:0:0:
69,214,330076,1,2,0:0:0:0:
71,241,330158,1,2,0:0:0:0:
66,268,330241,1,0,0:0:0:0:
55,292,330323,1,0,0:0:0:0:
71,311,330406,1,0,0:0:0:0:
96,323,330489,6,0,P|136:312|187:316,1,90,10|4,0:0|0:0,0:0:0:0:
341,273,330819,2,0,P|306:249|277:207,1,90,2|0,0:0|0:0,0:0:0:0:
375,80,331148,1,8,0:0:0:0:
444,226,331313,2,0,P|462:310|402:373,1,180,8|0,0:0|0:0,0:0:0:0:
341,273,331808,1,8,0:0:0:0:
375,79,331972,6,0,P|297:119|218:83,1,180,2|0,0:0|0:0,0:0:0:0:
218,83,332467,1,8,0:0:0:0:
95,220,332632,1,2,0:0:0:0:
78,241,332714,1,2,0:0:0:0:
69,266,332796,1,2,0:0:0:0:
67,293,332879,1,0,0:0:0:0:
74,319,332961,1,0,0:0:0:0:
87,342,333044,1,0,0:0:0:0:
107,360,333126,1,8,0:0:0:0:
341,273,333291,6,0,L|160:284,1,180,12|0,0:0|0:0,0:0:0:0:
257,175,333786,1,8,0:0:0:0:
367,355,333950,2,0,P|424:289|400:206,1,180,8|0,0:0|0:0,0:0:0:0:
257,175,334445,1,8,0:0:0:0:
97,218,334610,6,0,P|40:152|64:69,1,180,8|2,0:0|0:0,0:0:0:0:
80,54,335022,1,2,0:0:0:0:
102,51,335104,1,8,0:0:0:0:
125,54,335186,1,0,0:0:0:0:
146,62,335269,1,0,0:0:0:0:
164,75,335351,1,0,0:0:0:0:
179,92,335434,1,2,0:0:0:0:
192,110,335516,1,0,0:0:0:0:
210,113,335598,1,0,0:0:0:0:
230,103,335681,1,0,0:0:0:0:
247,88,335763,1,8,0:0:0:0:
346,231,335928,6,0,P|274:276|187:243,1,180,4|0,0:0|0:0,0:0:0:0:
258,176,336423,1,8,0:0:0:0:
460,93,336588,2,0,L|434:281,1,180,8|0,0:0|0:0,0:0:0:0:
258,176,337082,1,8,0:0:0:0:
353,27,337247,6,0,L|365:118,1,90,8|2,0:0|0:0,0:0:0:0:
258,176,337577,1,0,0:0:0:0:
353,28,337742,1,8,0:0:0:0:
347,231,337906,1,0,0:0:0:0:
210,107,338071,1,2,0:0:0:0:
180,140,338153,1,2,0:0:0:0:
171,183,338235,1,2,0:0:0:0:
184,226,338318,1,0,0:0:0:0:
216,256,338400,1,8,0:0:0:0:
421,171,338566,6,0,P|338:140|258:175,1,180,4|0,0:0|0:0,0:0:0:0:
143,300,339060,1,8,0:0:0:0:
340,377,339225,2,0,P|388:306|347:231,1,180,8|0,0:0|0:0,0:0:0:0:
180,140,339720,2,0,P|145:147|83:148,1,90,8|4,0:0|0:0,0:0:0:0:
126,27,340049,5,2,0:0:0:0:
300,15,340214,1,0,0:0:0:0:
306,36,340296,1,0,0:0:0:0:
313,58,340378,1,8,0:0:0:0:
300,75,340461,1,0,0:0:0:0:
285,91,340543,1,2,0:0:0:0:
278,110,340626,1,2,0:0:0:0:
285,131,340708,1,2,0:0:0:0:
292,152,340790,1,0,0:0:0:0:
288,172,340873,1,0,0:0:0:0:
273,188,340955,1,0,0:0:0:0:
258,205,341038,6,0,P|245:255|243:293,1,90,8|4,0:0|0:0,0:0:0:0:
385,234,341368,2,0,P|398:184|400:146,1,90,2|0,0:0|0:0,0:0:0:0:
300,15,341698,1,8,0:0:0:0:
322,286,341862,2,0,P|403:313|463:252,1,180,8|0,0:0|0:0,0:0:0:0:
401,146,342357,1,8,0:0:0:0:
211,54,342522,6,0,L|226:240,1,180,8|0,0:0|0:0,0:0:0:0:
337,40,343016,2,0,L|307:124,1,90,8|0,0:0|0:0,0:0:0:0:
295,159,343264,1,0,0:0:0:0:
295,159,343346,2,0,L|299:211,1,45,2|2,0:0|0:0,0:0:0:0:
415,274,343511,2,0,L|411:229,1,45,2|0,0:0|0:0,0:0:0:0:
401,146,343676,5,8,0:0:0:0:
321,288,343840,2,0,P|241:322|169:275,1,180,4|0,0:0|0:0,0:0:0:0:
295,159,344335,1,8,0:0:0:0:
116,56,344500,2,0,B|88:85|88:85|98:103|98:103|81:132|102:158|102:158|84:184|83:222,1,180,8|0,0:0|0:0,0:0:0:0:
102,347,344994,1,8,0:0:0:0:
237,227,345159,6,0,P|164:179|84:213,1,180,8|0,0:0|0:0,0:0:0:0:
87,214,345571,1,0,0:0:0:0:
87,214,345654,2,0,L|70:268,1,45,8|0,0:0|0:0,0:0:0:0:
189,357,345819,2,0,L|203:314,1,45
237,228,345983,2,0,L|237:134,1,90,2|0,0:0|0:0,0:0:0:0:
316,300,346313,1,8,0:0:0:0:
309,91,346478,6,0,P|229:57|157:105,1,180,4|0,0:0|0:0,0:0:0:0:
237,228,346972,1,8,0:0:0:0:
431,204,347137,2,0,L|452:23,1,180,8|0,0:0|0:0,0:0:0:0:
309,92,347632,2,0,L|317:182,1,90,8|8,0:0|0:0,0:0:0:0:
405,318,347961,5,2,0:0:0:0:
405,318,348044,1,2,0:0:0:0:
405,318,348126,2,0,L|450:340,2,45,0|0|8,0:0|0:0|0:0,0:0:0:0:
237,228,348456,1,2,0:0:0:0:
237,228,348538,1,2,0:0:0:0:
237,228,348621,1,2,0:0:0:0:
309,92,348786,1,2,0:0:0:0:
269,112,348868,1,2,0:0:0:0:
224,111,348950,1,8,0:0:0:0:
185,90,349033,1,2,0:0:0:0:
161,53,349115,6,0,L|145:152,1,90,4|2,0:0|0:0,0:0:0:0:
199,326,349445,1,0,0:0:0:0:
117,242,349610,1,8,0:0:0:0:
86,355,349775,1,0,0:0:0:0:
199,326,349939,2,0,P|244:315|294:309,1,90,2|0,0:0|0:0,0:0:0:0:
472,354,350269,1,8,0:0:0:0:
444,190,350434,6,0,P|361:218|279:185,1,180,4|0,0:0|0:0,0:0:0:0:
400,108,350928,2,0,P|379:71|374:22,1,90,8|0,0:0|0:0,0:0:0:0:
445,190,351258,1,2,0:0:0:0:
428,231,351340,1,2,0:0:0:0:
411,273,351422,1,2,0:0:0:0:
394,315,351505,1,0,0:0:0:0:
377,357,351587,1,8,0:0:0:0:
283,236,351753,6,0,P|199:207|117:240,1,180,4|0,0:0|0:0,0:0:0:0:
20,130,352247,1,8,0:0:0:0:
107,51,352412,1,8,0:0:0:0:
116,241,352577,1,2,0:0:0:0:
195,121,352742,1,0,0:0:0:0:
283,235,352906,1,8,0:0:0:0:
79,174,353071,6,0,P|40:249|95:313,1,180,4|0,0:0|0:0,0:0:0:0:
199,240,353566,1,8,0:0:0:0:
288,150,353731,2,0,P|359:150|416:125,1,135
442,88,354060,1,0,0:0:0:0:
373,262,354225,1,8,0:0:0:0:
442,88,354390,6,0,L|456:0,1,90,8|2,0:0|0:0,0:0:0:0:
288,150,354720,1,0,0:0:0:0:
348,50,354884,1,8,0:0:0:0:
392,158,355049,1,0,0:0:0:0:
258,66,355214,5,2,0:0:0:0:
197,166,355379,1,0,0:0:0:0:
284,243,355544,1,8,0:0:0:0:
158,96,355709,6,0,P|115:169|163:239,1,180,8|0,0:0|0:0,0:0:0:0:
392,158,356203,2,0,L|388:255,1,90,8|0,0:0|0:0,0:0:0:0:
293,60,356533,2,0,L|289:157,1,90,2|0,0:0|0:0,0:0:0:0:
366,344,356862,1,8,0:0:0:0:
284,243,357027,6,0,P|200:219|128:269,1,180,4|0,0:0|0:0,0:0:0:0:
221,326,357522,1,8,0:0:0:0:
366,344,357687,2,0,L|392:156,1,180,8|0,0:0|0:0,0:0:0:0:
478,268,358181,1,8,0:0:0:0:
458,105,358346,6,0,P|374:81|306:134,1,180,8|0,0:0|0:0,0:0:0:0:
221,326,358840,2,0,L|128:308,1,90,8|0,0:0|0:0,0:0:0:0:
47,166,359170,1,2,0:0:0:0:
78,134,359252,1,2,0:0:0:0:
121,123,359334,1,2,0:0:0:0:
164,135,359417,1,0,0:0:0:0:
194,167,359500,6,0,P|233:190|277:192,1,90,8|0,0:0|0:0,0:0:0:0:
459,105,359830,1,6,0:0:0:0:
400,225,359994,1,0,0:0:0:0:
320,115,360159,1,8,0:0:0:0:
496,197,360324,1,8,0:0:0:0:
385,55,360489,1,2,0:0:0:0:
400,225,360654,2,0,L|390:320,1,90,0|8,0:0|0:0,0:0:0:0:
264,316,360983,6,0,B|219:340|194:318|194:318|165:342|165:342|140:311|103:319,1,180,4|0,0:0|0:0,0:0:0:0:
188,228,361478,2,0,L|292:226,1,90,8|0,0:0|0:0,0:0:0:0:
117,103,361808,1,2,0:0:0:0:
111,134,361890,1,2,0:0:0:0:
105,165,361972,1,2,0:0:0:0:
99,196,362055,1,0,0:0:0:0:
92,226,362137,1,8,0:0:0:0:
279,226,362302,2,0,P|293:180|301:138,1,90,4|2,0:0|0:0,0:0:0:0:
152,25,362632,5,0,0:0:0:0:
224,127,362797,1,8,0:0:0:0:
316,56,362961,1,8,0:0:0:0:
388,216,363126,1,2,0:0:0:0:
338,322,363291,1,0,0:0:0:0:
388,216,363456,1,8,0:0:0:0:
224,127,363621,6,0,L|234:268,1,135,4|0,0:0|0:0,0:0:0:0:
203,295,363950,1,0,0:0:0:0:
319,149,364115,1,8,0:0:0:0:
235,40,364280,1,0,0:0:0:0:
133,114,364445,1,2,0:0:0:0:
106,130,364527,1,0,0:0:0:0:
75,136,364609,1,0,0:0:0:0:
44,131,364692,1,0,0:0:0:0:
17,116,364774,1,8,0:0:0:0:
235,40,364939,6,0,P|281:30|334:26,1,90,4|2,0:0|0:0,0:0:0:0:
494,140,365269,1,0,0:0:0:0:
452,259,365434,1,8,0:0:0:0:
319,149,365599,1,8,0:0:0:0:
399,52,365764,5,2,0:0:0:0:
402,177,365928,1,0,0:0:0:0:
399,52,366093,1,8,0:0:0:0:
240,118,366258,6,0,P|252:202|333:229,1,180,4|0,0:0|0:0,0:0:0:0:
494,140,366753,2,0,P|443:129|397:133,1,90,8|0,0:0|0:0,0:0:0:0:
249,300,367082,2,0,P|300:311|346:307,1,90,2|0,0:0|0:0,0:0:0:0:
165,241,367412,6,0,L|146:333,1,90,8|4,0:0|0:0,0:0:0:0:
30,128,367742,2,0,L|48:216,1,90,2|0,0:0|0:0,0:0:0:0:
155,33,368071,1,8,0:0:0:0:
226,155,368236,2,0,P|305:192|379:147,1,180,4|0,0:0|0:0,0:0:0:0:
379,147,368731,1,8,0:0:0:0:
155,33,368895,6,0,L|125:165,1,135,4|0,0:0|0:0,0:0:0:0:
125,209,369225,1,2,0:0:0:0:
233,73,369390,1,8,0:0:0:0:
61,56,369555,1,0,0:0:0:0:
61,56,369637,1,2,0:0:0:0:
61,56,369720,1,2,0:0:0:0:
41,230,369884,1,2,0:0:0:0:
64,267,369966,1,2,0:0:0:0:
103,288,370048,1,8,0:0:0:0:
148,287,370131,1,0,0:0:0:0:
186,264,370214,6,0,L|212:171,1,90,4|2,0:0|0:0,0:0:0:0:
61,56,370544,1,0,0:0:0:0:
132,148,370709,1,8,0:0:0:0:
391,66,370873,2,0,P|310:32|233:72,1,180,4|0,0:0|0:0,0:0:0:0:
317,142,371368,1,8,0:0:0:0:
416,286,371533,6,0,L|447:142,1,135,12|2,0:0|0:0,0:0:0:0:
477,124,371862,1,2,0:0:0:0:
334,227,372027,1,8,0:0:0:0:
391,64,372192,1,0,0:0:0:0:
391,64,372275,1,2,0:0:0:0:
391,64,372357,1,2,0:0:0:0:
417,286,372522,1,2,0:0:0:0:
384,316,372604,1,2,0:0:0:0:
341,328,372686,1,8,0:0:0:0:
297,319,372769,1,0,0:0:0:0:
262,291,372851,6,0,P|181:260|107:305,1,180,4|0,0:0|0:0,0:0:0:0:
107,305,373346,1,8,0:0:0:0:
18,156,373511,2,0,P|99:187|173:141,1,180,8|0,0:0|0:0,0:0:0:0:
181,16,374005,1,8,0:0:0:0:
292,115,374170,6,0,L|256:246,1,135,8|2,0:0|0:0,0:0:0:0:
263,291,374500,1,2,0:0:0:0:
174,142,374665,1,8,0:0:0:0:
352,246,374830,1,0,0:0:0:0:
352,246,374912,1,2,0:0:0:0:
352,246,374994,1,2,0:0:0:0:
371,79,375159,1,2,0:0:0:0:
341,46,375241,1,2,0:0:0:0:
298,31,375323,1,8,0:0:0:0:
255,39,375406,1,0,0:0:0:0:
220,66,375489,6,0,P|147:115|62:96,1,180,8|0,0:0|0:0,0:0:0:0:
62,96,375983,1,8,0:0:0:0:
195,217,376148,2,0,P|280:197|352:246,1,180,8|0,0:0|0:0,0:0:0:0:
450,166,376643,2,0,L|480:75,1,90,8|12,0:0|0:0,0:0:0:0:
256,192,376890,12,4,379445,0:0:0:0:
256,192,379527,12,0,384884,0:0:0:0:
