osu file format v8

[General]
AudioFilename: Sumomomo momomo - 2nd Opening.mp3
AudioLeadIn: 1004
PreviewTime: 50366
Countdown: 0
SampleSet: Soft
StackLeniency: 0.7
Mode: 0
LetterboxInBreaks: 1

[Editor]
DistanceSpacing: 0.5
BeatDivisor: 4
GridSize: 8

[Metadata]
Title:Setsujou! Hyakka Ryouran (TV size)
Artist:MOSAIC.WAV
Creator:Kotomi-chan
Version:No Clan
Source:Sumomomo Momomo
Tags:vicho-kun opening

[Difficulty]
HPDrainRate:2
CircleSize:3
OverallDifficulty:3
ApproachRate:3
SliderMultiplier:1
SliderTickRate:1

[Events]
//Background and Video events
0,0,"BG.png"
Video,0,"Sumomo mo Momo mo 2nd OP-Video.avi"
//Break Periods
2,8728,9860
2,11500,12306
2,16554,17197
2,38728,39697
2,70685,73447
2,75902,80132
//Storyboard Layer 0 (Background)
//Storyboard Layer 1 (Fail)
//Storyboard Layer 2 (Pass)
//Storyboard Layer 3 (Foreground)
Sprite,Foreground,Centre,"Kotomi-chan.png",320,240 F,0,2957,3283,0,1 S,0,2957,3283,0.9078398,0.6415998 M,0,2957,3610,432,76,450,76 F,0,3283,86354,1 F,0,86354,87088,1,0
//Storyboard Sound Samples
//Background Colour Transformations
3,100,163,162,255

[TimingPoints]
2006,326.086956521739,4,2,0,100,1,0
13664,-100,4,2,0,79,0,0
16517,-100,4,2,0,100,0,0
44887,-100,4,1,0,100,0,0
47006,-100,4,2,0,100,0,0
50267,-100,4,2,0,100,0,1
57930,-100,4,1,0,100,0,0
60702,-100,4,2,0,100,0,1
68365,-100,4,1,0,100,0,0
70811,-100,4,2,0,100,0,0

[Colours]
Combo1 : 26,87,230
Combo2 : 255,119,119
Combo3 : 233,250,29

[HitObjects]
256,288,3310,5,4
432,192,4614,5,4
256,96,5919,5,4
166,96,6571,1,2
80,96,7060,5,4
80,144,7386,2,0,B|80:208,1,50
80,240,7875,1,4
176,240,8527,5,2
256,192,11299,5,4
160,192,13745,6,0,B|160:304,2,100,0|8|0
224,192,14723,2,0,B|224:304,2,100,8|0|8
288,192,15701,1,0
336,192,16027,2,2,B|336:304,1,100,10|6
352,144,18636,5,0
352,144,18962,1,8
352,240,19614,1,8
256,240,20266,1,8
160,240,20919,1,8
112,240,21245,1,2
64,240,21571,5,4
64,144,22223,1,8
160,144,22875,1,8
256,144,23527,1,8
304,144,23853,1,2
352,144,24179,5,4
432,208,24832,1,8
352,272,25484,1,8
272,208,26136,1,8
224,208,26462,1,2
176,208,26788,5,4
128,128,27440,1,8
80,208,28092,1,8
128,296,28745,1,8
176,296,29071,1,0
224,296,29397,1,4
424,296,30701,6,0,B|312:296,3,100,0|8|0|8
272,296,32006,2,0,B|160:296,3,100,0|8|0|8
120,296,33310,1,0
72,296,33636,1,8
56,248,33962,1,0
80,208,34288,1,4
80,208,35919,6,0,B|80:96,1,100,0|8
160,112,36571,2,0,B|272:112,1,100,0|8
336,112,37223,2,0,B|336:224|480:224,1,200,4|8
480,304,38201,1,0
480,304,38527,1,4
80,160,41136,6,0,B|80:272,3,100,0|8|0|8
128,256,42440,1,4
176,256,42766,1,8
224,256,43092,1,0
272,256,43419,1,8
320,256,43745,1,4
368,256,44071,1,8
416,256,44397,1,0
464,256,44723,1,8
464,208,45049,6,0,B|464:96,2,100
464,208,46027,1,0
464,208,46190,1,0
320,208,47169,5,2
288,208,47332,1,8
256,208,47495,1,0
224,208,47658,1,4
256,128,49940,5,12
256,176,50266,6,0,B|256:288,3,100,0|8|0|8
256,320,51571,5,0
304,320,51897,1,8
352,320,52223,5,4
400,320,52549,1,4
400,272,52875,5,0
352,240,53201,1,8
352,192,53527,1,0
400,176,53853,1,12
448,160,54179,5,0
448,96,54505,1,8
400,80,54832,5,4
352,80,55158,1,4
304,80,55484,6,2,B|96:80,3,200
112,176,58092,5,0
208,176,58745,1,0
304,176,59397,1,0
352,176,59723,1,8
400,176,60049,1,4
400,176,60701,6,0,B|400:288,3,100,0|8|0|8
400,320,62005,5,0
400,320,62332,1,8
352,320,62658,5,4
304,320,62984,1,4
256,320,63310,6,0,B|144:320,3,100,0|8|0|8
112,320,64614,5,0
64,320,64940,1,8
64,272,65266,5,4
64,224,65592,1,4
64,176,65919,6,2,B|64:48|192:48,3,200
184,152,68527,5,0
280,152,69179,1,0
376,152,69832,1,0
424,152,70158,1,8
472,152,70484,1,4
192,176,74886,5,4
240,176,75212,2,0,B|304:176,1,50,0|12
336,176,75701,1,4
320,320,81571,6,0,B|208:320,3,100,0|8|0|8
224,240,82875,2,0,B|336:240,3,100,0|8|0|8
256,192,84179,12,4,86462
