osu file format v5

[General]
AudioFilename: Sumomomo_Momomo_-_Saikyou_OX_Keikaku.mp3
AudioLeadIn: 0
PreviewTime: -1
Countdown: 1
SampleSet: Normal
StackLeniency: 0.7
Mode: 0
LetterboxInBreaks: 1

[Metadata]
Title:Saikyou OX Keikaku
Artist:MOSAIC.WAV
Creator:Engineboy
Version:Hard
Source:
Tags:

[Difficulty]
HPDrainRate:6
CircleSize:6
OverallDifficulty:6
SliderMultiplier:1.4
SliderTickRate:1

[Events]
//Background and Video events
0,0,"sumomomomomoosu.jpg"
//Break Periods
2,18658,20326
2,44567,48842
2,85476,88658
2,115476,120021
//Storyboard Layer 0 (Background)
//Storyboard Layer 1 (Failing)
//Storyboard Layer 2 (Passing)
//Storyboard Layer 3 (Foreground)
//Storyboard Sound Samples
//Background Colour Transformations
3,100,255,128,192

[TimingPoints]
7890,340.909090909091,4,1,0,100,1
194215,340.909090909091,4,1,0,100,1

[Colours]
Combo1 : 128,255,255
Combo2 : 255,0,128
Combo3 : 255,255,128
Combo4 : 128,255,128

[HitObjects]
96,288,7890,1,0
192,224,8230,1,0
288,160,8571,1,0
320,128,8742,1,0
128,128,9253,2,0,C|128:256|256:256|256:192|192:192|192:224,1,420
192,320,10617,5,0
64,320,10958,1,0
64,192,11299,1,0
64,128,11469,1,0
160,64,11810,1,0
192,96,11980,1,0
224,64,12151,1,0
256,96,12321,1,0
288,64,12492,2,0,L|448:64|448:160,1,210
448,224,13344,5,0
384,320,13685,1,0
320,224,14026,1,0
288,256,14196,1,0
128,320,14708,2,0,L|256:192|160:128|64:224,1,420
64,96,16071,5,0
160,96,16412,1,0
256,96,16753,1,0
288,128,16924,1,0
192,192,17265,2,0,B|224:224|256:224,1,70
352,224,17776,1,0
416,256,17946,1,0
352,288,18117,1,0
416,320,18287,1,0
352,352,18458,1,0
64,96,21526,6,0,B|96:64|128:96,1,70
128,160,21867,2,0,B|160:192|192:160,1,70
192,96,22208,2,0,B|224:64|256:96,1,70
256,160,22549,2,0,B|288:192|320:160,1,70
384,160,22890,1,0
416,192,23060,1,0
384,224,23230,2,0,B|256:320,1,140
160,320,23912,6,0,B|96:256,1,70
32,192,24424,1,0
96,160,24594,1,0
32,128,24765,1,0
96,96,24935,1,0
32,64,25105,1,0
96,32,25276,2,0,B|192:32,1,70
288,32,25787,1,0
352,32,25958,1,0
480,32,26299,1,0
480,160,26640,1,0
384,224,26980,6,8,B|384:288,2,35
320,224,27321,2,8,B|320:288,2,35
256,224,27662,2,8,B|256:288,2,35
192,224,28003,1,8
64,224,28344,1,0
64,160,28515,1,0
64,96,28685,2,0,B|160:96|192:160,1,140
192,256,29367,6,0,B|224:288|256:256,1,70
320,160,29878,1,0
384,160,30049,1,0
448,160,30219,1,0
448,32,30560,1,0
384,32,30730,1,0
320,32,30901,1,0
224,96,31242,1,0
160,96,31412,1,0
32,96,31753,1,0
32,256,32265,5,0
128,224,32605,1,0
192,192,32776,1,0
288,160,33117,1,0
384,96,33458,1,0
480,64,33799,2,0,B|480:352|480:352|96:64|96:64|96:288,1,980
192,288,36526,5,0
224,320,36696,1,0
256,288,36867,1,0
288,320,37037,1,0
320,288,37208,1,0
416,320,37549,2,0,B|416:224,1,70
416,192,37890,1,0
416,32,38401,2,0,B|352:32|352:64,1,70
0,32,39594,6,0,B|0:128|96:160,1,140
128,64,40276,2,0,B|224:64|224:192,1,140
128,224,40958,1,0
192,224,41128,1,0
256,224,41299,1,0
480,224,41980,6,0,B|384:224,1,70
352,192,42321,2,0,B|448:192,1,70
480,160,42662,2,0,B|384:160,1,70
352,128,43003,2,0,B|448:128,1,70
256,192,43685,12,0,44367
64,64,50162,5,0
96,96,50333,1,0
64,128,50503,1,0
96,160,50674,1,0
128,192,50844,1,0
96,224,51015,1,0
128,256,51185,1,0
96,288,51355,1,0
160,320,51526,2,0,B|320:320,1,140
384,320,52208,2,0,B|480:192,1,140
256,192,52890,12,0,55276
128,224,55617,6,0,B|160:256|192:256,1,70
256,224,55958,1,0
320,256,56128,1,0
384,288,56299,2,0,B|416:256|416:224,1,70
416,160,56640,1,0
352,64,56980,6,0,B|320:128|288:32|288:128,1,70
256,64,57321,2,0,B|224:128|192:32|160:96,1,70
128,64,57662,1,0
96,96,57833,1,0
128,128,58003,1,0
160,160,58174,1,0
160,224,58344,6,0,B|192:224|224:160,1,70
256,224,58685,2,0,B|256:256|192:288,1,70
256,320,59026,1,0
288,288,59196,1,0
320,320,59367,1,0
416,192,59878,6,0,B|288:96,1,140
256,96,60390,1,0
192,128,60560,1,0
128,160,60730,1,0
64,256,61071,5,0
160,256,61412,1,0
224,256,61583,1,0
288,256,61753,1,0
192,320,62094,1,0
256,320,62265,1,0
320,320,62435,2,0,B|480:320,1,140
384,256,63117,1,0
288,192,63458,1,0
192,128,63799,6,0,L|64:224|160:320|448:96|352:0|160:128,1,980
96,128,66526,6,0,L|160:256|320:288,2,280
192,128,68230,1,0
256,128,68401,1,0
320,128,68571,1,0
448,128,68912,1,0
448,224,69253,5,0
352,288,69594,1,0
288,288,69765,1,0
224,288,69935,1,0
128,224,70276,1,0
64,128,70617,2,0,L|96:64|192:32,1,140
288,32,71299,2,0,L|352:64|384:128,1,140
288,192,71980,6,0,L|192:288|64:192,2,280
448,32,74026,1,0
224,32,74708,5,0
192,64,74878,1,0
224,96,75049,1,0
192,128,75219,1,0
224,160,75390,1,0
192,192,75560,1,0
32,192,76071,2,0,B|224:320|448:224,1,420
352,160,77435,5,0
320,128,77605,1,0
288,160,77776,1,0
256,128,77946,1,0
224,160,78117,1,0
192,128,78287,1,0
64,128,78628,2,0,B|64:224,1,70
128,224,78969,1,0
96,256,79140,1,0
64,288,79310,2,0,B|160:352|288:320,1,210
384,320,80162,5,0
384,256,80333,1,0
448,256,80503,1,0
448,192,80674,1,0
384,192,80844,1,0
384,128,81015,1,0
224,32,81526,2,0,C|96:160|192:192|96:288,1,420
192,320,82890,5,0
256,320,83060,1,0
256,256,83230,1,0
288,224,83401,1,0
352,224,83571,1,0
416,224,83742,1,0
384,128,84083,6,0,C|320:96,1,70
256,96,84424,1,0
192,96,84594,1,0
128,96,84765,2,0,C|64:192,1,210
96,256,89708,5,0
128,224,89878,1,0
160,192,90049,2,0,C|224:128,1,70
320,160,90560,1,0
352,128,90730,2,0,C|416:64,1,70
416,192,91242,5,0
416,256,91412,1,0
320,320,91753,1,0
224,320,92094,2,0,C|160:320,3,35
96,320,92605,5,0
64,288,92776,2,0,C|64:192,1,70
64,160,93117,1,0
128,192,93287,2,0,C|128:96,1,70
128,64,93628,1,0
192,64,93799,1,0
256,64,93969,1,0
320,64,94140,2,0,B|448:96|288:192|416:192,1,140
448,256,94821,5,0
384,288,94992,1,0
288,320,95333,1,0
224,288,95503,1,0
160,256,95674,1,0
64,320,96015,1,0
64,256,96185,1,0
64,192,96355,2,0,B|64:64|64:64|128:32|160:96,1,210
256,64,97208,1,0
352,64,97549,1,0
448,128,97890,5,0
384,160,98060,1,0
320,192,98230,2,0,B|256:192|288:256|224:224,1,70
320,256,98571,1,0
384,288,98742,1,0
448,320,98912,2,0,B|384:352,1,70
320,352,99253,1,0
192,352,99594,1,0
64,352,99935,1,0
64,224,100276,6,0,B|64:128,1,70
160,160,100787,1,0
192,128,100958,1,0
224,96,101128,1,0
320,160,101469,1,0
352,128,101640,1,0
384,96,101810,2,2,B|448:64|448:288,1,210
352,320,102662,1,0
192,320,103174,6,0,B|224:256|160:192,1,140
128,160,103685,1,0
32,96,104026,1,0
128,64,104367,5,0
224,64,104708,2,0,B|384:64|352:256|256:256|192:256|128:224|160:160|256:160|320:192|320:256|288:288|224:320|96:352|32:320|32:256|96:224|128:256|192:288|192:288|288:320|384:288|416:256|416:224|416:160|352:128,1,980
256,128,107435,5,0
224,160,107605,1,0
192,192,107776,2,0,B|128:256,1,70
96,288,108117,1,0
192,288,108458,1,0
256,288,108628,1,0
320,288,108799,2,0,B|416:288|416:192,1,140
416,160,109310,1,0
416,96,109480,1,0
64,96,110503,5,0
64,192,110844,2,0,B|64:288|160:256,1,140
256,256,111526,1,0
352,256,111867,2,0,B|352:160,2,70
320,32,112890,2,0,B|256:96,3,70
224,128,113571,2,0,B|160:192,3,70
64,224,114424,5,0
160,256,114765,2,0,B|192:288|256:288,1,70
320,288,115276,1,0
64,192,121071,6,0,B|64:224|96:224,2,35
96,192,121327,2,0,B|96:160|128:160,2,35
192,192,121753,1,0
288,192,122094,2,0,B|448:192,2,140
288,192,123117,2,0,B|352:128,2,70
288,192,123799,2,0,B|256:256|192:320|160:320|96:320|32:288|32:224|0:192|32:128|64:96|96:64|160:32|224:64|256:96|288:128|256:160|192:160|128:192|96:160|32:160|32:96|0:64|32:32|96:32|320:32|320:32,1,980
352,64,126526,5,0
384,96,126696,1,0
352,128,126867,1,0
384,160,127037,1,0
352,192,127208,1,0
384,224,127378,1,0
352,256,127549,1,0
256,320,127890,6,0,B|192:320|128:256,1,140
64,192,128571,1,0
96,160,128742,1,0
64,128,128912,1,0
96,96,129083,1,0
160,64,129253,6,0,B|192:32|224:32,2,70
224,96,129765,1,0
256,128,129935,1,0
288,160,130105,1,0
320,192,130276,1,0
352,224,130446,1,0
448,288,130787,5,0
352,320,131128,2,0,B|256:256,1,70
224,288,131469,1,0
160,288,131640,1,0
64,224,131980,5,0
64,160,132151,1,0
128,160,132321,1,0
128,96,132492,1,0
192,96,132662,2,0,B|256:32,3,70
288,96,133344,6,0,B|384:64|448:96,2,140
288,192,134367,1,0
288,288,134708,2,0,B|224:320|192:288|160:288|96:256|96:192|128:128|192:128|256:160|224:224|160:256|64:96,1,420
256,64,136242,5,0
256,128,136412,1,0
256,224,136753,1,0
