osu file format v5

[General]
AudioFilename: Chousai Kenbo Sengen.mp3
AudioLeadIn: 0
PreviewTime: -1
Countdown: 0
SampleSet: Normal
StackLeniency: 0.7
Mode: 0
LetterboxInBreaks: 1

[Metadata]
Title:Chousai Kenbo Sengen
Artist:MOSAIC.WAV
Creator:Lenneth123
Version:Easy
Source:
Tags:

[Difficulty]
HPDrainRate:4
CircleSize:4
OverallDifficulty:4
SliderMultiplier:0.7
SliderTickRate:1

[Events]
//Background and Video events
//Break Periods
2,10875,14701
2,37011,38461
2,41763,42916
2,46515,47668
2,51267,52123
//Storyboard Layer 0 (Background)
//Storyboard Layer 1 (Failing)
//Storyboard Layer 2 (Passing)
//Storyboard Layer 3 (Foreground)
//Storyboard Sound Samples
//Background Colour Transformations
3,100,163,162,255

[TimingPoints]
1765,297.002725039327,4,1,0,100,1

[Colours]
Combo1 : 255,150,0
Combo2 : 5,240,5
Combo3 : 5,5,240
Combo4 : 240,5,5

[HitObjects]
96,288,1764,2,0,B|192:224,1,105
96,224,2953,2,0,B|192:160,1,105
96,160,4141,2,0,B|192:96,1,105
96,64,5329,1,0
256,64,5923,1,0
256,192,6517,12,0,10675
256,64,16021,5,0
256,128,16318,1,0
256,320,17209,1,0
256,256,17506,1,0
416,192,18397,5,0
352,192,18694,1,0
96,192,19585,1,0
160,192,19882,1,0
416,160,20773,5,0
416,224,21070,1,0
288,320,21961,1,0
224,320,22258,1,0
96,224,23149,5,0
96,160,23446,1,0
224,64,24337,1,0
288,64,24634,1,0
96,192,25525,5,0
96,64,26119,1,0
224,64,26713,1,0
224,192,27307,1,0
352,192,27901,1,0
352,320,28495,1,0
224,320,29089,1,0
96,320,29683,1,0
96,192,30277,5,0
224,192,30871,1,0
224,320,31465,1,0
352,320,32059,1,0
352,192,32653,1,0
352,64,33247,1,0
224,64,33841,1,0
224,192,34435,1,0
96,64,35029,6,0,B|320:64,1,210
352,64,36217,2,0,B|352:219,1,140
384,256,39484,1,0
384,320,39781,2,0,B|160:320,1,210
128,320,40969,2,0,B|128:178,1,140
352,64,44236,5,0
416,64,44533,2,0,B|416:288,1,210
416,320,45721,2,0,B|262:320,1,140
128,320,48988,1,0
64,320,49285,2,0,B|64:96,1,210
64,64,50473,2,0,B|214:64,1,140
192,192,53443,6,0,B|256:160,2,70
256,96,54631,2,0,B|192:128,2,70
64,64,55819,2,0,B|192:128|192:128|64:192|64:192|192:256|192:256|64:320|64:320|202:319,1,700
288,320,59383,2,0,B|352:288,2,70
384,320,60571,2,0,B|256:256|256:256|128:320|128:320|0:256|0:256|128:192|128:192|0:128,1,700
160,128,64135,2,0,B|192:192,2,70
160,64,65323,2,0,B|288:128|288:128|416:64|416:64|480:192|480:192|416:320|416:320|288:256,1,700
192,256,68887,2,0,B|160:192,2,70
128,288,70075,2,0,B|64:160|64:160|160:64|160:64|288:128|288:128|224:256,1,560
256,192,73045,12,0,77797
352,128,78985,1,0
352,256,79579,1,0
224,256,80173,1,0
224,128,80767,1,0
96,128,81361,1,0
96,256,81955,1,0
224,256,82549,1,0
352,256,83143,1,0
352,128,83737,5,0
224,128,84331,1,0
224,256,84925,1,0
352,256,85519,1,0
352,128,86113,1,0
224,128,86707,1,0
256,192,87301,12,0,88489
