osu file format v5

[General]
AudioFilename: MOON_Kana_-_Tsugi_no_Usagi_-_03_MOON_WINGS.mp3
AudioLeadIn: 0
PreviewTime: -1
Countdown: 1
SampleSet: Normal
StackLeniency: 0.7
Mode: 0
LetterboxInBreaks: 1
EditorBookmarks: 7580,24014,32290,46340,58192,60360,78930,95640,104584,107950,125040,138640,166750

[Metadata]
Title:MOON Wings
Artist:MOON Kana
Creator:Nixsa87
Version:Insane
Source:
Tags:moon kana wings jpop

[Difficulty]
HPDrainRate:5
CircleSize:5
OverallDifficulty:5
SliderMultiplier:1.4
SliderTickRate:2

[Events]
//Background and Video events
0,0,"moonKana.jpg"
//Break Periods
//Storyboard Layer 0 (Background)
//Storyboard Layer 1 (Failing)
//Storyboard Layer 2 (Passing)
//Storyboard Layer 3 (Foreground)
//Storyboard Sound Samples
//Background Colour Transformations
3,100,0,0,0

[TimingPoints]
73942,428.565306209911,4,1,0,100,1

[Colours]
Combo1 : 64,0,64
Combo2 : 64,0,128
Combo3 : 158,62,255
Combo4 : 170,0,170

[HitObjects]
128,96,8800,1,0
160,128,8907,1,0
192,96,9014,1,0
224,64,9121,1,0
256,96,9228,1,0
288,128,9335,1,0
288,224,9657,5,0
256,256,9764,1,0
224,224,9871,1,0
192,192,9978,1,0
160,224,10085,1,0
128,256,10192,1,0
160,96,10407,5,0
192,96,10514,1,0
224,96,10621,1,0
192,128,10728,1,0
256,96,10835,1,0
224,128,10942,1,0
212,160,11050,1,0
384,96,11907,6,2,C|480:192|448:320,1,262.5
288,288,12978,1,0
256,288,13192,1,0
224,288,13407,1,0
192,288,13621,1,0
160,288,13835,1,0
320,256,14049,1,8
320,224,14157,1,8
256,128,14478,5,0
224,128,14692,1,0
192,128,14907,1,0
160,128,15121,1,0
160,96,15335,1,0
160,64,15549,1,0
288,64,15764,1,8
288,96,15871,1,8
256,192,15978,12,0,17049
96,160,17264,5,0
96,160,17371,1,0
96,160,17478,1,0
96,160,17585,1,0
160,224,17692,1,0
160,224,17799,1,0
160,224,17907,1,0
160,224,18014,1,0
224,288,18121,1,0
128,64,18335,5,0
160,64,18549,1,0
192,64,18764,1,0
224,64,18978,1,0
160,160,19835,1,0
224,160,20692,1,0
128,320,22407,5,10
128,320,22514,1,10
128,320,22621,1,10
128,64,23049,5,10
128,64,23157,1,10
128,64,23264,1,10
416,64,23692,5,10
416,64,23799,1,10
416,64,23907,1,10
416,320,24335,5,10
416,320,24442,1,10
416,320,24549,1,10
256,96,24764,5,0
192,96,24978,1,0
256,288,25406,1,0
352,96,26264,5,0
320,96,26478,1,0
160,96,27121,1,0
192,96,27335,1,0
256,160,28085,1,0
256,192,28299,1,0
256,256,28835,1,0
160,96,29799,5,0
160,96,29906,1,0
288,96,30228,1,0
288,96,30335,1,0
224,160,30656,1,0
224,160,30764,1,0
224,224,31085,1,0
224,224,31192,1,0
256,224,31621,1,0
192,160,33121,5,0
224,160,33549,1,0
224,96,34406,1,0
256,96,34513,1,0
320,192,35049,1,0
192,160,36549,5,0
192,192,36978,1,0
288,256,37835,1,0
288,224,37942,1,0
416,256,38478,1,0
416,160,38906,1,0
416,256,39121,1,0
384,192,39978,5,0
320,160,40406,1,0
224,160,41263,1,2
224,224,41906,1,2
224,288,42549,1,2
320,288,43406,5,0
320,224,43621,1,0
320,160,43835,1,0
320,96,44049,1,0
320,160,44263,1,0
320,224,44478,1,0
320,160,44692,1,0
256,96,45335,1,0
192,96,45763,1,0
320,96,45978,1,0
224,128,46835,5,0
192,160,47156,1,0
160,192,47692,1,0
288,256,48549,5,0
288,256,48656,1,0
333,213,48763,1,0
386,154,49406,1,4
224,224,50263,5,0
224,224,50370,1,0
272,176,50477,1,0
319,109,51120,1,4
128,160,51978,6,0,B|160:192|96:224,1,70
127,159,52620,2,4,B|176:136|144:104,1,70
256,192,53692,5,0
256,128,53906,1,0
256,64,54549,1,4
384,160,55406,6,0,B|352:192|416:224,1,70
384,159,56048,2,4,B|336:136|368:104,1,70
96,96,57120,5,0
160,160,57549,1,0
224,224,57977,1,0
288,288,58406,2,0,B|448:256|448:128|384:64|288:32,1,420
352,192,60549,5,0
352,192,60656,1,0
352,192,60763,1,0
256,192,60977,1,0
256,192,61085,1,0
256,192,61192,1,0
160,192,61406,1,0
160,192,61513,1,0
160,192,61620,1,0
224,128,61942,5,0
320,160,62477,1,0
192,224,63120,1,0
224,224,63335,1,0
256,224,63549,2,0,B|448:64|32:64|64:96|64:96|64:352|64:320,1,577.5
256,160,66549,5,0
320,160,66977,2,0,B|320:32|320:32|64:32|128:320|128:288|256:288,1,577.5
96,128,69977,5,0
96,96,70513,2,0,B|288:96,1,175
352,96,71263,1,8
352,160,71477,1,8
352,256,72120,2,0,B|188:256,1,140
96,256,72763,1,8
96,192,72977,1,8
96,192,73834,6,0,B|448:192,1,315
320,288,75549,1,0
320,256,75656,1,0
320,224,75763,1,0
192,256,76191,1,0
192,224,76299,1,0
192,192,76406,1,0
256,160,76834,1,4
256,192,77263,12,0,79834
224,64,80691,6,0,B|288:64,8,35
224,96,81763,1,2
224,128,81977,1,2
224,160,82192,1,2
352,320,82406,6,0,B|416:320,8,35,0|0|0|0|0|0|0|0|0
352,288,83478,1,2
352,256,83692,1,2
352,224,83907,1,2
96,64,84120,6,0,B|96:128,3,35
192,128,84548,6,0,B|192:192,3,35
288,192,84977,6,0,B|288:256,3,35
384,256,85406,6,0,B|384:320,3,35
64,128,85834,1,0
96,128,85941,1,0
128,96,86048,1,0
160,128,86156,1,0
192,128,86263,1,0
224,160,86370,1,0
256,128,86477,1,0
288,128,86584,1,0
320,160,86691,2,0,B|320:256,1,210
128,224,87548,6,0,B|128:160,8,35
160,224,88620,1,8
192,224,88834,1,8
224,224,89049,1,8
384,224,89263,6,0,B|384:288,8,35
352,224,90335,1,8
320,224,90549,1,8
288,224,90764,1,8
192,224,90977,5,0
192,192,91084,1,0
192,160,91191,1,0
192,128,91298,1,0
192,96,91406,1,0
160,128,91513,1,0
160,160,91620,1,0
160,192,91727,1,0
128,160,91834,1,0
64,256,91941,5,0
128,320,92048,1,0
224,352,92156,1,0
320,320,92263,1,0
384,256,92370,1,0
256,96,92691,6,0,B|224:96,1,70
256,160,93120,6,0,B|288:160,1,70
256,224,93548,6,0,B|224:224,1,70
256,288,93977,6,0,B|288:288,1,70
256,192,94405,12,0,95690
352,96,96120,5,2
256,192,96548,1,2
160,288,96977,1,2
224,160,97191,5,0
224,160,97405,1,0
320,160,97620,1,0
320,160,97834,1,0
160,160,98691,5,0
256,96,99977,1,0
384,192,100405,1,0
160,192,100834,1,0
128,320,101263,5,10
128,320,101370,1,10
128,320,101477,1,10
128,64,101905,5,10
128,64,102013,1,10
128,64,102120,1,10
416,64,102548,5,10
416,64,102655,1,10
416,64,102763,1,10
416,320,103191,5,10
416,320,103298,1,10
416,320,103405,1,10
256,96,103620,5,0
256,192,103834,1,0
256,288,104262,1,0
96,160,105120,5,0
192,160,105334,1,0
416,160,105977,5,0
320,160,106191,1,0
256,352,106834,5,0
256,256,107155,1,0
256,160,107691,5,0
192,96,108548,5,0
224,96,108655,1,0
320,96,108977,1,0
288,96,109084,1,0
192,160,109404,1,0
224,160,109512,1,0
320,160,109834,1,0
288,160,109941,1,0
256,224,110477,1,0
320,160,111977,5,0
256,224,112512,1,0
256,224,113262,1,0
256,224,113370,1,0
192,160,113905,1,0
224,160,114012,1,0
192,160,115405,5,0
256,96,115834,1,0
256,96,116691,1,0
288,96,116798,1,0
320,160,117334,1,0
338,140,117441,1,0
276,207,117762,1,0
256,224,117977,1,0
192,320,118834,5,0
320,320,119369,1,0
224,288,120119,1,10
224,288,120227,1,10
288,288,120762,1,10
288,288,120869,1,10
256,256,121405,1,8
96,160,122262,5,0
96,160,122477,1,0
160,160,122691,1,0
160,160,122905,1,0
224,160,123119,1,0
224,160,123334,1,0
288,160,123548,1,0
288,160,124191,1,0
192,160,124619,1,0
192,160,124834,1,0
96,64,125691,5,0
224,192,126012,1,0
96,320,126548,1,4
416,64,127405,5,0
288,192,127619,1,0
416,320,128262,1,4
128,64,129119,5,0
384,64,129441,1,0
256,192,129976,1,4
128,320,130834,5,0
384,320,131048,1,0
256,192,131691,1,4
64,192,132548,5,0
256,192,132762,1,0
416,192,133405,1,4
416,192,134262,5,0
256,192,134476,1,0
64,192,135119,1,4
256,96,135976,5,0
256,160,136405,1,0
256,224,136833,1,0
256,288,137262,2,0,B|448:288|448:288|448:64|448:64|288:64,1,560
256,128,139405,5,2
256,128,139512,1,2
256,192,139833,1,2
256,192,139941,1,2
256,256,140262,1,2
256,256,140369,1,2
256,128,141119,5,2
256,128,141226,1,2
256,192,141548,1,2
256,192,141655,1,2
256,256,141976,1,2
256,256,142083,1,0
160,160,142405,5,0
224,160,143048,1,0
160,224,143691,1,0
192,224,143905,1,0
256,288,144226,2,0,B|64:288|64:288|64:64|64:64|224:64,1,560
256,128,147119,5,0
256,64,147548,2,0,B|448:64|448:64|448:288|448:288|288:288,1,560
256,224,150548,5,0
32,288,151083,2,0,B|352:96,1,350
332,107,152369,1,0
332,107,152476,1,0
96,64,152798,6,0,B|416:256,1,350,0|0
396,244,154083,1,0
396,244,154190,1,0
96,288,154512,6,0,B|416:96,1,350
396,107,155798,1,0
396,107,155905,1,0
96,64,156227,6,0,B|416:256,1,350
396,244,157405,1,0
396,244,157512,1,0
256,96,157833,5,0
256,96,157940,2,0,B|107:95,1,140
256,160,158690,5,0
256,160,158797,2,0,B|405:159,1,140,0|0
256,224,159548,1,0
256,224,159655,2,0,B|107:223,1,140,0|0
256,288,160404,5,0
256,288,160512,2,0,B|405:287,1,140,0|0
405,345,161262,6,0,B|437:249|408:166|297:197|165:327|35:188,1,490
96,192,162976,5,0
128,192,163083,1,0
160,192,163190,1,0
192,160,163297,1,0
224,128,163405,1,0
256,160,163512,1,0
288,192,163619,1,0
320,192,163726,1,0
352,192,163833,1,0
256,192,164476,12,0,166083
256,192,166190,12,0,167797
256,192,167904,12,0,169511
256,192,169619,12,0,170797
