osu file format v9

[General]
AudioFilename: 07 Neko Punch.mp3
AudioLeadIn: 0
PreviewTime: 51880
Countdown: 0
SampleSet: Normal
StackLeniency: 0.7
Mode: 1
LetterboxInBreaks: 0

[Editor]
Bookmarks: 71090
DistanceSpacing: 1
BeatDivisor: 4
GridSize: 32

[Metadata]
Title:Neko Punch
Artist:MOON -kana-
Creator:KuraiPettan
Version:Taiko Oni
Source:
Tags:

[Difficulty]
HPDrainRate:5
CircleSize:4
OverallDifficulty:5
ApproachRate:7
SliderMultiplier:1.6
SliderTickRate:1

[Events]
//Background and Video events
0,0,"taiko.jpg"
//Break Periods
//Storyboard Layer 0 (Background)
//Storyboard Layer 1 (Fail)
//Storyboard Layer 2 (Pass)
//Storyboard Layer 3 (Foreground)
//Storyboard Sound Samples
//Background Colour Transformations
3,100,185,250,255

[TimingPoints]
7070,400,4,1,0,70,1,0
19990,-111.111111111111,4,1,0,70,0,0
21590,-117.647058823529,4,1,0,70,0,0
23190,-125,4,1,0,70,0,0
24790,-133.333333333333,4,1,0,70,0,0
25190,-105.263157894737,4,1,0,70,0,0
25790,-100,4,1,0,70,0,0
64890,-105.263157894737,4,1,0,70,0,0
70990,-111.111111111111,4,1,0,70,0,0
72790,-117.647058823529,4,1,0,70,0,0
74390,-125,4,1,0,70,0,0
75990,-133.333333333333,4,1,0,70,0,0
76490,-105.263157894737,4,1,0,70,0,0
76990,-100,4,1,0,70,0,0
128590,-105.263157894737,4,1,0,70,0,0

[Colours]
Combo1 : 255,255,0
Combo2 : 244,0,6
Combo3 : 0,128,255
SliderBorder : 17,98,179

[HitObjects]
128,288,6270,21,8
384,288,6470,21,0
128,288,6670,5,8
128,288,6770,1,8
384,288,6870,21,0
384,96,7070,1,4
128,288,7470,5,8
384,288,7670,21,0
128,288,7870,5,8
384,288,7970,21,0
384,288,8170,1,0
128,288,8270,5,8
384,288,8470,21,0
384,288,8670,1,0
128,288,9070,5,8
384,288,9270,21,0
384,288,9470,1,0
128,288,9870,5,8
384,288,10270,21,0
128,288,10670,5,8
384,288,10870,21,0
128,288,11070,5,8
384,288,11170,21,0
384,288,11370,1,0
128,288,11470,5,8
384,288,11670,21,0
128,288,11870,5,8
384,288,12270,21,0
384,288,12470,1,0
128,288,12670,5,8
384,288,13070,21,0
128,288,13270,5,8
128,288,13370,1,8
384,288,13470,21,0
128,288,13870,5,8
384,288,14070,21,0
128,288,14270,5,8
384,288,14370,21,0
384,288,14570,1,0
128,288,14670,5,8
384,288,14870,21,0
384,288,15070,1,0
384,288,15470,1,0
384,288,15670,1,0
128,288,15870,5,8
384,288,16270,21,0
128,288,16470,5,8
128,288,16570,1,8
384,288,16670,21,0
128,288,17070,5,8
384,288,17270,21,0
128,288,17470,5,8
384,288,17570,21,0
384,288,17770,1,0
128,288,17870,5,8
384,288,18070,21,0
128,288,18270,5,8
384,288,18670,21,0
384,288,18870,1,0
128,288,19070,5,8
384,288,19470,21,0
128,288,19670,5,8
128,288,19770,1,8
384,288,19870,21,0
128,288,20270,5,8
384,288,20670,21,0
384,288,20870,1,0
128,288,21070,5,8
384,288,21470,21,0
128,288,21870,5,8
384,288,22270,21,0
384,288,22470,1,0
128,288,22670,5,8
384,288,22870,21,0
384,288,23070,1,0
128,288,23470,5,8
384,288,23870,21,0
384,288,24070,1,0
128,288,24270,5,8
384,288,24470,21,0
384,288,24670,1,0
128,288,25070,5,8
384,288,25470,21,0
384,288,25670,1,0
128,288,25870,5,8
128,288,25970,1,8
384,288,26070,21,0
384,288,26270,1,0
384,288,26470,1,0
384,288,26870,1,0
384,288,27270,1,0
128,288,27470,5,8
384,288,27670,21,0
128,288,27770,5,8
384,288,27870,21,0
384,288,28070,1,0
128,288,28270,5,8
384,288,28470,21,0
384,288,28870,1,0
128,288,29070,5,8
128,288,29170,1,8
384,288,29270,21,0
384,288,29470,1,0
384,288,29670,1,0
384,288,30070,1,0
384,288,30470,1,0
128,288,30670,5,8
384,288,30870,21,0
128,288,30970,5,8
384,288,31070,21,0
384,288,31270,1,0
128,288,31470,5,8
384,288,31670,21,0
384,288,32070,1,0
128,288,32270,5,8
384,288,32470,21,0
128,288,32670,5,8
128,288,32870,1,8
128,288,32970,1,8
384,288,33070,21,0
128,288,33270,5,8
384,288,33470,21,0
128,288,33670,5,8
384,288,33870,21,0
128,288,34070,5,8
128,288,34270,1,8
128,288,34670,1,8
128,288,34870,1,8
128,288,34970,1,8
384,288,35070,21,0
384,288,35270,1,0
128,288,35470,5,8
384,288,35670,21,0
384,288,35770,1,0
128,288,35870,5,8
384,288,36070,21,0
128,288,36270,5,8
384,288,36470,21,0
384,288,36870,1,0
128,288,37070,5,8
128,288,37270,1,8
384,288,37470,21,0
128,288,37870,5,8
128,288,38070,1,8
128,288,38170,1,8
384,288,38270,21,0
384,288,38470,1,0
128,288,38670,5,8
384,288,38870,21,0
384,288,38970,1,0
128,288,39070,5,8
384,288,39270,21,0
128,288,39470,5,8
384,288,39670,21,0
384,288,40070,1,0
128,288,40270,5,8
128,288,40470,1,8
128,288,40570,1,8
384,288,40670,21,0
384,288,40870,1,0
128,288,41070,5,8
384,288,41270,21,0
384,288,41370,1,0
128,288,41470,5,8
384,288,41670,21,0
128,288,41870,5,8
384,288,42070,21,0
384,288,42270,1,0
128,288,42670,5,8
384,288,42870,21,0
128,288,43070,5,8
128,288,43270,1,8
128,288,43370,1,8
384,288,43470,21,0
384,288,43670,1,0
128,288,43870,5,8
128,288,44070,1,8
128,288,44170,1,8
128,288,44270,1,8
384,288,44470,21,0
128,288,44670,5,8
384,288,44870,21,0
128,288,45070,5,8
384,288,45270,21,0
384,288,45370,1,0
128,288,45470,5,8
384,288,45670,21,0
128,288,45870,5,8
128,288,46070,1,8
128,288,46170,1,8
384,288,46270,21,0
128,288,46470,5,8
384,288,46670,21,0
128,288,46870,5,8
128,288,47070,1,8
128,288,47470,1,8
128,288,47670,1,8
128,288,47770,1,8
384,288,47870,21,0
384,288,48070,1,0
128,288,48270,5,8
384,288,48470,21,0
128,288,48670,5,8
128,288,48870,1,8
384,288,49070,21,0
384,288,49270,1,0
384,288,49370,1,0
128,288,49470,5,8
384,288,49670,21,0
384,288,49870,1,0
384,288,50070,1,0
384,288,50270,1,0
384,288,50670,1,0
384,288,50770,1,0
384,288,50870,1,0
384,288,50970,1,0
128,288,51070,5,8
128,288,51270,1,8
128,288,51470,1,8
128,288,51570,1,8
384,288,51670,21,0
384,96,51870,1,4
128,288,52270,5,8
384,288,52470,21,0
128,288,52670,5,8
384,288,52770,21,0
384,288,52970,1,0
128,288,53070,5,8
384,288,53270,21,0
384,288,53470,1,0
128,288,53870,5,8
384,288,54070,21,0
384,288,54270,1,0
128,288,54670,5,8
384,288,55070,21,0
128,288,55470,5,8
384,288,55670,21,0
128,288,55870,5,8
384,288,55970,21,0
384,288,56170,1,0
128,288,56270,5,8
384,288,56470,21,0
128,288,56670,5,8
384,288,57070,21,0
384,288,57270,1,0
128,288,57470,5,8
384,288,57870,21,0
128,288,58070,5,8
128,288,58170,1,8
384,288,58270,21,0
128,288,58670,5,8
384,288,58870,21,0
128,288,59070,5,8
384,288,59170,21,0
384,288,59370,1,0
128,288,59470,5,8
384,288,59670,21,0
384,288,59870,1,0
384,288,60270,1,0
384,288,60470,1,0
128,288,60670,5,8
384,288,61070,21,0
128,288,61270,5,8
128,288,61370,1,8
384,288,61470,21,0
128,288,61870,5,8
384,288,62070,21,0
128,288,62270,5,8
384,288,62370,21,0
384,288,62570,1,0
128,288,62670,5,8
384,288,62870,21,0
128,288,63070,5,8
384,288,63470,21,0
384,288,63670,1,0
128,288,63870,5,8
384,288,64270,21,0
128,288,64470,5,8
128,288,64570,1,8
384,288,64670,21,0
128,288,65070,5,8
384,288,65470,21,0
384,288,65670,1,0
128,288,65870,5,8
384,288,66270,21,0
128,288,66670,5,8
384,288,67070,21,0
384,288,67270,1,0
128,288,67470,5,8
384,288,67870,21,0
128,288,68270,5,8
384,288,68670,21,0
384,288,68870,1,0
128,288,69070,5,8
384,288,69470,21,0
128,288,69870,5,8
384,288,70270,21,0
384,288,70470,1,0
128,288,70670,5,8
128,288,70870,1,8
384,288,71070,21,0
128,288,71470,5,8
384,288,71870,21,0
384,288,72070,1,0
128,288,72270,5,8
384,288,72670,21,0
128,288,73070,5,8
384,288,73470,21,0
384,288,73670,1,0
128,288,73870,5,8
384,288,74070,21,0
384,288,74270,1,0
128,288,74670,5,8
384,288,75070,21,0
384,288,75270,1,0
128,288,75470,5,8
384,288,75670,21,0
384,288,75870,1,0
128,288,76270,5,8
384,288,76670,21,0
384,288,76870,1,0
128,288,77070,5,8
128,288,77170,1,8
384,288,77270,21,0
384,288,77470,1,0
384,288,77670,1,0
384,288,78070,1,0
384,288,78470,1,0
128,288,78670,5,8
384,288,78870,21,0
128,288,78970,5,8
384,288,79070,21,0
384,288,79270,1,0
128,288,79470,5,8
384,288,79670,21,0
384,288,80070,1,0
128,288,80270,5,8
128,288,80370,1,8
384,288,80470,21,0
384,288,80670,1,0
384,288,80870,1,0
384,288,81270,1,0
384,288,81670,1,0
128,288,81870,5,8
384,288,82070,21,0
128,288,82170,5,8
384,288,82270,21,0
384,288,82470,1,0
128,288,82670,5,8
384,288,82870,21,0
384,288,83270,1,0
128,288,83470,5,8
384,288,83670,21,0
128,288,83870,5,8
128,288,84070,1,8
128,288,84170,1,8
384,288,84270,21,0
128,288,84470,5,8
384,288,84670,21,0
128,288,84870,5,8
384,288,85070,21,0
128,288,85270,5,8
128,288,85470,1,8
128,288,85870,1,8
128,288,86070,1,8
128,288,86170,1,8
384,288,86270,21,0
384,288,86470,1,0
128,288,86670,5,8
384,288,86870,21,0
384,288,86970,1,0
128,288,87070,5,8
384,288,87270,21,0
128,288,87470,5,8
384,288,87670,21,0
384,288,88070,1,0
128,288,88270,5,8
128,288,88470,1,8
384,288,88670,21,0
128,288,89070,5,8
128,288,89270,1,8
128,288,89370,1,8
384,288,89470,21,0
384,288,89670,1,0
128,288,89870,5,8
384,288,90070,21,0
384,288,90170,1,0
128,288,90270,5,8
384,288,90470,21,0
128,288,90670,5,8
384,288,90870,21,0
384,288,91270,1,0
128,288,91470,5,8
128,288,91670,1,8
128,288,91770,1,8
384,288,91870,21,0
384,288,92070,1,0
128,288,92270,5,8
384,288,92470,21,0
384,288,92570,1,0
128,288,92670,5,8
384,288,92870,21,0
128,288,93070,5,8
384,288,93270,21,0
384,288,93470,1,0
128,288,93870,5,8
384,288,94070,21,0
128,288,94270,5,8
128,288,94470,1,8
128,288,94570,1,8
384,288,94670,21,0
384,288,94870,1,0
128,288,95070,5,8
128,288,95270,1,8
128,288,95370,1,8
128,288,95470,1,8
384,288,95670,21,0
128,288,95870,5,8
384,288,96070,21,0
384,288,96270,5,8
384,288,96470,21,0
384,288,96570,1,0
128,288,96670,5,8
384,288,96870,21,0
128,288,97070,5,8
128,288,97270,1,8
128,288,97370,1,8
384,288,97470,21,0
128,288,97670,5,8
384,288,97870,21,0
128,288,98070,5,8
128,288,98270,1,8
128,288,98670,1,8
128,288,98870,1,8
128,288,98970,1,8
384,288,99070,21,0
384,288,99270,1,0
128,288,99470,5,8
384,288,99670,21,0
128,288,99870,5,8
128,288,100070,1,8
384,288,100270,21,0
384,288,100470,1,0
384,288,100570,5,8
128,288,100670,1,8
384,288,100870,21,0
384,288,101070,1,0
384,288,101270,1,0
384,288,101470,1,0
384,288,101870,1,0
384,288,101970,1,0
384,288,102070,1,0
384,288,102170,1,0
128,288,102270,5,8
128,288,102470,1,8
128,288,102670,1,8
128,288,102770,1,8
384,288,102870,21,0
384,96,103070,1,4
128,288,103470,5,8
384,288,103670,21,0
128,288,103870,5,8
384,288,103970,21,0
384,288,104170,1,0
128,288,104270,5,8
384,288,104470,21,0
384,288,104670,1,0
128,288,105070,5,8
384,288,105270,21,0
384,288,105470,1,0
128,288,105870,5,8
128,288,106070,1,8
128,288,106170,1,8
384,288,106270,21,0
384,288,106470,1,0
128,288,106670,5,8
384,288,106870,21,0
128,288,107070,5,8
384,288,107170,21,0
384,288,107270,1,0
384,288,107370,1,0
128,288,107470,5,8
384,288,107670,21,0
128,288,107870,5,8
384,288,108070,21,0
384,288,108170,1,0
128,288,108270,5,8
384,288,108470,21,0
384,288,108670,1,0
128,288,108870,5,8
128,288,109070,1,8
128,288,109270,1,8
128,288,109370,1,8
384,288,109470,21,0
384,288,109670,1,0
128,288,109870,5,8
384,288,110070,21,0
128,288,110270,5,8
384,288,110370,21,0
128,288,110470,5,8
128,288,110570,1,8
128,288,110670,1,8
384,288,110870,21,0
384,288,111070,1,0
384,288,111270,1,0
384,288,111370,1,0
128,288,111470,5,8
384,288,111670,21,0
384,288,111870,1,0
128,288,112070,5,8
128,288,112270,1,8
128,288,112470,1,8
128,288,112570,1,8
384,288,112670,21,0
384,288,112870,1,0
128,288,113070,5,8
384,288,113170,21,0
384,288,113270,1,0
128,288,113470,5,8
384,288,113570,21,0
128,288,113670,5,8
128,288,113770,1,8
128,288,113870,1,8
384,288,114070,21,0
128,288,114270,5,8
384,288,114470,21,0
384,288,114570,1,0
128,288,114670,5,8
384,288,114870,21,0
384,288,115070,1,0
128,288,115270,5,8
128,288,115470,1,8
384,288,115570,21,0
128,288,115670,5,8
128,288,115770,1,8
384,288,115870,21,0
128,288,116270,5,8
384,288,116470,21,0
128,288,116670,5,8
384,288,116770,21,0
384,288,116970,1,0
128,288,117070,5,8
384,288,117270,21,0
384,288,117470,1,0
128,288,117870,5,8
384,288,118070,21,0
384,288,118270,1,0
128,288,118670,5,8
128,288,118870,1,8
128,288,118970,1,8
384,288,119070,21,0
384,288,119270,1,0
128,288,119470,5,8
384,288,119670,21,0
128,288,119870,5,8
384,288,119970,21,0
384,288,120070,1,0
384,288,120170,1,0
128,288,120270,5,8
384,288,120470,21,0
128,288,120670,5,8
384,288,120870,21,0
384,288,120970,1,0
128,288,121070,5,8
384,288,121270,21,0
384,288,121470,1,0
128,288,121670,5,8
128,288,121870,1,8
128,288,122070,1,8
128,288,122170,1,8
384,288,122270,21,0
384,288,122470,1,0
128,288,122670,5,8
384,288,122870,21,0
128,288,123070,5,8
384,288,123170,21,0
128,288,123270,5,8
128,288,123370,1,8
128,288,123470,1,8
384,288,123670,21,0
384,288,123870,1,0
384,288,124070,1,0
384,288,124170,1,0
128,288,124270,5,8
384,288,124470,21,0
384,288,124670,1,0
128,288,124870,5,8
128,288,125070,1,8
128,288,125270,1,8
128,288,125370,1,8
384,288,125470,21,0
384,288,125670,1,0
128,288,125870,5,8
384,288,125970,21,0
384,288,126070,1,0
128,288,126270,5,8
384,288,126370,21,0
128,288,126470,5,8
128,288,126570,1,8
128,288,126670,1,8
384,288,126870,21,0
128,288,127070,5,8
384,288,127270,21,0
384,288,127370,1,0
128,288,127470,5,8
384,288,127670,21,0
384,288,127870,1,0
128,288,128070,5,8
128,288,128170,1,8
128,288,128270,1,8
384,288,128370,21,0
128,288,128470,5,8
384,288,128670,1,8
384,288,128870,21,0
128,288,129070,5,8
384,288,129470,21,0
128,288,129870,5,8
384,288,130270,21,0
384,288,130470,1,0
128,288,130670,5,8
384,288,131070,21,0
128,288,131470,5,8
384,288,131870,21,0
384,288,132070,1,0
128,288,132270,5,8
384,288,132670,21,0
128,288,133070,5,8
384,288,133470,21,0
384,288,133670,1,0
128,288,133870,5,8
128,288,134070,1,8
384,288,134270,21,0
128,288,134470,5,8
384,288,134670,21,0
256,192,134870,12,0,135870
