osu file format v14

[General]
AudioFilename: MONSTA X() _ Beautiful().mp3
AudioLeadIn: 0
PreviewTime: 50014
Countdown: 0
SampleSet: Soft
StackLeniency: 0.4
Mode: 0
LetterboxInBreaks: 0
WidescreenStoryboard: 0

[Editor]
DistanceSpacing: 0.9
BeatDivisor: 4
GridSize: 32
TimelineZoom: 3.450001

[Metadata]
Title:Beautiful
TitleUnicode:아름다워
Artist:MONSTA X
ArtistUnicode:몬스타엑스
Creator:DeRandom Otaku
Version:Normal
Source:
Tags:Starship Entertainment The Clan Pt. 2.5: The Final Chapter kpop k-pop Shownu Kihyun Minhyuk Jooheon I.M. Hyungwon Wonho 셔누 원호 민혁 기현 형원 주헌 아이엠 Irreversible Ren
BeatmapID:1273195
BeatmapSetID:589261

[Difficulty]
HPDrainRate:3.5
CircleSize:3
OverallDifficulty:4
ApproachRate:4.5
SliderMultiplier:1.05
SliderTickRate:1

[Events]
//Background and Video events
0,0,"BG.jpg",0,0
//Break Periods
2,37949,42723
2,112754,117528
2,150157,161164
//Storyboard Layer 0 (Background)
//Storyboard Layer 1 (Fail)
//Storyboard Layer 2 (Pass)
//Storyboard Layer 3 (Foreground)
//Storyboard Sound Samples

[TimingPoints]
346,389.61038961039,4,2,1,40,1,0
1125,-100,4,2,1,5,0,0
1320,-100,4,2,1,40,0,0
1709,-100,4,2,1,5,0,0
1904,-100,4,2,1,40,0,0
2781,-100,4,2,1,5,0,0
2878,-100,4,2,1,40,0,0
3949,-100,4,2,1,5,0,0
4047,-100,4,2,1,40,0,0
9014,-100,4,2,1,5,0,0
9112,-100,4,2,1,40,0,0
11255,-100,4,2,1,40,0,0
12813,-100,4,2,1,55,0,0
37748,-100,4,2,1,55,0,0
43982,-100,4,2,1,55,0,0
48657,-100,4,2,1,55,0,0
50216,-100,4,2,1,80,0,1
74956,-100,4,2,1,80,0,0
75151,-100,4,2,1,80,0,1
86060,-100,4,2,1,80,0,0
87034,-100,4,2,1,80,0,0
87618,-100,4,2,1,60,0,0
90735,-100,4,2,1,60,0,0
93852,-100,4,2,1,60,0,0
96969,-100,4,2,1,55,0,0
98527,-100,4,2,1,55,0,0
100086,-100,4,2,1,60,0,0
112553,-100,4,2,1,60,0,0
118787,-100,4,2,1,60,0,0
123462,-100,4,2,1,60,0,0
125021,-100,4,2,1,80,0,1
149956,-100,4,2,1,80,0,0
162423,-100,4,2,1,55,0,0
173333,-100,4,2,1,55,0,0
174891,-100,4,2,1,80,0,1
199826,-100,4,2,1,30,0,0
200605,-100,4,2,1,10,0,0
200800,-100,4,2,1,25,0,0

[Colours]
Combo1 : 185,185,185
Combo2 : 255,255,128
Combo3 : 175,95,95
Combo4 : 255,137,81

[HitObjects]
109,66,346,5,2,0:0:0:0:
46,137,736,2,0,P|110:161|191:115,1,157.5,2|2,0:0|0:0,0:0:0:0:
228,103,1515,2,0,L|219:210,1,105,2|2,0:0|0:0,0:0:0:0:
212,302,2295,1,2,0:0:0:0:
295,259,2684,2,0,L|354:263,1,52.5,0|2,0:0|0:0,0:0:0:0:
394,265,3074,6,0,P|397:224|395:155,1,105,2|2,0:0|0:0,0:0:0:0:
375,67,3853,2,0,B|327:51|285:71|285:71|260:57|260:57|227:79|163:62,1,210,2|2,0:0|0:0,0:0:0:0:
79,52,5022,1,2,0:0:0:0:
42,138,5411,2,0,B|54:192|54:192|46:236|46:236|58:294,1,157.5,2|2,0:0|0:0,0:0:0:0:
75,336,6191,1,2,0:0:0:0:
150,280,6580,5,2,0:0:0:0:
211,352,6970,2,0,P|244:290|207:202,1,157.5,2|2,0:0|0:0,0:0:0:0:
182,179,7749,2,0,P|182:136|210:73,1,105,2|2,0:0|0:0,0:0:0:0:
272,12,8528,1,2,0:0:0:0:
359,48,8918,2,0,P|387:47|422:46,1,52.5,0|2,0:0|0:0,0:0:0:0:
458,39,9308,6,0,P|473:91|473:154,1,105,2|2,0:0|0:0,0:0:0:0:
468,235,10087,2,0,P|417:249|365:251,1,105,2|0,0:0|0:0,0:0:0:0:
270,252,10866,1,2,0:0:0:0:
218,330,11255,2,0,B|293:330|293:330|310:339|310:339|391:339,2,157.5
175,247,12814,6,0,P|193:199|184:148,1,105,4|0,3:2|0:0,0:0:0:0:
124,75,13593,1,8,0:0:0:0:
90,163,13983,1,0,0:0:0:0:
184,147,14372,2,0,L|292:148,1,105,0|0,0:0|3:0,0:0:0:0:
286,243,15152,2,0,L|178:242,1,105,8|0,0:0|0:0,0:0:0:0:
133,244,15736,1,0,3:0:0:0:
133,244,15931,6,0,L|136:357,1,105,0|0,3:0|3:0,0:0:0:0:
43,327,16710,2,0,L|40:214,1,105,8|0,0:0|0:0,0:0:0:0:
41,127,17489,2,0,L|157:132,1,105,0|0,0:0|3:0,0:0:0:0:
240,142,18269,1,8,0:0:0:0:
240,142,18463,2,0,P|235:177|237:207,2,52.5,0|2|2,0:0|0:3|0:3,0:0:0:0:
246,94,19048,6,0,P|297:102|350:91,1,105,2|0,3:2|0:0,0:0:0:0:
442,76,19827,2,0,P|452:127|444:178,1,105,8|0,0:0|0:0,0:0:0:0:
441,225,20411,1,0,0:0:0:0:
441,225,20606,2,0,P|390:210|340:222,1,105,0|0,0:0|3:0,0:0:0:0:
266,280,21385,2,0,P|215:291|165:276,1,105,8|0,0:0|0:0,0:0:0:0:
72,259,22165,6,0,P|72:210|106:158,1,105,0|0,3:0|3:0,0:0:0:0:
134,74,22944,2,0,L|56:72,2,78.75,8|0|0,0:0|0:0|3:0,0:0:0:0:
180,87,23723,2,0,P|232:97|292:85,1,105,0|0,3:0|3:0,0:0:0:0:
368,48,24502,1,0,3:0:0:0:
461,63,24892,2,0,L|456:117,1,52.5,2|2,0:3|0:3,0:0:0:0:
455,162,25282,6,0,P|471:212|454:275,1,105,2|0,3:2|0:0,0:0:0:0:
420,347,26061,2,0,P|368:331|313:349,1,105,8|0,0:0|0:0,0:0:0:0:
228,366,26840,2,0,L|223:246,1,105,0|0,0:0|3:0,0:0:0:0:
216,166,27618,1,0,0:0:0:0:
126,136,28008,1,0,0:0:0:0:
139,42,28398,6,0,B|191:52|191:52|252:46,1,105,0|0,3:0|0:0,0:0:0:0:
338,51,29178,2,0,B|326:100|326:100|334:155,1,105,8|0,0:0|0:0,0:0:0:0:
383,236,29957,2,0,B|433:236|433:236|492:251,1,105,0|0,0:0|3:0,0:0:0:0:
486,344,30736,2,0,B|432:357|432:357|382:357,1,105,8|2,0:0|0:3,0:0:0:0:
335,357,31321,1,2,0:3:0:0:
335,357,31515,6,0,P|330:296|335:232,1,105,2|0,3:2|0:0,0:0:0:0:
293,165,32295,2,0,P|332:161|380:168,2,78.75,8|0|0,0:0|0:0|0:0,0:0:0:0:
245,169,33074,2,0,L|245:52,1,105,0|0,0:0|3:0,0:0:0:0:
158,25,33853,2,0,L|158:142,1,105,8|0,0:0|0:0,0:0:0:0:
131,169,34437,1,0,3:0:0:0:
131,169,34632,6,0,B|88:165|88:165|34:172,2,78.75,0|0|0,3:0|0:0|3:0,0:0:0:0:
160,206,35411,2,0,L|154:311,1,105,8|0,0:0|0:0,0:0:0:0:
151,358,35996,1,0,0:0:0:0:
151,358,36191,2,0,P|201:346|255:346,1,105,0|0,3:0|3:0,0:0:0:0:
348,345,36970,1,0,0:0:0:0:
301,262,37359,1,0,0:0:0:0:
395,262,37749,5,4,0:0:0:0:
34,296,43983,6,0,L|145:303,1,105,6|2,3:2|3:2,0:0:0:0:
138,208,44762,2,0,L|242:201,1,105,2|2,3:2|3:2,0:0:0:0:
242,295,45541,2,0,L|353:302,1,105,0|2,3:0|3:2,0:0:0:0:
346,207,46320,2,0,L|450:200,1,105,0|2,3:0|3:2,0:0:0:0:
512,133,47100,5,4,3:2:0:0:
445,66,47489,1,2,3:2:0:0:
363,114,47879,2,0,P|338:114|305:106,1,52.5,2|2,0:0|0:0,0:0:0:0:
264,100,48269,2,0,P|237:97|211:100,1,52.5,2|2,0:0|0:0,0:0:0:0:
164,104,48658,2,0,B|157:148|157:148|161:199,2,78.75,2|2|2,0:3|0:3|0:3,0:0:0:0:
136,65,49437,2,0,B|76:83|86:55|12:71,1,105,2|2,0:1|0:1,0:0:0:0:
55,159,50217,6,0,B|44:209|44:209|53:266,1,105,4|0,3:2|0:0,0:0:0:0:
146,262,50996,2,0,B|154:208|154:208|143:158,1,105,8|0,0:0|0:0,0:0:0:0:
276,25,52165,2,0,P|270:58|271:82,1,52.5,0|0,3:0|0:0,0:0:0:0:
279,123,52554,2,0,P|278:148|273:174,1,52.5,8|0,0:0|0:0,0:0:0:0:
272,222,52944,2,0,P|324:222|374:237,1,105,0|0,0:0|3:0,0:0:0:0:
420,250,53528,6,0,P|419:197|428:145,1,105,0|0,0:0|3:0,0:0:0:0:
452,54,54308,2,0,P|455:27|454:1,2,52.5
358,49,55086,2,0,P|320:28|258:28,1,105
296,120,55866,1,0,3:0:0:0:
296,120,56061,2,0,P|294:146|291:175,1,52.5,0|0,0:0|0:0,0:0:0:0:
284,218,56450,6,0,B|234:207|234:207|172:218,1,105,4|0,3:2|0:0,0:0:0:0:
181,311,57230,2,0,B|231:322|231:322|293:311,1,105,8|0,0:0|0:0,0:0:0:0:
425,310,58204,2,0,P|430:336|428:364,2,52.5,0|0|0,0:0|3:0|0:0,0:0:0:0:
411,264,58788,2,0,P|400:218|419:155,1,105,8|0,0:0|0:0,0:0:0:0:
423,116,59372,6,0,B|322:84|322:157|210:118,1,210,0|0,0:0|0:0,0:0:0:0:
170,114,60347,1,8,0:0:0:0:
244,236,60931,2,0,B|185:236|185:236|133:257,1,105,0|0,0:0|0:0,0:0:0:0:
99,273,61515,1,0,3:0:0:0:
99,273,61710,2,0,P|92:223|98:166,2,105,0|0|0,0:0|3:0|0:0,0:0:0:0:
109,319,62684,5,4,3:2:0:0:
198,350,63074,1,0,0:0:0:0:
286,316,63463,1,8,0:0:0:0:
286,316,63658,2,0,P|282:280|288:254,1,52.5,0|0,0:0|0:0,0:0:0:0:
285,216,64048,2,0,P|237:216|192:175,1,105,0|0,0:0|0:0,0:0:0:0:
171,139,64632,1,0,3:0:0:0:
152,46,65022,2,0,P|186:41|225:45,1,52.5,8|0,0:0|0:0,0:0:0:0:
251,46,65411,1,0,0:0:0:0:
345,46,65801,5,0,3:0:0:0:
299,128,66190,1,0,0:0:0:0:
253,210,66579,1,8,0:0:0:0:
253,210,66774,2,0,P|245:250|239:283,1,52.5
196,278,67165,2,0,B|157:278|157:278|135:281|135:281|92:281,1,105,0|0,0:0|0:0,0:0:0:0:
43,281,67749,1,0,3:0:0:0:
80,194,68139,1,8,0:0:0:0:
80,194,68334,2,0,P|49:189|17:191,2,52.5,0|0|0,3:0|0:0|0:0,0:0:0:0:
126,187,68918,6,0,P|113:136|132:88,1,105,4|0,3:2|0:0,0:0:0:0:
217,47,69697,1,8,0:0:0:0:
217,47,69892,2,0,P|249:52|279:48,1,52.5,0|0,0:0|0:0,0:0:0:0:
316,54,70282,1,0,0:0:0:0:
316,54,70475,1,0,0:0:0:0:
368,185,71060,1,0,0:0:0:0:
368,185,71255,2,0,P|321:198|265:199,1,105
199,127,72035,6,0,P|153:177|168:272,1,157.5,0|0,3:0|3:0,0:0:0:0:
194,294,72814,1,8,0:0:0:0:
194,294,73009,2,0,P|222:291|255:293,1,52.5,0|0,0:0|0:0,0:0:0:0:
292,281,73398,1,0,0:0:0:0:
292,281,73592,1,0,0:0:0:0:
302,134,74177,1,0,0:0:0:0:
302,134,74372,2,0,B|261:134|261:134|244:127|244:127|199:127,1,105,0|2,0:0|0:3,0:0:0:0:
109,95,75152,6,0,B|114:138|114:138|99:166|101:215,1,105,4|2,3:2|0:0,0:0:0:0:
98,248,75736,1,2,0:0:0:0:
98,248,75931,2,0,L|162:251,1,52.5,8|0,0:0|0:0,0:0:0:0:
192,227,76321,2,0,L|244:224,1,52.5,0|0,0:0|0:0,0:0:0:0:
291,223,76710,1,0,0:0:0:0:
385,223,77100,2,0,P|388:197|385:171,1,52.5,0|0,3:0|0:0,0:0:0:0:
384,123,77489,2,0,B|427:124|427:124|465:112,2,78.75,8|0|0,0:0|0:0|0:0,0:0:0:0:
350,89,78269,6,0,B|302:89|302:89|294:91|294:91|243:90,1,105,4|2,3:2|0:0,0:0:0:0:
197,90,78853,1,2,0:0:0:0:
197,90,79048,2,0,P|201:58|198:23,2,52.5,8|0|0,0:0|0:0|0:0,0:0:0:0:
130,156,79827,2,0,B|119:212|119:212|128:262,1,105,0|0,0:0|3:0,0:0:0:0:
140,304,80411,1,0,0:0:0:0:
140,304,80606,2,0,P|172:296|200:295,1,52.5,8|0,0:0|3:0,0:0:0:0:
238,294,80996,2,0,P|264:296|289:303,1,52.5,0|0,0:0|0:0,0:0:0:0:
336,309,81385,6,0,B|333:270|333:270|339:240|339:240|335:188,1,105,4|2,3:2|0:0,0:0:0:0:
327,158,81970,1,2,0:0:0:0:
316,64,82359,2,0,P|342:64|373:57,2,52.5,0|0|0,0:0|0:0|0:0,0:0:0:0:
273,42,82944,2,0,P|223:42|175:79,1,105,0|0,0:0|3:0,0:0:0:0:
169,118,83528,1,0,0:0:0:0:
169,118,83723,2,0,P|122:112|82:115,2,78.75,8|0|0,0:0|0:0|0:0,0:0:0:0:
202,151,84502,6,0,P|192:203|197:272,1,105,4|2,3:2|3:2,0:0:0:0:
196,302,85087,1,2,3:2:0:0:
285,273,85476,2,0,B|331:273|362:289|362:289|398:273|447:273,1,157.5,4|4,0:3|0:3,0:0:0:0:
505,207,86449,2,0,P|455:160|367:160,1,157.5,0|0,3:3|0:3,0:3:0:0:
285,273,87619,6,0,P|234:266|167:266,1,105,4|0,3:2|0:0,0:0:0:0:
85,265,88398,1,8,0:0:0:0:
85,265,88593,2,0,P|81:299|83:328,2,52.5,0|0|0,0:0|3:0|0:0,0:0:0:0:
95,218,89178,2,0,P|86:168|96:113,1,105,0|0,0:0|0:0,0:0:0:0:
162,48,89957,2,0,P|213:57|264:48,1,105,8|0,0:0|0:0,0:0:0:0:
357,29,90736,6,0,B|343:85|366:115|366:115|350:147|350:147|372:182|352:235,1,210,0|8,3:0|0:0,0:0:0:0:
209,350,92295,2,0,B|223:294|200:264|200:264|216:232|216:232|194:197|214:144,1,210,0|8,0:0|0:0,0:0:0:0:
229,57,93463,1,2,0:3:0:0:
142,94,93853,6,0,L|35:100,1,105,2|0,3:2|0:0,0:0:0:0:
16,192,94632,2,0,L|120:186,1,105,8|0,0:0|3:0,0:0:0:0:
211,150,95411,1,0,0:0:0:0:
262,229,95801,1,0,0:0:0:0:
312,149,96191,2,0,P|359:140|422:155,1,105,8|0,0:0|0:0,0:0:0:0:
460,233,96970,6,0,P|460:151|498:80,2,157.5,8|8|8,0:3|0:3|0:3,0:0:0:0:
438,275,98334,1,8,0:3:0:0:
438,275,98528,2,0,B|321:274,1,105,0|0,3:0|3:0,0:0:0:0:
238,274,99307,1,0,3:0:0:0:
165,214,99697,1,2,0:3:0:0:
232,147,100087,6,0,P|186:120|120:131,1,105,2|0,3:2|0:0,0:0:0:0:
69,190,100866,2,0,P|115:217|181:206,1,105,8|0,0:0|3:0,0:0:0:0:
232,147,101645,2,0,L|337:153,1,105,0|0,0:0|3:0,0:0:0:0:
431,161,102424,2,0,B|446:214|446:214|438:263,1,105,8|0,0:0|0:0,0:0:0:0:
433,310,103009,1,0,3:0:0:0:
433,310,103204,6,0,P|382:294|331:305,1,105,0|0,3:0|3:0,0:0:0:0:
244,339,103983,2,0,P|193:349|143:333,1,105,8|0,0:0|0:0,0:0:0:0:
198,255,104762,2,0,L|203:148,1,105,0|0,3:0|3:0,0:0:0:0:
295,132,105541,2,0,L|290:236,1,105,8|2,0:0|0:3,0:0:0:0:
291,333,106321,6,0,P|337:346|395:334,1,105,2|0,3:2|0:0,0:0:0:0:
390,238,107100,2,0,P|340:225|289:236,1,105,8|0,0:0|0:0,0:0:0:0:
210,287,107879,2,0,P|160:299|108:284,1,105,0|0,0:0|3:0,0:0:0:0:
163,207,108658,2,0,B|152:157|152:157|166:100,1,105,8|0,0:0|0:0,0:0:0:0:
172,57,109243,1,0,3:0:0:0:
172,57,109437,6,0,P|134:60|88:60,2,78.75,0|0|0,3:0|0:0|3:0,0:0:0:0:
209,23,110217,1,8,0:0:0:0:
303,23,110606,2,0,L|298:75,1,52.5,0|0,3:0|3:0,0:0:0:0:
297,122,110996,2,0,P|346:120|401:125,1,105,0|0,0:0|0:0,0:0:0:0:
448,128,111580,1,0,3:0:0:0:
448,128,111775,2,0,L|448:238,1,105,8|0,0:0|0:0,0:0:0:0:
381,299,112554,5,4,0:0:0:0:
381,299,118788,6,0,P|353:287|274:287,1,105,6|2,3:2|3:2,0:0:0:0:
184,285,119567,2,0,P|196:257|196:178,1,105,2|2,3:2|3:2,0:0:0:0:
197,88,120347,2,0,P|225:100|304:100,1,105,0|2,3:0|3:2,0:0:0:0:
394,102,121126,2,0,P|382:130|382:209,1,105,0|2,3:0|3:2,0:0:0:0:
381,299,121905,5,4,3:2:0:0:
319,370,122295,1,2,3:2:0:0:
279,285,122684,2,0,L|212:287,1,52.5,2|2,0:0|0:0,0:0:0:0:
178,286,123074,2,0,L|125:284,1,52.5,2|2,0:0|0:0,0:0:0:0:
78,276,123463,2,0,B|84:319|84:319|79:364,2,78.75,2|2|2,0:3|0:3|0:3,0:0:0:0:
44,242,124243,2,0,P|44:191|59:133,1,105,2|2,0:1|0:1,0:0:0:0:
80,47,125022,6,0,L|206:50,1,105,4|0,3:2|0:0,0:0:0:0:
184,144,125801,2,0,L|288:141,1,105,8|0,0:0|0:0,0:0:0:0:
458,56,126970,2,0,P|456:87|458:114,1,52.5,0|0,3:0|0:0,0:0:0:0:
463,155,127359,2,0,P|465:186|463:213,1,52.5,8|0,0:0|0:0,0:0:0:0:
462,254,127749,2,0,B|425:247|425:247|350:254,1,105,0|0,0:0|3:0,0:0:0:0:
311,261,128334,6,0,P|321:211|307:137,1,105,0|0,0:0|3:0,0:0:0:0:
313,63,129113,2,0,L|365:61,2,52.5
218,67,129891,2,0,P|231:117|217:171,1,105
136,120,130671,1,0,3:0:0:0:
136,120,130866,2,0,P|108:123|83:122,1,52.5,0|0,0:0|0:0,0:0:0:0:
36,118,131256,6,0,P|50:169|50:227,1,105,4|0,3:2|0:0,0:0:0:0:
44,318,132035,2,0,P|95:304|153:304,1,105,8|0,0:0|0:0,0:0:0:0:
285,303,133009,2,0,P|287:327|286:359,2,52.5,0|0|0,0:0|3:0|0:0,0:0:0:0:
280,256,133593,2,0,P|331:264|397:254,1,105,8|0,0:0|0:0,0:0:0:0:
430,251,134178,6,0,P|462:155|423:55,1,210,0|0,0:0|0:0,0:0:0:0:
398,17,135152,1,8,0:0:0:0:
295,114,135736,2,0,P|246:114|193:95,1,105,0|0,0:0|0:0,0:0:0:0:
149,77,136321,1,0,3:0:0:0:
149,77,136515,1,0,0:0:0:0:
70,23,136905,2,0,P|53:62|69:128,1,105,0|0,3:0|0:0,0:0:0:0:
83,165,137489,5,4,3:2:0:0:
16,231,137879,1,0,0:0:0:0:
82,297,138269,1,8,0:0:0:0:
82,297,138463,2,0,L|144:298,1,52.5,0|0,0:0|0:0,0:0:0:0:
181,299,138853,2,0,P|181:252|203:193,1,105,0|0,0:0|0:0,0:0:0:0:
219,154,139437,1,0,3:0:0:0:
259,68,139827,2,0,P|283:74|314:74,1,52.5,8|0,0:0|0:0,0:0:0:0:
358,74,140217,1,0,0:0:0:0:
450,54,140606,5,0,3:0:0:0:
487,140,140995,1,0,0:0:0:0:
487,234,141384,1,8,0:0:0:0:
487,234,141580,2,0,P|460:232|429:233,1,52.5
388,242,141970,2,0,P|395:188|379:139,1,105
355,101,142554,1,0,3:0:0:0:
265,76,142944,1,8,0:0:0:0:
265,76,143139,2,0,L|268:18,2,52.5,0|0|0,3:0|0:0|0:0,0:0:0:0:
231,109,143723,6,0,P|182:96|127:107,1,105,4|0,3:2|0:0,0:0:0:0:
38,132,144502,1,8,0:0:0:0:
38,132,144697,2,0,P|35:99|40:68,2,52.5,0|0|0,0:0|0:0|0:0,0:0:0:0:
49,178,145281,1,0,0:0:0:0:
74,317,145865,1,0,0:0:0:0:
74,317,146061,1,8,0:0:0:0:
163,344,146450,1,0,0:0:0:0:
252,312,146840,6,0,P|253:235|311:185,1,157.5,0|0,3:0|3:0,0:0:0:0:
352,161,147619,1,8,0:0:0:0:
352,161,147814,2,0,L|352:103,2,52.5,0|0|0,0:0|0:0|0:0,0:0:0:0:
393,185,148397,1,0,0:0:0:0:
442,317,148982,1,0,0:0:0:0:
442,317,149178,1,8,0:0:0:0:
346,335,149567,1,0,0:0:0:0:
252,313,149957,5,4,3:2:0:0:
252,313,162424,6,0,P|251:246|372:191,1,210,2|8,3:2|0:0,0:0:0:0:
340,279,163593,1,0,0:0:0:0:
252,313,163983,2,0,P|181:313|102:263,1,157.5
76,236,164761,1,8,0:0:0:0:
66,143,165152,2,0,P|95:140|126:144,1,52.5,0|0,0:0|0:0,0:0:0:0:
165,146,165541,6,0,P|178:51|282:47,1,210,2|8,3:2|0:0,0:0:0:0:
356,90,166710,1,0,0:0:0:0:
356,90,166905,2,0,P|343:139|353:200,1,105,0|0,0:0|0:0,0:0:0:0:
371,284,167684,1,0,0:0:0:0:
371,284,167879,2,0,B|317:284|317:284|265:291,1,105,8|0,0:0|0:0,0:0:0:0:
173,308,168658,5,2,3:2:0:0:
173,308,168853,2,0,P|176:330|174:364,2,52.5,0|0|0,0:0|0:0|3:0,0:0:0:0:
169,261,169436,1,8,0:0:0:0:
168,166,169826,1,0,0:0:0:0:
168,166,170022,2,0,L|40:171,2,105,0|0|0,0:0|0:0|0:0,0:0:0:0:
267,160,171191,1,0,0:0:0:0:
267,160,171385,2,0,P|270:132|267:101,1,52.5,0|0,0:0|0:0,0:0:0:0:
263,60,171775,6,0,P|337:36|414:67,1,157.5,2|0,3:2|3:0,0:0:0:0:
449,87,172554,1,8,0:0:0:0:
385,157,172944,2,0,P|385:191|388:210,1,52.5,0|0,0:0|0:0,0:0:0:0:
398,255,173334,2,0,B|439:251|439:251|482:252,2,78.75,2|2|2,0:3|0:3|0:3,0:0:0:0:
363,287,174113,2,0,B|332:292|317:288|317:288|306:293|306:293|290:286|256:291,1,105,2|2,0:1|0:1,0:0:0:0:
167,271,174892,6,0,B|167:220|167:220|198:161,1,105,4|0,3:2|0:0,0:0:0:0:
285,192,175671,2,0,B|285:243|285:243|254:302,1,105,8|0,0:0|0:0,0:0:0:0:
79,346,176840,2,0,P|76:317|78:290,1,52.5,0|0,3:0|0:0,0:0:0:0:
84,246,177230,2,0,P|87:217|85:190,1,52.5,8|0,0:0|0:0,0:0:0:0:
79,146,177619,2,0,P|121:129|181:129,1,105,0|0,0:0|3:0,0:0:0:0:
227,130,178204,6,0,B|220:80|220:80|235:24,1,105,0|0,0:0|3:0,0:0:0:0:
308,85,178982,1,0,0:0:0:0:
308,85,179177,2,0,P|335:87|365:86,1,52.5
422,15,179761,2,0,P|446:51|446:118,1,105
421,150,180347,2,0,L|422:209,1,52.5,8|0,0:0|3:0,0:0:0:0:
406,247,180736,2,0,L|407:306,1,52.5
392,344,181126,6,0,B|338:326|338:326|286:326,1,105,4|0,3:2|0:0,0:0:0:0:
193,328,181905,2,0,B|144:328|144:328|93:306,1,105,8|0,0:0|0:0,0:0:0:0:
24,181,182879,1,0,0:0:0:0:
24,181,183074,2,0,P|21:148|21:123,1,52.5,0|0,3:0|0:0,0:0:0:0:
50,91,183463,2,0,P|103:81|157:93,1,105,8|0,0:0|0:0,0:0:0:0:
198,101,184048,1,0,0:0:0:0:
198,101,184243,6,0,B|198:168|198:168|213:204|213:204|213:270,1,157.5,0|0,3:0|0:0,0:0:0:0:
213,302,185022,1,8,0:0:0:0:
288,358,185411,1,0,0:0:0:0:
288,358,185606,2,0,P|303:316|293:256,1,105,0|0,0:0|0:0,0:0:0:0:
290,210,186191,1,0,3:0:0:0:
290,210,186385,2,0,L|397:216,2,105,0|0|0,0:0|3:0|0:0,0:0:0:0:
242,206,187359,5,4,3:2:0:0:
175,272,187749,1,0,0:0:0:0:
108,205,188138,1,8,0:0:0:0:
108,205,188333,2,0,P|104:169|110:143,1,52.5,0|0,0:0|0:0,0:0:0:0:
108,105,188723,2,0,P|158:115|216:106,1,105,0|0,0:0|0:0,0:0:0:0:
257,101,189307,1,0,3:0:0:0:
350,87,189697,2,0,P|355:121|351:160,1,52.5,8|0,0:0|0:0,0:0:0:0:
349,186,190086,1,0,0:0:0:0:
332,279,190476,5,0,3:0:0:0:
254,224,190866,2,0,L|148:228,1,105,0|8,0:0|0:0,0:0:0:0:
102,233,191450,2,0,P|101:270|105:300,1,52.5,0|0,0:0|0:0,0:0:0:0:
102,332,191840,2,0,B|136:332|136:332|163:321|163:321|204:321,1,105,0|0,0:0|0:0,0:0:0:0:
252,321,192424,1,0,3:0:0:0:
346,321,192814,1,8,0:0:0:0:
346,321,193009,2,0,P|351:352|349:384,2,52.5,0|0|0,3:0|0:0|0:0,0:0:0:0:
337,274,193593,6,0,P|336:226|352:170,1,105,4|0,3:2|0:0,0:0:0:0:
368,78,194372,1,8,0:0:0:0:
368,78,194567,2,0,P|396:77|424:80,2,52.5,0|0|0,0:0|0:0|0:0,0:0:0:0:
321,88,195151,2,0,B|227:112|241:70|147:84,1,157.5,0|0,0:0|0:0,0:0:0:0:
118,89,195931,1,8,0:0:0:0:
153,176,196320,1,0,0:0:0:0:
66,209,196710,6,0,P|111:259|207:252,1,157.5,0|0,3:0|3:0,0:0:0:0:
243,258,197489,1,8,0:0:0:0:
243,258,197684,2,0,P|271:255|304:257,1,52.5,0|0,0:0|0:0,0:0:0:0:
341,267,198073,1,0,0:0:0:0:
341,267,198268,2,0,B|342:203|342:203|351:184|351:184|354:110,1,157.5,0|0,0:0|0:0,0:0:0:0:
353,64,199047,2,0,P|299:78|244:59,1,105,8|0,0:0|0:0,0:0:0:0:
161,41,199827,5,0,3:0:0:0:
96,110,200217,2,0,B|105:159|105:159|100:176|100:176|108:222,1,105,2|0,0:0|0:0,0:0:0:0:
117,258,200801,1,0,0:0:0:0:
117,258,200996,1,2,0:0:0:0:
