osu file format v14

[General]
AudioFilename: MONSTA X() _ Beautiful().mp3
AudioLeadIn: 0
PreviewTime: 50014
Countdown: 0
SampleSet: Soft
StackLeniency: 0.4
Mode: 0
LetterboxInBreaks: 0
WidescreenStoryboard: 0

[Editor]
DistanceSpacing: 1.8
BeatDivisor: 4
GridSize: 4
TimelineZoom: 2.650002

[Metadata]
Title:Beautiful
TitleUnicode:아름다워
Artist:MONSTA X
ArtistUnicode:몬스타엑스
Creator:DeRandom Otaku
Version:Hard
Source:
Tags:Starship Entertainment The Clan Pt. 2.5: The Final Chapter kpop k-pop Shownu Kihyun Minhyuk Jooheon I.M. Hyungwon Wonho 셔누 원호 민혁 기현 형원 주헌 아이엠 Irreversible Ren
BeatmapID:1249464
BeatmapSetID:589261

[Difficulty]
HPDrainRate:5
CircleSize:3.5
OverallDifficulty:6
ApproachRate:7.3
SliderMultiplier:1.45
SliderTickRate:1

[Events]
//Background and Video events
0,0,"BG.jpg",0,0
//Break Periods
2,150157,161570
//Storyboard Layer 0 (Background)
//Storyboard Layer 1 (Fail)
//Storyboard Layer 2 (Pass)
//Storyboard Layer 3 (Foreground)
//Storyboard Sound Samples

[TimingPoints]
346,389.61038961039,4,2,1,40,1,0
1125,-100,4,2,1,20,0,0
1320,-100,4,2,1,40,0,0
1709,-100,4,2,1,5,0,0
1904,-100,4,2,1,40,0,0
2781,-100,4,2,1,5,0,0
2878,-100,4,2,1,40,0,0
3949,-100,4,2,1,5,0,0
4047,-100,4,2,1,40,0,0
9014,-100,4,2,1,5,0,0
9112,-100,4,2,1,40,0,0
11255,-100,4,2,1,55,0,0
12813,-83.3333333333333,4,2,1,55,0,0
37748,-153.846153846154,4,2,1,55,0,0
43982,-90.9090909090909,4,2,1,55,0,0
48657,-83.3333333333333,4,2,1,55,0,0
50216,-111.111111111111,4,2,1,80,0,1
74956,-133.333333333333,4,2,1,80,0,0
75151,-83.3333333333333,4,2,1,80,0,1
86060,-83.3333333333333,4,2,1,80,0,0
87034,-111.111111111111,4,2,1,80,0,0
87618,-86.9565217391304,4,2,1,65,0,0
90735,-111.111111111111,4,2,1,65,0,0
93852,-86.9565217391304,4,2,1,65,0,0
96969,-117.647058823529,4,2,1,55,0,0
98527,-100,4,2,1,55,0,0
100086,-90.9090909090909,4,2,1,65,0,0
112553,-153.846153846154,4,2,1,65,0,0
118787,-90.9090909090909,4,2,1,65,0,0
123462,-83.3333333333333,4,2,1,65,0,0
125021,-111.111111111111,4,2,1,80,0,1
149956,-111.111111111111,4,2,1,80,0,0
162423,-100,4,2,1,55,0,0
173333,-83.3333333333333,4,2,1,55,0,0
174891,-111.111111111111,4,2,1,80,0,1
199826,-111.111111111111,4,2,1,30,0,0
200605,-111.111111111111,4,2,1,10,0,0
200800,-111.111111111111,4,2,1,25,0,0

[Colours]
Combo1 : 185,185,185
Combo2 : 255,255,128
Combo3 : 175,95,95
Combo4 : 255,137,81

[HitObjects]
116,108,346,5,2,0:0:0:0:
116,108,736,2,0,L|270:120,1,145,2|0,0:0|0:0,0:0:0:0:
347,126,1321,1,2,0:0:0:0:
301,199,1515,6,0,P|301:260|369:317,1,145,2|2,0:0|0:0,0:0:0:0:
382,230,2100,1,0,0:0:0:0:
301,199,2295,2,0,L|204:209,1,72.5,2|0,0:0|0:0,0:0:0:0:
142,217,2684,1,0,0:0:0:0:
177,136,2879,1,2,0:0:0:0:
229,207,3074,2,0,P|235:238|230:287,1,72.5,2|0,0:0|0:0,0:0:0:0:
145,288,3463,6,0,P|139:257|144:208,1,72.5,2|0,0:0|0:0,0:0:0:0:
177,136,3853,1,2,0:0:0:0:
229,207,4048,1,0,0:0:0:0:
287,142,4243,1,0,0:0:0:0:
287,142,4437,1,2,0:0:0:0:
341,209,4632,6,0,P|404:209|461:148,1,145,2|2,0:0|0:0,0:0:0:0:
375,127,5217,1,0,0:0:0:0:
341,209,5411,2,0,L|351:291,2,72.5,2|0|0,0:0|0:0|0:0,0:0:0:0:
375,127,5996,1,2,0:0:0:0:
301,80,6191,2,0,P|262:72|219:72,1,72.5,2|0,0:0|0:0,0:0:0:0:
142,71,6580,5,2,0:0:0:0:
142,71,6970,2,0,P|160:133|160:216,1,145,2|0,0:0|0:0,0:0:0:0:
160,300,7554,1,2,0:0:0:0:
234,255,7749,6,0,P|293:240|375:256,1,145,2|2,0:0|0:0,0:0:0:0:
449,300,8334,1,0,0:0:0:0:
495,226,8528,2,0,P|495:182|479:141,1,72.5,2|0,0:0|0:0,0:0:0:0:
457,72,8918,1,0,0:0:0:0:
401,139,9113,1,2,0:0:0:0:
337,79,9308,2,0,P|302:73|260:79,1,72.5,2|0,0:0|0:0,0:0:0:0:
203,139,9697,6,0,P|167:143|131:137,1,72.5,2|0,0:0|0:0,0:0:0:0:
81,65,10087,2,0,L|88:225,1,145,2|0,0:0|0:0,0:0:0:0:
95,296,10671,1,2,0:0:0:0:
163,241,10866,2,0,P|205:240|247:243,1,72.5,2|0,0:0|0:0,0:0:0:0:
322,248,11256,5,0,1:0:0:0:
282,170,11450,1,0,0:0:0:0:
369,170,11645,2,0,L|409:170,2,36.25,0|0|0,1:0|0:0|0:0,0:0:0:0:
282,170,12035,2,0,L|184:170,1,72.5,0|0,1:0|0:0,0:0:0:0:
165,170,12327,1,0,0:0:0:0:
165,170,12424,2,0,P|177:132|177:96,1,72.5,0|0,0:0|0:0,0:0:0:0:
100,28,12814,6,0,P|172:60|270:61,1,173.999994689942,4|0,3:2|0:0,0:0:0:0:
100,28,13592,1,8,0:0:0:0:
26,101,13788,1,0,0:0:0:0:
26,101,13983,2,0,P|41:141|41:200,1,86.9999973449708,0|0,0:0|0:0,0:0:0:0:
43,289,14372,6,0,L|141:275,1,86.9999973449708,0|0,0:0|3:0,0:0:0:0:
203,202,14762,2,0,L|301:216,1,86.9999973449708,0|0,3:0|0:0,0:0:0:0:
392,233,15152,2,0,P|383:277|393:333,1,86.9999973449708,8|0,0:0|0:0,0:0:0:0:
485,282,15540,1,0,0:0:0:0:
418,201,15735,1,0,0:0:0:0:
493,106,15931,6,0,B|403:78|404:135|314:104,1,173.999994689942,0|0,3:0|3:0,0:0:0:0:
221,80,16515,1,0,3:0:0:0:
245,181,16710,1,8,0:0:0:0:
146,145,16905,2,0,P|102:144|61:155,2,86.9999973449708,0|0|0,0:0|0:0|3:0,0:0:0:0:
245,181,17489,6,0,P|251:226|245:269,1,86.9999973449708,0|0,0:0|0:0,0:0:0:0:
146,231,17879,2,0,P|140:187|146:145,1,86.9999973449708,0|0,3:0|0:0,0:0:0:0:
163,41,18269,1,8,0:0:0:0:
247,101,18463,1,0,0:0:0:0:
247,101,18561,1,0,0:0:0:0:
247,101,18658,2,0,P|286:91|336:103,1,86.9999973449708,2|2,0:3|0:3,0:0:0:0:
360,201,19048,6,0,P|364:126|377:26,1,173.999994689942,2|0,3:2|0:0,0:0:0:0:
485,110,19632,1,0,0:0:0:0:
485,110,19827,2,0,P|444:121|389:117,1,86.9999973449708,8|0,0:0|0:0,0:0:0:0:
295,89,20217,2,0,L|244:91,3,43.4999986724854,0|0|0|0,0:0|0:0|0:0|0:0,0:0:0:0:
199,89,20606,6,0,P|213:131|200:179,1,86.9999973449708,0|0,0:0|3:0,0:0:0:0:
167,270,20996,2,0,L|114:266,2,43.4999986724854,0|0|0,3:0|0:0|0:0,0:0:0:0:
267,240,21385,2,0,P|311:240|364:260,1,86.9999973449708,8|0,0:0|0:0,0:0:0:0:
451,285,21775,2,0,L|455:187,1,86.9999973449708,0|0,0:0|3:0,0:0:0:0:
457,145,22067,1,0,3:0:0:0:
457,145,22165,6,0,L|368:151,1,86.9999973449708,0|0,3:0|0:0,0:0:0:0:
279,98,22554,2,0,L|192:92,1,86.9999973449708,0|0,3:0|3:0,0:0:0:0:
87,87,22944,2,0,P|96:130|84:174,1,86.9999973449708,8|0,0:0|0:0,0:0:0:0:
73,222,23236,2,0,P|64:265|76:309,1,86.9999973449708,0|0,0:0|0:0,0:0:0:0:
91,355,23528,1,0,3:0:0:0:
182,303,23723,6,0,B|226:295|226:295|286:303,1,86.9999973449708,0|0,3:0|3:0,0:0:0:0:
313,205,24113,2,0,B|269:213|269:213|209:205,1,86.9999973449708,0|0,3:0|3:0,0:0:0:0:
273,113,24502,1,0,3:0:0:0:
180,64,24697,1,0,3:0:0:0:
180,64,24795,1,0,3:0:0:0:
180,64,24892,2,0,P|136:78|89:78,1,86.9999973449708,2|2,0:3|0:3,0:0:0:0:
10,17,25282,6,0,P|38:72|37:189,1,173.999994689942,2|0,3:2|0:0,0:0:0:0:
14,284,25866,1,0,0:0:0:0:
114,253,26061,2,0,L|206:258,1,86.9999973449708,8|0,0:0|0:0,0:0:0:0:
236,295,26352,2,0,L|328:290,1,86.9999973449708
375,290,26644,1,0,0:0:0:0:
446,211,26840,6,0,L|491:213,2,43.4999986724854,0|0|0,0:0|0:0|3:0,0:0:0:0:
341,205,27230,2,0,P|336:159|347:120,1,86.9999973449708,0|0,3:0|0:0,0:0:0:0:
363,17,27619,2,0,L|277:27,1,86.9999973449708,8|0,0:0|0:0,0:0:0:0:
172,39,28009,2,0,P|171:81|178:129,1,86.9999973449708,0|0,0:0|3:0,0:0:0:0:
183,177,28301,1,0,3:0:0:0:
183,177,28398,6,0,P|101:177|38:241,1,173.999994689942,0|0,3:0|0:0,0:0:0:0:
58,342,28983,1,0,0:0:0:0:
142,278,29178,2,0,L|249:282,1,86.9999973449708,8|0,0:0|0:0,0:0:0:0:
279,269,29469,2,0,P|235:249|210:214,1,86.9999973449708
183,177,29761,1,0,3:0:0:0:
78,175,29957,6,0,P|86:134|82:83,1,86.9999973449708,0|0,0:0|0:0,0:0:0:0:
74,37,30249,1,0,0:0:0:0:
74,37,30347,2,0,L|166:48,1,86.9999973449708,0|0,3:0|0:0,0:0:0:0:
264,59,30736,1,8,0:0:0:0:
367,72,30931,1,0,3:0:0:0:
302,154,31126,2,0,P|299:196|306:244,1,86.9999973449708,2|2,0:3|0:3,0:0:0:0:
401,196,31515,6,0,L|220:222,1,173.999994689942,2|0,3:2|0:0,0:0:0:0:
137,272,32100,1,0,0:0:0:0:
149,168,32295,2,0,P|148:123|140:78,1,86.9999973449708,8|0,0:0|0:0,0:0:0:0:
127,31,32587,2,0,L|223:34,1,86.9999973449708,0|0,0:0|0:0,0:0:0:0:
266,34,32879,1,0,0:0:0:0:
331,115,33074,6,0,P|340:156|332:206,1,86.9999973449708,0|0,0:0|3:0,0:0:0:0:
248,259,33463,2,0,P|239:300|247:350,1,86.9999973449708,0|0,3:0|0:0,0:0:0:0:
342,304,33853,1,8,0:0:0:0:
248,259,34048,1,0,0:0:0:0:
154,305,34243,2,0,P|107:305|63:294,1,86.9999973449708,0|0,0:0|3:0,0:0:0:0:
16,286,34535,1,0,3:0:0:0:
16,286,34632,6,0,B|27:241|27:241|27:191,1,86.9999973449708,0|0,3:0|0:0,0:0:0:0:
27,147,34924,2,0,B|27:106|27:106|38:61,1,86.9999973449708,0|0,0:0|0:0,0:0:0:0:
62,14,35217,1,0,3:0:0:0:
134,88,35411,2,0,P|219:104|308:86,1,173.999994689942,8|0,0:0|0:0,0:0:0:0:
400,45,35996,1,0,3:0:0:0:
370,145,36191,6,0,P|364:188|375:232,1,86.9999973449708,0|0,3:0|3:0,0:0:0:0:
397,331,36580,2,0,P|354:325|310:336,1,86.9999973449708,0|0,3:0|3:0,0:0:0:0:
209,355,36970,2,0,P|196:277|196:179,1,173.999994689942
195,77,37554,1,0,3:0:0:0:
195,77,37652,1,0,3:0:0:0:
195,77,37749,6,0,P|139:77|81:146,1,141.374993528366,4|0,0:0|0:0,0:0:0:0:
83,135,38527,1,8,0:0:0:0:
60,217,38722,2,0,P|31:212|3:212,1,47.1249978427888
81,299,39113,6,0,P|115:216|217:186,1,188.499991371155,0|0,3:0|0:0,0:0:0:0:
287,184,40087,1,8,0:0:0:0:
245,110,40282,2,0,L|245:49,2,47.1249978427888,0|0|0,0:0|0:0|0:0,0:0:0:0:
202,184,40866,6,0,L|209:335,1,141.374993528366,0|0,3:0|0:0,0:0:0:0:
291,305,41644,1,8,0:0:0:0:
366,342,41839,1,0,0:0:0:0:
364,258,42034,1,0,0:0:0:0:
285,225,42230,6,0,P|356:174|444:230,1,188.499991371155,0|0,3:0|0:0,0:0:0:0:
437,216,43203,1,8,0:0:0:0:
364,258,43397,2,0,L|368:313,2,47.1249978427888
201,272,43983,6,0,P|162:277|121:269,1,79.7500024337769,6|0,3:2|0:0,0:0:0:0:
125,173,44372,2,0,P|164:168|205:176,1,79.7500024337769,2|0,3:2|0:0,0:0:0:0:
285,225,44762,2,0,P|324:230|365:222,1,79.7500024337769,2|0,3:2|0:0,0:0:0:0:
458,210,45152,1,2,3:2:0:0:
396,136,45347,6,0,P|386:96|393:57,1,79.7500024337769,2|0,0:0|3:0,0:0:0:0:
482,94,45736,1,2,0:0:0:0:
396,136,45931,2,0,P|356:146|317:139,1,79.7500024337769,2|0,3:2|0:0,0:0:0:0:
224,121,46321,1,0,3:0:0:0:
255,210,46515,5,2,0:0:0:0:
319,139,46710,1,2,3:2:0:0:
224,121,46905,2,0,P|190:115|139:119,1,79.7500024337769,2|4,0:0|3:2,0:0:0:0:
49,129,47295,5,2,3:2:0:0:
85,42,47489,1,2,3:2:0:0:
145,118,47684,1,2,3:2:0:0:
109,205,47879,6,0,P|106:246|117:288,1,79.7500024337769,2|2,0:0|0:0,0:0:0:0:
178,356,48269,1,2,0:0:0:0:
178,356,48366,1,2,0:0:0:0:
178,356,48463,1,2,0:0:0:0:
221,270,48658,6,0,L|321:282,1,86.9999973449708,2|0,0:3|0:0,0:0:0:0:
346,252,48950,2,0,L|259:241,1,86.9999973449708,2|0,0:3|0:0,0:0:0:0:
234,200,49243,1,2,0:3:0:0:
299,130,49437,6,0,P|303:99|301:69,3,43.4999986724854,2|2|2|2,0:1|0:1|0:1|0:1,0:0:0:0:
277,46,49827,2,0,P|255:46|233:49,3,43.4999986724854,2|2|2|2,0:1|0:1|0:1|0:1,0:0:0:0:
187,67,50217,6,0,P|125:67|76:21,1,130.499996017456,4|0,3:2|0:0,0:0:0:0:
4,85,50801,1,0,3:0:0:0:
115,100,50996,2,0,B|121:133|121:133|116:184,1,65.2499980087281,8|0,0:0|0:0,0:0:0:0:
135,270,51385,2,0,B|129:237|129:237|132:205,1,65.2499980087281
132,206,52165,5,0,3:0:0:0:
205,132,52359,1,0,0:0:0:0:
278,205,52554,2,0,P|302:196|348:196,1,65.2499980087281,8|0,0:0|0:0,0:0:0:0:
360,297,52944,2,0,P|336:306|290:306,1,65.2499980087281,0|0,0:0|0:0,0:0:0:0:
197,273,53334,5,0,3:0:0:0:
127,350,53528,2,0,B|100:314|100:314|88:216,1,130.499996017456,0|0,0:0|3:0,0:0:0:0:
74,125,54113,1,8,0:0:0:0:
167,171,54308,2,0,P|199:169|233:159,1,65.2499980087281,0|0,0:0|0:0,0:0:0:0:
325,117,54697,6,0,L|323:192,1,65.2499980087281
334,287,55087,1,0,0:0:0:0:
430,244,55282,2,0,P|387:197|324:183,1,130.499996017456,0|8,3:0|0:0,0:0:0:0:
240,245,55866,1,0,3:0:0:0:
334,287,56061,1,0,0:0:0:0:
428,247,56256,1,0,0:0:0:0:
324,183,56450,6,0,P|304:124|325:61,1,130.499996017456,4|0,3:2|0:0,0:0:0:0:
408,124,57035,1,0,3:0:0:0:
324,183,57230,2,0,L|254:180,1,65.2499980087281,8|0,0:0|0:0,0:0:0:0:
184,106,57619,2,0,L|114:109,1,65.2499980087281,0|0,0:0|0:0,0:0:0:0:
119,109,58204,5,0,0:0:0:0:
45,182,58398,1,0,3:0:0:0:
118,255,58593,1,0,0:0:0:0:
38,326,58788,2,0,P|73:354|157:354,1,130.499996017456,8|0,0:0|0:0,0:0:0:0:
221,273,59372,1,0,0:0:0:0:
118,255,59567,6,0,P|127:195|122:111,1,130.499996017456,0|0,3:0|0:0,0:0:0:0:
111,21,60152,1,0,0:0:0:0:
206,62,60347,2,0,P|240:68|279:58,2,65.2499980087281,8|0|0,0:0|0:0|0:0,0:0:0:0:
124,125,60931,6,0,L|136:264,1,130.499996017456,0|0,0:0|0:0,0:0:0:0:
147,358,61515,1,0,3:0:0:0:
225,289,61710,2,0,P|258:284|294:290,1,65.2499980087281,0|8,0:0|0:0,0:0:0:0:
392,309,62100,2,0,P|404:244|390:174,1,130.499996017456,0|0,3:0|0:0,0:0:0:0:
343,89,62684,6,0,P|396:133|461:133,1,130.499996017456,4|0,3:2|0:0,0:0:0:0:
430,33,63269,1,0,3:0:0:0:
343,89,63463,2,0,P|316:111|287:119,2,65.2499980087281,8|0|0,0:0|0:0|0:0,0:0:0:0:
268,14,64048,6,0,L|136:48,1,130.499996017456,0|0,0:0|0:0,0:0:0:0:
42,80,64632,2,0,P|53:114|53:152,1,65.2499980087281,0|0,3:0|0:0,0:0:0:0:
54,248,65022,1,8,0:0:0:0:
141,191,65217,1,0,0:0:0:0:
179,287,65411,2,0,P|226:287|258:279,1,65.2499980087281,0|0,0:0|0:0,0:0:0:0:
325,217,65801,6,0,B|340:302|314:281|333:363,1,130.499996017456,0|0,3:0|0:0,0:0:0:0:
408,282,66385,1,0,3:0:0:0:
325,217,66580,2,0,P|318:183|318:140,2,65.2499980087281,8|0|0,0:0|0:0|0:0,0:0:0:0:
419,171,67165,6,0,P|398:105|347:66,1,130.499996017456,0|0,0:0|0:0,0:0:0:0:
249,89,67749,2,0,P|259:58|259:9,1,65.2499980087281,0|0,3:0|0:0,0:0:0:0:
156,37,68139,1,8,0:0:0:0:
249,89,68334,2,0,P|259:120|259:169,2,65.2499980087281,0|0|0,3:0|0:0|0:0,0:0:0:0:
157,139,68918,6,0,P|155:204|155:275,2,130.499996017456,4|0|8,3:2|0:0|0:0,0:0:0:0:
156,37,69892,1,0,0:0:0:0:
74,103,70087,2,0,P|67:137|60:169,1,65.2499980087281,0|0,0:0|0:0,0:0:0:0:
28,264,70476,6,0,P|91:252|154:269,1,130.499996017456,0|0,0:0|3:0,0:0:0:0:
248,319,71061,1,0,0:0:0:0:
144,334,71256,2,0,L|154:270,1,65.2499980087281,8|0,0:0|0:0,0:0:0:0:
258,255,71645,2,0,L|248:319,1,65.2499980087281
341,366,72035,6,0,P|405:368|461:328,1,130.499996017456,0|0,3:0|0:0,0:0:0:0:
508,238,72619,1,0,3:0:0:0:
406,253,72814,1,8,0:0:0:0:
417,150,73009,2,0,P|416:113|416:73,2,65.2499980087281
406,253,73593,6,0,P|346:236|273:236,1,130.499996017456,0|0,0:0|3:0,0:0:0:0:
173,235,74178,1,0,0:0:0:0:
279,235,74372,2,0,P|279:202|272:170,1,65.2499980087281,8|0,0:0|3:0,0:0:0:0:
166,170,74762,2,0,P|166:209|175:240,1,65.2499980087281,2|0,0:3|0:0,0:0:0:0:
214,340,75152,6,0,P|172:334|127:339,1,86.9999973449708,4|0,3:2|0:0,0:0:0:0:
15,355,75541,1,2,0:0:0:0:
15,355,75736,1,2,0:0:0:0:
60,251,75931,2,0,L|60:206|60:159,2,86.9999973449708,8|0|0,0:0|0:0|0:0,0:0:0:0:
128,339,76515,1,0,0:0:0:0:
200,251,76710,6,0,P|244:248|290:251,1,86.9999973449708,0|0,0:0|0:0,0:0:0:0:
367,331,77100,1,0,3:0:0:0:
447,250,77295,1,0,0:0:0:0:
367,170,77489,2,0,B|360:137|360:137|364:75,1,86.9999973449708,8|0,0:0|0:0,0:0:0:0:
369,40,77782,2,0,B|315:36|315:36|282:43,1,86.9999973449708,0|0,0:0|0:0,0:0:0:0:
243,61,78074,1,0,0:0:0:0:
136,27,78269,6,0,P|130:70|142:112,1,86.9999973449708,4|0,3:2|0:0,0:0:0:0:
225,180,78658,1,2,0:0:0:0:
114,200,78853,1,2,0:0:0:0:
208,263,79048,2,0,P|224:222|224:173,1,86.9999973449708,8|0,0:0|0:0,0:0:0:0:
114,200,79437,1,0,0:0:0:0:
114,200,79827,6,0,P|117:156|112:102,1,86.9999973449708,0|0,0:0|0:0,0:0:0:0:
194,32,80217,1,0,3:0:0:0:
194,32,80411,1,0,0:0:0:0:
259,124,80606,1,8,0:0:0:0:
259,124,80801,1,0,3:0:0:0:
323,32,80996,1,0,0:0:0:0:
323,32,81191,1,0,0:0:0:0:
398,113,81385,6,0,P|394:156|398:200,1,86.9999973449708,4|0,3:2|0:0,0:0:0:0:
409,313,81775,1,2,0:0:0:0:
501,249,81970,1,2,0:0:0:0:
398,200,82165,2,0,B|355:192|355:192|308:201,1,86.9999973449708,8|0,0:0|0:0,0:0:0:0:
203,231,82554,2,0,B|194:188|194:188|202:145,1,86.9999973449708,0|0,0:0|0:0,0:0:0:0:
299,85,82944,6,0,P|219:92|123:86,1,173.999994689942,0|0,0:0|3:0,0:0:0:0:
21,42,83528,1,0,0:0:0:0:
54,150,83723,2,0,L|46:250,1,86.9999973449708,8|0,0:0|0:0,0:0:0:0:
45,280,84015,2,0,P|87:277|145:288,1,86.9999973449708,0|0,0:0|0:0,0:0:0:0:
174,291,84308,1,0,0:0:0:0:
277,336,84502,6,0,B|273:295|273:295|283:241,1,86.9999973449708,4|0,3:2|3:0,0:0:0:0:
309,139,84892,1,2,3:2:0:0:
281,249,85087,1,2,3:2:0:0:
387,220,85282,2,0,P|426:220|471:198,1,86.9999973449708,8|4,0:0|0:3,0:0:0:0:
496,150,85574,1,4,0:3:0:0:
496,150,85671,2,0,L|490:104,3,43.4999986724854,4|4|4|4,0:3|0:3|0:3|0:3,0:0:0:0:
480,50,86061,5,4,0:3:0:0:
480,50,86450,2,0,P|445:61|391:54,1,86.9999973449708,0|0,3:0|0:0,0:0:0:0:
395,56,87035,2,0,P|403:120|403:185,1,130.499996017456
358,285,87619,6,0,L|454:288,1,83.375001590252,4|0,3:2|0:0,0:0:0:0:
491,289,87911,1,0,0:0:0:0:
491,289,88009,1,0,0:0:0:0:
488,189,88204,2,0,L|404:186,1,83.375001590252,0|8,0:0|0:0,0:0:0:0:
303,181,88593,1,0,0:0:0:0:
351,93,88788,2,0,L|267:90,1,83.375001590252,0|0,3:0|0:0,0:0:0:0:
217,90,89080,1,0,0:0:0:0:
217,90,89178,5,0,0:0:0:0:
139,153,89372,2,0,P|150:193|149:238,1,83.375001590252,0|0,0:0|0:0,0:0:0:0:
149,335,89762,1,0,3:0:0:0:
231,278,89957,2,0,B|273:273|273:273|318:280,1,83.375001590252,8|0,0:0|0:0,0:0:0:0:
362,289,90249,1,0,0:0:0:0:
362,289,90347,2,0,P|357:242|365:201,1,83.375001590252,0|0,0:0|0:0,0:0:0:0:
383,103,90736,6,0,L|317:112,1,65.2499980087281,0|0,3:0|0:0,0:0:0:0:
251,30,91126,2,0,L|315:21,1,65.2499980087281,0|0,0:0|0:0,0:0:0:0:
319,112,91515,2,0,L|253:121,1,65.2499980087281,8|0,0:0|0:0,0:0:0:0:
187,39,91905,2,0,L|251:30,1,65.2499980087281,0|0,0:0|0:0,0:0:0:0:
255,121,92295,6,0,L|189:130,1,65.2499980087281,0|0,0:0|0:0,0:0:0:0:
123,48,92683,2,0,L|187:39,1,65.2499980087281
191,130,93074,2,0,L|125:139,1,65.2499980087281,8|0,0:0|3:0,0:0:0:0:
36,156,93463,1,2,0:3:0:0:
90,229,93658,1,2,0:3:0:0:
41,316,93853,5,2,3:2:0:0:
41,316,93950,2,0,P|83:309|126:315,1,83.375001590252,0|0,0:0|0:0,0:0:0:0:
173,322,94243,2,0,P|214:327|255:320,1,83.375001590252,0|0,0:0|0:0,0:0:0:0:
255,220,94632,1,8,0:0:0:0:
255,220,94729,2,0,P|213:213|170:219,1,83.375001590252,0|0,0:0|0:0,0:0:0:0:
123,226,95022,2,0,P|81:231|40:224,1,83.375001590252,0|0,3:0|0:0,0:0:0:0:
87,135,95411,5,0,0:0:0:0:
157,64,95606,2,0,L|148:21,2,41.687500795126,0|0|0,0:0|0:0|0:0,0:0:0:0:
228,135,95996,1,0,3:0:0:0:
317,90,96191,1,8,0:0:0:0:
317,90,96288,2,0,P|324:132|318:175,1,83.375001590252,0|0,0:0|0:0,0:0:0:0:
311,222,96579,2,0,P|305:263|312:304,1,83.375001590252
416,262,96970,6,0,L|408:61,2,184.875003526211,8|8|8,0:3|0:3|0:3,0:0:0:0:
389,343,98334,1,8,0:3:0:0:
313,304,98528,6,0,P|277:315|237:316,1,72.5,0|0,3:0|3:0,0:0:0:0:
233,229,98918,2,0,P|268:217|309:217,1,72.5,0|0,3:0|3:0,0:0:0:0:
391,216,99308,2,0,P|387:174|387:137,1,72.5,0|0,3:0|3:0,0:0:0:0:
386,99,99600,1,0,3:0:0:0:
386,99,99697,1,2,0:3:0:0:
324,37,99892,1,2,0:3:0:0:
284,124,100087,6,0,P|217:100|125:100,1,159.500004867554,2|0,3:2|0:0,0:0:0:0:
41,137,100671,1,0,0:0:0:0:
125,182,100866,2,0,P|150:250|108:327,1,159.500004867554,8|0,0:0|3:0,0:0:0:0:
57,248,101450,1,0,0:0:0:0:
125,182,101645,6,0,L|214:188,1,79.7500024337769,0|0,0:0|0:0,0:0:0:0:
272,255,102035,2,0,L|351:249,1,79.7500024337769,0|0,3:0|0:0,0:0:0:0:
447,245,102424,1,8,0:0:0:0:
403,330,102619,1,0,0:0:0:0:
351,249,102814,2,0,P|345:208|346:159,1,79.7500024337769,0|0,0:0|3:0,0:0:0:0:
420,109,103204,6,0,L|243:141,1,159.500004867554,0|0,3:0|3:0,0:0:0:0:
169,140,103788,1,0,3:0:0:0:
154,47,103983,2,0,P|229:68|263:137,1,159.500004867554,8|0,0:0|0:0,0:0:0:0:
218,222,104567,1,0,3:0:0:0:
169,140,104762,6,0,P|130:135|88:139,1,79.7500024337769,0|0,3:0|0:0,0:0:0:0:
44,223,105152,2,0,P|83:228|125:224,1,79.7500024337769,0|0,3:0|0:0,0:0:0:0:
218,222,105541,2,0,L|212:308,1,79.7500024337769,8|0,0:0|0:0,0:0:0:0:
280,369,105931,1,2,0:3:0:0:
347,301,106126,1,2,0:3:0:0:
414,368,106321,6,0,L|501:354,1,79.7500024337769,2|0,3:2|0:0,0:0:0:0:
426,288,106710,2,0,L|339:302,1,79.7500024337769,0|0,0:0|0:0,0:0:0:0:
280,232,107100,2,0,L|359:220,1,79.7500024337769,8|0,0:0|0:0,0:0:0:0:
292,152,107489,2,0,L|205:166,1,79.7500024337769,0|0,0:0|0:0,0:0:0:0:
120,188,107879,6,0,P|134:226|135:273,2,79.7500024337769,0|0|0,0:0|3:0|3:0,0:0:0:0:
34,145,108463,1,0,0:0:0:0:
91,68,108658,2,0,P|159:50|258:50,1,159.500004867554,8|0,0:0|0:0,0:0:0:0:
343,56,109243,1,0,3:0:0:0:
286,133,109437,6,0,B|282:174|282:174|290:219,1,79.7500024337769,0|0,3:0|0:0,0:0:0:0:
323,246,109730,2,0,B|327:287|327:287|319:332,1,79.7500024337769,0|0,0:0|0:0,0:0:0:0:
286,359,110022,1,0,3:0:0:0:
218,291,110217,2,0,P|181:281|134:281,1,79.7500024337769,8|0,0:0|0:0,0:0:0:0:
43,280,110606,1,0,3:0:0:0:
43,280,110801,1,0,3:0:0:0:
85,194,110996,6,0,L|79:106,1,79.7500024337769,0|0,0:0|3:0,0:0:0:0:
154,55,111385,1,0,0:0:0:0:
222,122,111580,1,0,3:0:0:0:
289,53,111775,2,0,P|353:53|424:115,1,159.500004867554,8|0,0:0|0:0,0:0:0:0:
422,208,112359,1,0,3:0:0:0:
422,208,112457,1,0,3:0:0:0:
422,208,112554,6,0,P|366:208|311:278,1,141.374993528366,4|0,0:0|0:0,0:0:0:0:
393,285,113333,1,8,0:0:0:0:
422,208,113527,1,0,0:0:0:0:
482,268,113722,1,0,0:0:0:0:
422,208,113918,6,0,B|393:131|457:130|414:24,1,188.499991371155,0|0,3:0|0:0,0:0:0:0:
329,24,114892,1,8,0:0:0:0:
268,84,115087,2,0,L|207:84,2,47.1249978427888,0|0|0,0:0|0:0|0:0,0:0:0:0:
328,144,115671,6,0,P|295:204|330:281,1,141.374993528366,0|0,3:0|0:0,0:0:0:0:
396,296,116449,1,8,0:0:0:0:
427,209,116644,2,0,L|380:212,1,47.1249978427888
328,144,117035,6,0,P|254:145|135:147,1,188.499991371155,0|0,3:0|0:0,0:0:0:0:
139,146,118008,1,8,0:0:0:0:
96,221,118203,1,0,0:0:0:0:
27,171,118397,1,0,0:0:0:0:
95,220,118592,1,0,0:0:0:0:
9,259,118788,6,0,P|4:298|12:339,1,79.7500024337769,6|0,3:2|0:0,0:0:0:0:
99,299,119177,2,0,P|104:260|96:221,1,79.7500024337769,2|0,3:2|0:0,0:0:0:0:
84,125,119567,2,0,P|124:119|164:124,1,79.7500024337769,2|0,3:2|0:0,0:0:0:0:
253,159,119957,1,2,3:2:0:0:
166,200,120152,6,0,P|156:162|163:123,1,79.7500024337769,2|0,0:0|3:0,0:0:0:0:
231,55,120541,1,2,0:0:0:0:
298,122,120736,2,0,P|304:161|294:199,1,79.7500024337769,2|0,3:2|0:0,0:0:0:0:
281,294,121126,1,0,3:0:0:0:
368,255,121320,5,2,0:0:0:0:
295,199,121515,1,2,3:2:0:0:
281,294,121710,2,0,P|247:300|196:296,1,79.7500024337769,2|4,0:0|3:2,0:0:0:0:
106,286,122100,5,2,3:2:0:0:
140,197,122294,1,2,3:2:0:0:
174,108,122489,1,2,3:2:0:0:
82,135,122684,6,0,P|42:139|3:130,1,79.7500024337769,2|2,0:0|0:0,0:0:0:0:
57,49,123074,1,2,0:0:0:0:
57,49,123171,1,2,0:0:0:0:
57,49,123268,1,2,0:0:0:0:
82,136,123463,6,0,B|82:179|82:179|103:221,1,86.9999973449708,2|0,0:3|0:0,0:0:0:0:
154,218,123756,2,0,B|173:178|173:178|173:135,1,86.9999973449708,2|0,0:3|0:0,0:0:0:0:
173,83,124048,1,2,0:3:0:0:
261,27,124243,6,0,L|328:33,3,43.4999986724854,2|2|2|2,0:1|0:1|0:1|0:1,0:0:0:0:
356,30,124632,2,0,L|399:26,3,43.4999986724854,2|2|2|2,0:1|0:1|0:1|0:1,0:0:0:0:
451,26,125022,6,0,P|451:75|406:146,1,130.499996017456,4|0,3:2|0:0,0:0:0:0:
330,211,125606,1,0,3:0:0:0:
231,173,125801,2,0,P|225:210|235:257,1,65.2499980087281,8|0,0:0|0:0,0:0:0:0:
330,211,126191,2,0,P|336:174|326:127,1,65.2499980087281
333,146,126970,5,0,3:0:0:0:
303,46,127164,1,0,0:0:0:0:
240,130,127359,2,0,P|239:162|250:193,1,65.2499980087281,8|0,0:0|0:0,0:0:0:0:
298,286,127749,2,0,P|274:295|228:295,1,65.2499980087281,0|0,0:0|0:0,0:0:0:0:
129,292,128139,5,0,3:0:0:0:
129,292,128334,2,0,B|122:235|122:235|125:219|125:219|118:155,1,130.499996017456,0|0,0:0|3:0,0:0:0:0:
107,58,128918,1,8,0:0:0:0:
196,112,129113,2,0,P|227:118|268:108,1,65.2499980087281,0|0,0:0|0:0,0:0:0:0:
363,96,129502,6,0,L|361:171,1,65.2499980087281,0|0,0:0|0:0,0:0:0:0:
371,265,129892,1,0,0:0:0:0:
465,225,130087,2,0,P|423:176|361:161,1,130.499996017456,0|8,3:0|0:0,0:0:0:0:
287,234,130671,1,0,3:0:0:0:
200,173,130866,1,0,0:0:0:0:
168,272,131061,1,0,0:0:0:0:
287,234,131255,6,0,P|307:175|286:112,1,130.499996017456,4|0,3:2|0:0,0:0:0:0:
200,173,131840,1,0,3:0:0:0:
287,234,132035,2,0,L|352:231,1,65.2499980087281,8|0,0:0|0:0,0:0:0:0:
456,224,132424,2,0,L|459:294,1,65.2499980087281,0|0,0:0|0:0,0:0:0:0:
459,289,133009,5,0,0:0:0:0:
385,362,133203,1,0,3:0:0:0:
311,288,133398,1,0,0:0:0:0:
237,361,133593,2,0,P|177:361|132:305,1,130.499996017456,8|0,0:0|0:0,0:0:0:0:
98,212,134177,1,0,0:0:0:0:
201,209,134372,6,0,P|183:270|133:311,1,130.499996017456,0|0,3:0|0:0,0:0:0:0:
98,212,134957,1,0,0:0:0:0:
201,209,135152,2,0,P|234:208|273:217,2,65.2499980087281,8|0|0,0:0|0:0|0:0,0:0:0:0:
98,212,135736,6,0,L|109:81,1,130.499996017456,0|0,0:0|0:0,0:0:0:0:
183,8,136320,1,0,3:0:0:0:
256,81,136515,2,0,P|286:84|323:79,1,65.2499980087281,0|8,0:0|0:0,0:0:0:0:
419,42,136905,2,0,P|367:92|367:167,1,130.499996017456,0|0,3:0|0:0,0:0:0:0:
360,251,137489,6,0,P|296:254|247:296,1,130.499996017456,4|0,3:2|0:0,0:0:0:0:
334,355,138074,1,0,3:0:0:0:
360,251,138269,2,0,L|353:169,2,65.2499980087281,8|0|0,0:0|0:0|0:0,0:0:0:0:
334,355,138853,6,0,L|198:356,1,130.499996017456,0|0,0:0|0:0,0:0:0:0:
98,355,139437,2,0,P|98:322|109:283,1,65.2499980087281,0|0,3:0|0:0,0:0:0:0:
141,191,139827,1,8,0:0:0:0:
39,214,140022,1,0,0:0:0:0:
106,291,140216,2,0,P|138:298|178:298,1,65.2499980087281,0|0,0:0|0:0,0:0:0:0:
244,224,140606,6,0,P|304:202|363:227,1,130.499996017456,0|0,3:0|0:0,0:0:0:0:
406,321,141190,1,0,3:0:0:0:
310,361,141385,2,0,P|303:329|302:297,2,65.2499980087281,8|0|0,0:0|0:0|0:0,0:0:0:0:
406,321,141970,6,0,P|454:279|454:195,1,130.499996017456,0|0,0:0|0:0,0:0:0:0:
387,141,142554,2,0,P|357:153|323:153,1,65.2499980087281,0|0,3:0|0:0,0:0:0:0:
250,78,142944,1,8,0:0:0:0:
187,159,143139,2,0,P|187:190|199:222,2,65.2499980087281,0|0|0,3:0|0:0|0:0,0:0:0:0:
250,78,143723,6,0,P|187:98|116:98,2,130.499996017456,4|0|8,3:2|0:0|0:0,0:0:0:0:
350,49,144697,1,0,0:0:0:0:
317,148,144892,2,0,P|317:183|329:215,1,65.2499980087281,0|0,0:0|0:0,0:0:0:0:
359,311,145282,6,0,P|295:311|223:326,1,130.499996017456,0|0,0:0|3:0,0:0:0:0:
128,347,145866,1,0,0:0:0:0:
147,244,146061,2,0,P|147:215|134:177,1,65.2499980087281,8|0,0:0|0:0,0:0:0:0:
46,235,146450,2,0,P|35:265|35:298,1,65.2499980087281,0|0,0:0|0:0,0:0:0:0:
128,347,146840,6,0,P|187:323|258:323,1,130.499996017456,0|0,3:0|0:0,0:0:0:0:
357,322,147424,1,0,3:0:0:0:
305,231,147619,1,8,0:0:0:0:
357,140,147814,2,0,P|361:106|351:64,2,65.2499980087281,0|0|0,0:0|0:0|0:0,0:0:0:0:
256,109,148398,6,0,P|194:92|129:92,1,130.499996017456,0|0,0:0|3:0,0:0:0:0:
32,134,148983,1,0,0:0:0:0:
135,156,149177,2,0,P|135:123|129:92,1,65.2499980087281,8|0,0:0|3:0,0:0:0:0:
32,134,149567,2,0,P|32:167|39:199,1,65.2499980087281,0|0,0:0|0:0,0:0:0:0:
73,297,149957,5,4,3:2:0:0:
94,83,162424,6,0,P|129:78|168:83,1,72.5,2|0,3:2|0:0,0:0:0:0:
259,98,162814,2,0,P|264:133|259:172,1,72.5,0|0,0:0|3:0,0:0:0:0:
192,236,163204,2,0,P|257:215|332:242,1,145,8|0,0:0|0:0,0:0:0:0:
327,49,163983,6,0,P|262:70|187:43,1,145,0|0,0:0|3:0,0:0:0:0:
124,113,164567,1,0,0:0:0:0:
51,52,164762,2,0,P|77:121|51:197,1,145,8|0,0:0|0:0,0:0:0:0:
15,272,165347,1,0,0:0:0:0:
107,254,165541,6,0,L|182:259,1,72.5,2|0,3:2|0:0,0:0:0:0:
274,261,165931,2,0,L|279:186,1,72.5,0|0,0:0|3:0,0:0:0:0:
239,102,166321,2,0,P|278:148|333:104,1,145,8|0,0:0|0:0,0:0:0:0:
336,9,166905,6,0,P|371:22|408:23,1,72.5
465,96,167295,2,0,P|452:131|451:168,1,72.5,0|0,0:0|3:0,0:0:0:0:
450,260,167684,1,0,0:0:0:0:
369,211,167879,2,0,L|288:217,1,72.5,8|0,0:0|3:0,0:0:0:0:
229,283,168269,2,0,L|156:277,1,72.5,0|0,0:0|0:0,0:0:0:0:
89,210,168658,5,2,3:2:0:0:
154,142,168853,2,0,P|154:106|145:66,2,72.5,0|0|0,0:0|0:0|3:0,0:0:0:0:
89,210,169437,2,0,P|89:246|98:286,2,72.5,8|0|0,0:0|0:0|0:0,0:0:0:0:
154,142,170022,6,0,L|241:147,1,72.5
293,212,170411,2,0,L|365:207,1,72.5,0|0,0:0|3:0,0:0:0:0:
432,140,170801,2,0,P|416:210|439:277,1,145,0|0,0:0|0:0,0:0:0:0:
476,364,171385,2,0,P|436:358|396:359,1,72.5
307,355,171775,6,0,P|295:302|293:211,1,145,2|0,3:2|0:0,0:0:0:0:
292,117,172359,1,0,3:0:0:0:
213,169,172554,1,8,0:0:0:0:
213,169,172944,2,0,P|175:180|140:180,1,72.5
51,128,173334,6,0,B|41:172|41:172|47:217,1,86.9999973449708,2|0,0:3|0:0,0:0:0:0:
53,265,173626,2,0,B|95:278|95:278|138:277,1,86.9999973449708,2|0,0:3|0:0,0:0:0:0:
190,276,173918,1,2,0:3:0:0:
263,202,174113,6,0,P|258:168|259:141,3,43.4999986724854,2|2|2|2,0:1|0:1|0:1|0:1,0:0:0:0:
294,122,174502,2,0,P|292:100|288:78,3,43.4999986724854,2|2|2|2,0:1|0:1|0:1|0:1,0:0:0:0:
252,41,174892,6,0,L|394:48,1,130.499996017456,4|0,3:2|0:0,0:0:0:0:
456,121,175476,1,0,3:0:0:0:
382,194,175671,2,0,P|382:229|389:265,1,65.2499980087281,8|0,0:0|0:0,0:0:0:0:
282,258,176061,2,0,P|282:223|275:187,1,65.2499980087281,0|0,0:0|0:0,0:0:0:0:
276,193,176840,5,0,3:0:0:0:
172,193,177035,1,0,0:0:0:0:
67,193,177230,2,0,B|67:159|67:159|55:125,1,65.2499980087281,8|0,0:0|0:0,0:0:0:0:
162,129,177619,2,0,B|162:163|162:163|172:192,1,65.2499980087281,0|0,0:0|0:0,0:0:0:0:
241,274,178009,5,0,3:0:0:0:
292,180,178204,2,0,P|230:165|172:193,1,130.499996017456,0|0,0:0|3:0,0:0:0:0:
241,274,178788,1,8,0:0:0:0:
293,180,178983,2,0,B|297:145|297:145|292:104,1,65.2499980087281,0|0,0:0|0:0,0:0:0:0:
397,115,179372,6,0,B|393:144|393:144|397:179,1,65.2499980087281,0|0,0:0|0:0,0:0:0:0:
433,278,179762,1,0,0:0:0:0:
331,252,179957,2,0,L|193:271,1,130.499996017456,0|8,3:0|0:0,0:0:0:0:
103,235,180541,1,0,3:0:0:0:
196,187,180736,1,0,0:0:0:0:
142,97,180931,1,0,0:0:0:0:
256,32,181126,6,0,B|323:32|323:32|394:56,1,130.499996017456,4|0,3:2|0:0,0:0:0:0:
479,93,181710,1,0,3:0:0:0:
378,117,181905,2,0,L|385:36,1,65.2499980087281,8|0,0:0|0:0,0:0:0:0:
479,93,182295,2,0,L|472:174,1,65.2499980087281,0|0,0:0|0:0,0:0:0:0:
473,158,182879,5,0,0:0:0:0:
462,262,183074,1,0,3:0:0:0:
451,366,183269,1,0,0:0:0:0:
363,309,183463,2,0,L|228:318,1,130.499996017456,8|0,0:0|0:0,0:0:0:0:
158,243,184048,1,0,0:0:0:0:
231,169,184243,6,0,L|361:160,1,130.499996017456,0|0,3:0|0:0,0:0:0:0:
435,86,184827,1,0,0:0:0:0:
361,12,185022,2,0,P|328:11|289:20,2,65.2499980087281,8|0|0,0:0|0:0|0:0,0:0:0:0:
435,86,185606,6,0,P|412:140|412:224,1,130.499996017456,0|0,0:0|0:0,0:0:0:0:
409,315,186190,1,0,3:0:0:0:
320,259,186385,2,0,P|287:254|255:257,1,65.2499980087281,0|8,0:0|0:0,0:0:0:0:
155,289,186775,2,0,P|203:247|213:184,1,130.499996017456,0|0,3:0|0:0,0:0:0:0:
128,134,187359,6,0,P|176:92|240:89,1,130.499996017456,4|0,3:2|0:0,0:0:0:0:
213,184,187944,1,0,3:0:0:0:
128,134,188139,2,0,L|121:52,2,65.2499980087281,8|0|0,0:0|0:0|0:0,0:0:0:0:
213,185,188723,6,0,P|209:249|167:298,1,130.499996017456,0|0,0:0|0:0,0:0:0:0:
65,324,189308,2,0,P|61:286|70:251,1,65.2499980087281,0|0,3:0|0:0,0:0:0:0:
90,158,189697,1,8,0:0:0:0:
125,59,189892,1,0,0:0:0:0:
187,142,190087,2,0,P|219:141|251:134,1,65.2499980087281
337,73,190476,6,0,P|333:132|333:208,1,130.499996017456,0|0,3:0|0:0,0:0:0:0:
345,307,191060,1,0,3:0:0:0:
251,261,191255,2,0,P|218:261|186:268,2,65.2499980087281,8|0|0,0:0|0:0|0:0,0:0:0:0:
222,362,191840,6,0,P|153:364|102:322,1,130.499996017456,0|0,0:0|0:0,0:0:0:0:
187,269,192424,2,0,P|193:235|187:184,1,65.2499980087281,0|0,3:0|0:0,0:0:0:0:
170,101,192814,1,8,0:0:0:0:
263,148,193009,2,0,P|297:148|327:143,2,65.2499980087281,0|0|0,3:0|0:0|0:0,0:0:0:0:
170,101,193593,6,0,P|103:102|43:122,2,130.499996017456,4|0|8,3:2|0:0|0:0,0:0:0:0:
263,148,194567,1,0,0:0:0:0:
177,205,194762,2,0,P|177:240|189:272,1,65.2499980087281,0|0,0:0|0:0,0:0:0:0:
261,342,195152,6,0,P|324:329|390:329,1,130.499996017456,0|0,0:0|3:0,0:0:0:0:
494,329,195736,1,0,0:0:0:0:
436,241,195931,2,0,P|436:212|449:174,1,65.2499980087281,8|0,0:0|0:0,0:0:0:0:
460,74,196320,2,0,P|427:73|397:85,1,65.2499980087281,0|0,0:0|0:0,0:0:0:0:
320,156,196710,6,0,P|344:97|344:26,1,130.499996017456,0|0,3:0|0:0,0:0:0:0:
250,76,197294,1,0,3:0:0:0:
320,156,197489,1,8,0:0:0:0:
250,233,197684,2,0,P|216:237|174:227,2,65.2499980087281,0|0|0,0:0|0:0|0:0,0:0:0:0:
320,156,198268,6,0,P|383:156|436:195,1,130.499996017456,0|0,0:0|3:0,0:0:0:0:
351,257,198853,1,0,0:0:0:0:
320,156,199048,2,0,P|320:123|327:91,1,65.2499980087281,8|0,0:0|3:0,0:0:0:0:
351,257,199437,2,0,P|351:289|344:321,1,65.2499980087281,0|0,0:0|0:0,0:0:0:0:
235,274,199827,5,0,3:0:0:0:
235,274,200217,2,0,L|241:132,1,130.499996017456,2|0,0:0|0:0,0:0:0:0:
247,39,200801,1,0,0:0:0:0:
146,84,200996,1,2,0:0:0:0:
