osu file format v14

[General]
AudioFilename: MONSTA X() _ Beautiful().mp3
AudioLeadIn: 0
PreviewTime: 50014
Countdown: 0
SampleSet: Soft
StackLeniency: 0.7
Mode: 0
LetterboxInBreaks: 0
WidescreenStoryboard: 1

[Editor]
Bookmarks: 112553
DistanceSpacing: 1.2
BeatDivisor: 4
GridSize: 4
TimelineZoom: 3.250001

[Metadata]
Title:Beautiful
TitleUnicode:아름다워
Artist:MONSTA X
ArtistUnicode:몬스타엑스
Creator:DeRandom Otaku
Version:Irreversible's Red Rose
Source:
Tags:Starship Entertainment The Clan Pt. 2.5: The Final Chapter kpop k-pop Shownu Kihyun Minhyuk Jooheon I.M. Hyungwon Wonho 셔누 원호 민혁 기현 형원 주헌 아이엠 Irreversible Ren
BeatmapID:1346807
BeatmapSetID:589261

[Difficulty]
HPDrainRate:6.5
CircleSize:4
OverallDifficulty:8.3
ApproachRate:9
SliderMultiplier:0.755
SliderTickRate:1

[Events]
//Background and Video events
0,0,"BG.jpg",0,0
//Break Periods
2,75351,85849
2,150156,161823
//Storyboard Layer 0 (Background)
//Storyboard Layer 1 (Fail)
//Storyboard Layer 2 (Pass)
//Storyboard Layer 3 (Foreground)
//Storyboard Sound Samples

[TimingPoints]
346,389.61038961039,4,2,1,70,1,0
11644,-50,4,2,0,70,0,0
12229,-100,4,2,0,70,0,0
13203,-100,4,2,0,5,0,0
13592,-66.6666666666667,4,2,0,70,0,0
15151,-100,4,2,0,70,0,0
15443,-100,4,2,0,5,0,0
15540,-50,4,2,0,70,0,0
15638,-66.6666666666667,4,2,0,5,0,0
15735,-66.6666666666667,4,2,0,70,0,0
15833,-66.6666666666667,4,2,0,5,0,0
15930,-80,4,2,0,70,0,0
17488,-66.6666666666667,4,2,0,70,0,0
18462,-50,4,2,0,70,0,0
22164,-100,4,2,0,70,0,0
22943,-66.6666666666667,4,2,0,70,0,0
24501,-100,4,2,0,70,0,0
25281,-80,4,2,0,70,0,0
26060,-66.6666666666667,4,2,0,70,0,0
29079,-66.6666666666667,4,2,0,5,0,0
29177,-57.1428571428571,4,2,0,70,0,0
29956,-66.6666666666667,4,2,0,70,0,0
30345,-57.1428571428571,4,2,0,70,0,0
30735,-33.3333333333333,4,2,0,70,0,0
31904,-66.6666666666667,4,2,0,70,0,0
32294,-57.1428571428571,4,2,0,70,0,0
34631,-25,4,2,0,70,0,0
35800,-50,4,2,0,70,0,0
36190,-40,4,2,0,70,0,0
36579,-33.3333333333333,4,2,0,70,0,0
36969,-100,4,2,0,70,0,0
37261,-100,4,2,0,5,0,0
37358,-100,4,2,0,70,0,0
37651,-100,4,2,0,5,0,0
37748,-100,4,2,0,60,0,0
43982,-50,4,2,0,70,0,0
45248,-50,4,2,0,5,0,0
45346,-50,4,2,0,70,0,0
48657,-25,4,2,0,70,0,0
50216,-42.9184549356223,4,2,0,80,0,1
50557,-42.9184549356223,4,2,0,5,0,1
50605,-42.9184549356223,4,2,0,80,0,1
50946,-42.9184549356223,4,2,0,5,0,1
50995,-42.9184549356223,4,2,0,80,0,1
51920,-42.9184549356223,4,2,0,5,0,1
51969,-42.9184549356223,4,2,0,80,0,1
53430,-42.9184549356223,4,2,0,5,0,1
53527,-50,4,2,0,80,0,1
54307,-42.9184549356223,4,2,0,80,0,1
62683,-42.9184549356223,4,2,0,70,0,0
65021,-37.593984962406,4,2,0,70,0,0
65410,-33.4448160535117,4,2,0,70,0,0
66190,-42.9184549356223,4,2,0,70,0,0
68138,-37.593984962406,4,2,0,70,0,0
68527,-100,4,2,0,70,0,0
68917,-33.4448160535117,4,2,0,80,0,1
75151,-33.4448160535117,4,2,0,70,0,0
86449,-100,4,2,0,70,0,0
87034,-100,4,2,0,5,0,0
87083,-100,4,2,0,70,0,0
87570,-100,4,2,0,5,0,0
87618,-50,4,2,0,70,0,0
96969,-33.4448160535117,4,2,0,70,0,0
97358,-33.4448160535117,4,2,0,5,0,0
97748,-66.6666666666667,4,2,0,70,0,0
99307,-50,4,2,0,70,0,0
99696,-33.4448160535117,4,2,0,70,0,0
100086,-50,4,2,0,70,0,0
112553,-100,4,2,0,60,0,0
118787,-50,4,2,0,70,0,0
120053,-50,4,2,0,5,0,0
120151,-50,4,2,0,70,0,0
123462,-25,4,2,0,70,0,0
125021,-42.9184549356223,4,2,0,80,0,1
125362,-42.9184549356223,4,2,0,5,0,1
125410,-42.9184549356223,4,2,0,80,0,1
125751,-42.9184549356223,4,2,0,5,0,1
125800,-42.9184549356223,4,2,0,80,0,1
126725,-42.9184549356223,4,2,0,5,0,1
126774,-42.9184549356223,4,2,0,80,0,1
128235,-42.9184549356223,4,2,0,5,0,1
128333,-50,4,2,0,80,0,1
129112,-42.9184549356223,4,2,0,80,0,1
132910,-42.9184549356223,4,2,0,5,0,1
133008,-42.9184549356223,4,2,0,80,0,1
137488,-42.9184549356223,4,2,0,70,0,0
139826,-37.593984962406,4,2,0,70,0,0
140216,-33.4448160535117,4,2,0,70,0,0
140995,-42.9184549356223,4,2,0,70,0,0
142943,-37.593984962406,4,2,0,70,0,0
143333,-33.4448160535117,4,2,0,70,0,0
143722,-33.4448160535117,4,2,0,80,0,1
149956,-33.4448160535117,4,2,0,70,0,0
162423,-66.6666666666667,4,2,0,60,0,0
173235,-33.4448160535117,4,2,0,70,0,0
174112,-25,4,2,0,70,0,0
174891,-42.9184549356223,4,2,0,80,0,1
175183,-42.9184549356223,4,2,0,5,0,1
175281,-42.9184549356223,4,2,0,80,0,1
175573,-42.9184549356223,4,2,0,5,0,1
175670,-42.9184549356223,4,2,0,80,0,1
176547,-42.9184549356223,4,2,0,5,0,1
176644,-42.9184549356223,4,2,0,80,0,1
178105,-42.9184549356223,4,2,0,5,0,1
178203,-42.9184549356223,4,2,0,80,0,1
182781,-42.9184549356223,4,2,0,5,0,1
182878,-42.9184549356223,4,2,0,80,0,1
187358,-42.9184549356223,4,2,0,70,0,0
189696,-37.593984962406,4,2,0,70,0,0
190086,-33.4448160535117,4,2,0,70,0,0
190865,-42.9184549356223,4,2,0,70,0,0
192813,-37.593984962406,4,2,0,70,0,0
193203,-33.4448160535117,4,2,0,70,0,0
193592,-33.4448160535117,4,2,0,80,0,1
199826,-133.333333333333,4,2,0,70,0,0
200118,-133.333333333333,4,2,0,5,0,0
200216,-133.333333333333,4,2,0,70,0,0
200605,-133.333333333333,4,2,0,5,0,0
200800,-133.333333333333,4,2,0,70,0,0
201092,-133.333333333333,4,2,0,5,0,0
201190,-133.333333333333,4,2,0,50,0,0
201287,-133.333333333333,4,2,0,5,0,0
201384,-133.333333333333,4,2,0,30,0,0
201482,-133.333333333333,4,2,0,5,0,0

[Colours]
Combo1 : 185,185,185
Combo2 : 255,255,128
Combo3 : 175,95,95
Combo4 : 255,137,81

[HitObjects]
112,324,11255,5,4,3:0:0:0:
256,192,11449,1,0,0:0:0:0:
400,324,11644,2,0,L|397:369,2,37.75,4|0|0,3:0|1:0|0:0,0:0:0:0:
256,192,12034,1,2,0:0:0:0:
112,324,12229,6,0,L|115:369,1,37.75,0|8,1:0|3:0,0:0:0:0:
64,192,12618,5,0,1:0:0:0:
250,345,12813,2,0,P|286:353|330:349,1,75.5,4|0,1:0|0:0,0:0:0:0:
448,160,13592,1,8,0:0:0:0:
448,160,13787,2,0,L|384:164,2,56.6250021600724,2|0|0,0:0|0:0|0:0,0:0:0:0:
332,84,14371,5,0,1:0:0:0:
148,268,14566,1,4,3:0:0:0:
180,84,14761,1,4,3:0:0:0:
364,268,14956,1,4,1:0:0:0:
121,163,15151,6,0,B|50:158,1,56.625,2|0,1:0|0:0,0:0:0:0:
120,336,15540,6,0,P|140:343|168:336,1,37.75,4|0,0:3|0:0,0:0:0:0:
256,348,15735,2,0,P|276:341|304:348,1,28.3125010800362,2|0,0:3|0:0,0:0:0:0:
420,192,15930,6,0,P|429:149|424:96,1,94.375,4|4,1:0|3:0,0:0:0:0:
348,20,16514,1,4,3:0:0:0:
55,49,16709,1,8,0:0:0:0:
206,255,16904,1,2,3:0:0:0:
224,106,17099,1,0,1:0:0:0:
80,272,17294,2,2,L|64:274,3,11.796875,2|2|2|2,0:0|0:0|0:0|0:0,0:0:0:0:
57,293,17488,6,0,L|64:350,1,56.6250021600724,0|0,1:0|0:0,0:0:0:0:
256,368,17878,1,0,1:0:0:0:
427,278,18073,1,4,3:0:0:0:
153,154,18268,1,8,0:0:0:0:
256,368,18462,6,0,P|298:371|306:368,1,37.75,2|0,3:0|0:0,0:0:0:0:
399,303,18657,2,0,P|430:275|434:267,1,37.75,4|0,3:0|0:0,0:0:0:0:
454,155,18852,2,0,P|457:112|454:105,1,37.75,4|0,3:0|0:0,0:0:0:0:
279,290,19047,5,0,3:0:0:0:
279,290,19144,1,0,3:0:0:0:
56,56,19436,1,0,3:0:0:0:
86,54,19534,1,0,3:0:0:0:
117,52,19631,1,0,3:0:0:0:
56,328,19826,6,0,P|111:322|156:355,1,113.25,2|0,1:0|0:0,0:0:0:0:
56,328,20216,1,4,3:0:0:0:
92,335,20313,1,0,0:0:0:0:
129,326,20410,1,4,3:0:0:0:
158,303,20508,1,0,0:0:0:0:
175,270,20605,5,8,3:0:0:0:
168,192,20703,1,0,0:0:0:0:
456,328,20995,1,0,3:0:0:0:
426,330,21092,1,0,3:0:0:0:
395,332,21190,1,0,3:0:0:0:
456,56,21384,6,0,P|383:63|323:20,1,151,0|0,1:0|0:0,0:0:0:0:
256,336,21969,1,4,3:0:0:0:
88,264,22164,5,0,1:0:0:0:
60,128,22358,1,2,0:0:0:0:
180,192,22553,5,0,1:0:0:0:
208,56,22748,1,2,0:0:0:0:
252,300,22943,6,0,L|255:359,1,56.6250021600724,0|0,1:0|0:0,0:0:0:0:
327,322,23235,2,0,L|323:264,1,56.6250021600724,0|0,3:0|0:0,0:0:0:0:
327,322,23722,5,0,1:0:0:0:
386,121,23917,1,0,1:0:0:0:
185,62,24112,1,0,1:0:0:0:
126,263,24307,1,0,1:0:0:0:
327,322,24501,6,0,L|310:324,2,9.4375,0|0|0,1:0|0:0|0:0,0:0:0:0:
436,252,24891,2,0,L|452:254,2,9.4375,0|0|0,1:0|0:0|0:0,0:0:0:0:
386,121,25086,5,0,1:0:0:0:
192,323,25281,2,0,P|151:343|101:343,1,94.375,4|0,1:0|0:0,0:0:0:0:
104,344,26060,6,0,L|98:279,1,56.6250021600724,0|0,1:0|0:0,0:0:0:0:
44,192,26352,2,0,L|51:102,1,84.9375032401086,4|0,3:0|0:0,0:0:0:0:
52,108,26839,6,0,L|24:105,1,28.3125010800362,0|0,1:0|0:0,0:0:0:0:
200,64,27034,1,8,3:0:0:0:
252,252,27229,1,2,3:0:0:0:
420,336,27423,1,0,0:0:0:0:
156,324,27618,5,8,0:0:0:0:
252,252,27813,1,0,0:0:0:0:
370,249,28008,1,0,1:0:0:0:
370,249,28105,2,0,P|380:208|380:192,1,56.6250021600724,0|0,0:0|0:0,0:0:0:0:
408,192,28397,2,0,P|388:112|464:140,1,198.187507560253,2|0,0:0|0:0,0:0:0:0:
408,192,29177,6,0,P|371:189|337:178,1,66.0625006300211,8|0,0:0|0:0,0:0:0:0:
222,165,29469,2,0,P|184:177|144:180,1,66.0625006300211,2|0,0:0|0:0,0:0:0:0:
43,100,29956,6,0,L|39:40,1,56.6250021600724,4|0,3:0|0:0,0:0:0:0:
158,179,30248,1,0,3:0:0:0:
158,179,30345,2,0,L|153:253,1,66.0625006300211,8|0,3:0|0:0,0:0:0:0:
38,338,30638,1,0,3:0:0:0:
38,338,30735,6,0,P|62:358|110:354,1,56.6250021600724,0|0,1:0|0:0,0:0:0:0:
244,360,30930,2,0,P|275:357|306:320,1,56.6250021600724,0|0,1:0|0:0,0:0:0:0:
400,236,31125,2,0,P|420:211|416:163,1,56.6250021600724,0|0,1:0|0:0,0:0:0:0:
376,32,31320,1,0,1:0:0:0:
96,60,31514,1,0,1:0:0:0:
40,64,31904,6,0,L|104:60,1,56.6250021600724,0|0,1:0|0:0,0:0:0:0:
192,304,32294,2,0,L|113:308,1,66.0625006300211,0|0,1:0|0:0,0:0:0:0:
40,340,32586,2,0,L|114:335,1,66.0625006300211,2|0,3:0|0:0,0:0:0:0:
168,380,32878,1,4,3:0:0:0:
320,304,33073,6,0,P|328:259|328:233,1,66.0625006300211,0|4,1:0|3:0,0:0:0:0:
127,191,33462,2,0,P|162:223|187:237,1,66.0625006300211,8|0,3:0|0:0,0:0:0:0:
320,79,33852,2,0,P|280:93|259:105,1,66.0625006300211,4|0,3:0|0:0,0:0:0:0:
177,309,34242,1,12,3:0:0:0:
320,79,34436,1,12,3:0:0:0:
177,309,34631,6,0,B|126:319|126:319|77:310|77:310|24:319,1,151,2|0,1:0|0:0,0:0:0:0:
29,241,34923,2,0,B|80:231|80:231|129:240|129:240|182:231,1,151,2|0,1:0|0:0,0:0:0:0:
305,85,35216,1,2,1:0:0:0:
469,313,35410,6,0,B|477:264|477:264|468:215|468:215|478:164,1,151,0|0,1:0|0:0,0:0:0:0:
478,164,35800,6,0,P|440:169|417:185,2,50.3333333333333,2|0|0,1:0|0:0|0:0,0:0:0:0:
256,72,36190,6,0,P|283:108|313:121,2,62.9166666666667,0|0|0,1:0|0:0|0:0,0:0:0:0:
296,320,36579,6,0,P|313:278|309:246,2,75.5000028800965,2|0|0,1:0|0:0|0:0,0:0:0:0:
34,164,36969,6,0,P|30:132|30:101,1,56.625,2|0,0:0|0:0,0:0:0:0:
40,88,37358,2,0,P|40:118|42:149,1,56.625,2|0,0:0|0:0,0:0:0:0:
52,312,37748,6,0,B|128:308|125:343|202:331,1,151,4|0,0:1|1:0,0:0:0:0:
304,296,38722,2,0,P|312:316|312:336,1,37.75,2|2,0:0|0:0,0:0:0:0:
312,332,39112,2,0,B|386:343|382:307|459:311,1,151,0|0,3:0|0:0,0:0:0:0:
460,72,40086,1,0,1:0:0:0:
348,212,40281,2,0,P|340:232|340:252,1,37.75,2|0,0:0|0:0,0:0:0:0:
339,248,40670,6,0,B|350:173|314:177|318:100,1,151,0|0,3:3|0:3,0:0:0:0:
52,72,41644,1,0,1:0:0:0:
164,212,41839,2,0,P|172:232|172:252,1,37.75,2|2,0:0|0:0,0:0:0:0:
173,248,42229,2,0,B|161:173|197:177|193:100,1,151,0|0,3:3|0:3,0:0:0:0:
52,312,43203,5,0,1:0:0:0:
256,216,43397,1,2,0:0:0:0:
372,284,43592,2,0,L|324:282,1,37.75,0|2,0:0|0:0,0:0:0:0:
456,172,43982,5,2,1:2:0:0:
456,172,44079,1,0,0:0:0:0:
456,172,44177,2,0,P|467:127|463:111,1,37.75,0|0,0:0|0:0,0:0:0:0:
388,60,44371,1,2,1:2:0:0:
388,60,44468,1,0,0:0:0:0:
388,60,44566,2,0,P|377:105|381:121,1,37.75,0|0,0:0|0:0,0:0:0:0:
280,128,44761,6,0,P|232:156|164:132,1,113.25,0|0,1:0|0:0,0:0:0:0:
180,150,45151,2,0,L|176:202,1,37.75,4|0,3:0|0:0,0:0:0:0:
64,192,45346,6,0,L|180:188,1,113.25,4|0,3:0|0:0,0:0:0:0:
332,288,45735,2,0,L|336:340,2,37.75,2|0|0,0:0|0:0|1:0,0:0:0:0:
432,212,46125,5,4,3:0:0:0:
178,325,46320,1,0,0:0:0:0:
332,96,46514,2,0,L|336:44,2,37.75,0|0|0,1:0|0:0|0:0,0:0:0:0:
432,212,46904,1,2,0:0:0:0:
178,325,47099,5,0,1:0:0:0:
160,188,47294,1,0,1:0:0:0:
297,170,47488,1,4,3:0:0:0:
315,307,47683,1,8,3:0:0:0:
178,325,47878,5,2,3:0:0:0:
256,100,48073,1,2,3:0:0:0:
455,270,48268,6,0,B|418:275,1,37.75,2|2,3:0|3:0,0:0:0:0:
449,285,48462,2,0,B|411:288,1,37.75,2|2,3:0|3:0,0:0:0:0:
444,296,48657,6,0,B|461:319|461:319|316:336,1,151,0|0,1:0|0:0,0:0:0:0:
256,284,48949,2,0,B|273:261|273:261|128:244,1,151,0|0,1:0|0:0,0:0:0:0:
68,296,49242,2,0,P|52:328|52:388,1,75.5,0|0,1:0|0:0,0:0:0:0:
151,246,49436,6,0,L|144:160,1,75.5,0|0,1:0|0:0,0:0:0:0:
132,64,49631,2,0,L|125:150,1,75.5,0|0,1:0|0:0,0:0:0:0:
256,284,49826,6,0,L|249:198,1,75.5,0|0,1:0|0:0,0:0:0:0:
212,36,50021,2,0,L|205:122,1,75.5,0|0,1:0|0:0,0:0:0:0:
184,319,50216,6,0,P|238:361|324:322,1,153.925631165387,4|0,1:0|0:0,0:0:0:0:
324,324,50605,2,0,P|393:299|453:342,1,153.925631165387,2|0,3:0|0:0,0:0:0:0:
460,356,50995,2,0,L|464:296,1,43.9787517615391,8|0,0:0|0:0,0:0:0:0:
404,160,51190,2,0,L|408:220,1,43.9787517615391,0|0,0:0|0:0,0:0:0:0:
460,28,51384,1,2,3:0:0:0:
205,111,51579,2,0,P|136:86|76:129,1,153.925631165387,2|0,0:0|0:0,0:0:0:0:
147,160,51969,1,2,0:0:0:0:
48,367,52164,6,0,L|64:267,1,87.9575035230781,4|0,3:0|0:0,0:0:0:0:
256,208,52553,1,8,0:0:0:0:
61,280,52748,1,4,0:0:0:0:
256,356,52943,1,0,0:0:0:0:
451,280,53138,2,0,P|460:216|464:128,1,131.936255284617,4|0,0:0|0:0,0:0:0:0:
368,40,53527,2,0,P|357:114|354:190,1,151,2|4,0:0|3:0,0:0:0:0:
451,280,54112,1,8,0:0:0:0:
256,352,54307,6,0,P|214:337|170:336,1,87.9575035230781,4|0,3:0|3:0,0:0:0:0:
61,280,54696,2,0,B|41:149|41:149|69:182,1,175.915007046156,8|2,3:0|0:0,0:0:0:0:
69,182,55183,1,2,0:0:0:0:
77,189,55281,6,0,P|120:187|162:173,1,87.9575035230781,4|0,3:0|0:0,0:0:0:0:
256,64,55670,1,8,0:0:0:0:
176,328,55865,5,4,3:0:0:0:
256,64,56060,1,0,0:0:0:0:
336,328,56255,1,2,1:2:0:0:
451,104,56449,6,0,L|359:96,1,87.9575035230781,4|0,1:0|0:0,0:0:0:0:
423,320,56839,2,0,L|336:328,1,87.9575035230781,2|4,3:0|3:0,0:0:0:0:
256,64,57229,6,0,L|164:56,2,87.9575035230781,8|0|2,0:0|0:0|3:0,0:0:0:0:
228,308,57813,2,0,L|96:319,1,131.936255284617,0|0,0:0|0:0,0:0:0:0:
98,318,58203,6,0,P|124:272|110:222,2,87.9575035230781,2|4|2,0:0|3:0|0:0,0:0:0:0:
64,116,58787,2,0,P|96:60|204:88,1,175.915007046156,8|0,0:0|0:0,0:0:0:0:
317,310,59371,2,0,P|396:333|448:268,1,175.915007046156,4|0,0:0|0:0,0:0:0:0:
414,66,59956,2,0,P|388:112|402:162,1,87.9575035230781,2|4,3:0|3:0,0:0:0:0:
448,267,60345,5,8,0:0:0:0:
432,307,60443,1,6,3:0:0:0:
396,332,60540,1,2,3:0:0:0:
353,333,60638,1,8,0:0:0:0:
317,310,60735,2,0,L|260:313,1,43.9787517615391,6|0,3:0|0:0,0:0:0:0:
137,253,60930,6,0,B|120:228|120:228|136:72,1,175.915007046156,4|0,0:0|0:0,0:0:0:0:
256,36,61514,1,4,3:0:0:0:
374,252,61709,2,0,B|392:227|392:227|378:83,1,175.915007046156,4|0,0:0|0:0,0:0:0:0:
138,61,62294,5,4,1:0:0:0:
374,61,62488,1,4,1:0:0:0:
256,340,62683,1,2,1:2:0:0:
256,340,63073,6,0,P|228:300|228:260,1,87.9575035230781,0|4,0:0|3:0,0:0:0:0:
348,176,63462,2,0,P|376:216|376:256,2,87.9575035230781,8|0|0,0:0|0:0|0:0,0:0:0:0:
80,96,64047,2,0,B|44:72|64:36|114:42|112:88|152:88|197:77,1,175.915007046156,4|0,0:0|0:0,0:0:0:0:
300,52,64631,6,0,L|208:48,1,87.9575035230781,6|0,3:0|0:0,0:0:0:0:
348,176,65021,2,0,L|456:171,1,100.41499586303,10|0,0:0|0:0,0:0:0:0:
137,253,65410,2,0,L|23:248,1,112.872498191587,6|0,0:0|0:0,0:0:0:0:
256,340,65800,1,2,1:2:0:0:
256,340,66190,6,0,P|284:300|284:260,1,87.9575035230781,0|4,0:0|3:0,0:0:0:0:
164,176,66579,2,0,P|136:216|136:256,2,87.9575035230781,8|0|0,0:0|0:0|0:0,0:0:0:0:
432,96,67164,2,0,B|468:72|448:36|397:42|400:88|360:88|314:77,1,175.915007046156,4|0,0:0|0:0,0:0:0:0:
212,52,67748,6,0,L|304:48,1,87.9575035230781,6|0,3:0|0:0,0:0:0:0:
164,176,68138,2,0,L|56:171,1,100.41499586303,10|4,0:0|3:0,0:0:0:0:
375,253,68527,5,6,0:0:0:0:
488,248,68722,1,0,0:0:0:0:
256,340,68917,6,0,P|204:356|132:352,1,112.872498191587,2|0,1:2|0:0,0:0:0:0:
63,171,69307,2,0,P|47:223|51:295,1,112.872498191587,2|4,1:2|3:0,0:0:0:0:
256,340,69696,1,8,0:0:0:0:
366,28,69891,2,0,P|309:27|256:44,2,112.872498191587,2|0|2,1:2|0:0|1:2,0:0:0:0:
449,171,70475,6,0,P|449:235|321:207,1,225.744996383175,4|4,0:0|3:0,0:0:0:0:
366,28,71060,1,2,1:2:0:0:
324,223,71255,2,0,L|212:231,1,112.872498191587,8|0,0:0|0:0,0:0:0:0:
34,19,71644,2,0,L|146:27,1,112.872498191587,2|0,1:2|0:0,0:0:0:0:
187,223,72034,6,0,P|96:265|63:171,1,225.744996383175,4|0,3:0|0:0,0:0:0:0:
256,12,72618,1,4,3:0:0:0:
324,223,72813,1,8,0:0:0:0:
440,168,73008,1,2,3:0:0:0:
440,168,73105,1,2,3:0:0:0:
440,168,73203,2,0,L|444:100,1,56.4362490957937,2|2,1:2|3:0,0:0:0:0:
324,223,73397,2,0,L|327:279,1,56.4362490957937,2|0,3:0|0:0,0:0:0:0:
192,40,73592,6,0,B|151:52|104:28|104:28|112:108|44:152,1,225.744996383175,6|4,1:2|3:0,0:0:0:0:
152,328,74177,1,2,1:2:0:0:
165,152,74371,2,0,L|41:144,1,112.872498191587,10|4,0:0|3:0,0:0:0:0:
327,279,74761,2,0,L|451:271,1,112.872498191587,4|0,1:0|0:0,0:0:0:0:
360,56,75151,1,4,1:0:0:0:
80,300,86449,6,0,P|120:324|188:320,1,113.25,4|0,1:0|0:0,0:0:0:0:
184,321,87083,6,0,P|144:344|97:341,1,94.375,4|0,3:0|0:0,0:0:0:0:
103,343,87618,6,0,L|96:251,1,75.5,4|2,1:0|0:0,0:0:0:0:
88,144,87910,1,2,0:0:0:0:
107,142,88008,6,0,L|199:135,1,75.5,0|0,1:3|0:0,0:0:0:0:
414,116,88397,1,8,1:0:0:0:
182,136,88592,1,2,0:0:0:0:
409,41,88787,6,0,L|416:133,1,75.5,4|2,3:0|0:0,0:0:0:0:
424,240,89079,1,2,0:0:0:0:
405,242,89177,6,0,L|295:250,1,94.375,2|0,0:0|0:0,0:0:0:0:
98,268,89761,1,4,3:0:0:0:
302,123,89956,2,0,P|308:86|296:50,1,75.5,8|2,1:0|1:2,0:0:0:0:
256,36,90248,1,2,0:0:0:0:
215,50,90345,2,2,P|203:86|210:123,1,75.5,6|2,1:0|0:0,0:0:0:0:
440,271,90735,6,0,L|365:278,1,75.5,6|0,1:0|0:0,0:0:0:0:
302,123,91125,2,0,L|377:116,1,75.5,4|0,0:0|0:0,0:0:0:0:
272,277,91514,6,0,L|197:284,1,75.5,2|0,1:3|0:0,0:0:0:0:
134,129,91904,2,0,L|209:122,1,75.5,4|0,0:0|0:0,0:0:0:0:
20,344,92294,5,0,3:0:0:0:
48,192,92488,1,0,0:0:0:0:
196,284,92683,5,4,0:0:0:0:
168,132,92878,1,2,0:0:0:0:
304,336,93073,5,2,1:3:0:0:
440,272,93268,1,4,3:0:0:0:
288,192,93462,5,4,1:2:0:0:
492,40,93657,1,2,1:0:0:0:
304,336,93852,5,4,1:0:0:0:
304,336,93949,2,0,P|264:352|228:352,1,75.5,2|2,0:0|0:0,0:0:0:0:
136,360,94242,2,0,P|98:358|64:343,1,75.5,2|0,0:0|0:0,0:0:0:0:
48,196,94631,5,8,1:0:0:0:
48,196,94729,2,0,P|88:180|124:180,1,75.5,2|2,0:0|0:0,0:0:0:0:
216,172,95021,2,0,P|253:173|287:188,1,75.5,4|8,3:0|1:3,0:0:0:0:
492,40,95410,6,0,L|488:136,1,75.5,4|2,1:3|0:0,0:0:0:0:
468,208,95703,1,2,0:0:0:0:
468,208,95800,2,0,L|464:132,1,75.5,2|4,0:0|3:0,0:0:0:0:
243,79,96190,5,2,1:0:0:0:
243,79,96287,2,0,L|239:154,1,75.5,8|4,3:0|3:0,0:0:0:0:
219,247,96579,2,0,L|215:171,1,75.5,2|8,1:0|3:0,0:0:0:0:
79,73,96969,6,0,B|63:57|63:57|143:37|194:89|194:89|158:98|140:130,1,225.744996383175,4|0,1:2|0:0,0:0:0:0:
215,171,97748,6,0,P|237:183|249:183,2,37.7500014400483,0|0|0,0:0|0:0|0:0,0:0:0:0:
328,144,98138,2,0,P|372:120|396:120,1,56.6250021600724,4|0,0:3|3:0,0:0:0:0:
460,148,98430,1,0,3:0:0:0:
460,148,98527,5,8,1:3:0:0:
444,320,98722,1,0,1:0:0:0:
460,148,98917,5,8,1:3:0:0:
444,320,99112,1,2,1:0:0:0:
256,292,99307,6,0,L|214:294,1,37.75,12|0,1:3|0:0,0:0:0:0:
68,320,99501,1,2,1:0:0:0:
68,320,99696,6,0,L|65:263,1,56.4362490957937,4|0,1:2|1:0,0:0:0:0:
79,73,99891,1,2,1:0:0:0:
255,291,100086,6,0,P|303:308|384:316,1,113.25,4|0,1:0|0:0,0:0:0:0:
421,258,100475,2,0,P|439:286|444:331,1,75.5,4|2,1:2|0:0,0:0:0:0:
215,171,100865,6,0,P|260:149|340:80,1,151,8|8,1:2|3:0,0:0:0:0:
421,258,101449,1,4,3:0:0:0:
256,44,101644,1,2,0:0:0:0:
256,44,101742,1,4,3:0:0:0:
256,44,101839,1,2,0:0:0:0:
91,258,102034,2,0,L|183:254,1,75.5,8|4,3:0|3:0,0:0:0:0:
421,258,102423,2,0,P|357:294|321:302,2,75.5,12|2|2,1:2|0:0|0:0,0:0:0:0:
256,340,103008,1,0,0:0:0:0:
256,44,103203,6,0,B|248:84|248:84|256:112|256:112|244:176,1,113.25,4|0,1:0|0:0,0:0:0:0:
156,221,103592,2,0,P|125:242|90:257,1,75.5,8|4,3:0|3:0,0:0:0:0:
312,308,103982,6,0,P|387:310|459:332,1,151,8|8,1:2|3:0,0:0:0:0:
424,192,104566,1,4,3:0:0:0:
256,368,104761,5,2,0:0:0:0:
156,220,104956,1,2,0:0:0:0:
256,140,105151,5,8,3:0:0:0:
177,300,105345,1,4,3:0:0:0:
58,254,105540,5,8,1:2:0:0:
236,242,105735,1,2,1:3:0:0:
424,192,105930,1,4,1:2:0:0:
256,44,106125,1,4,1:3:0:0:
348,256,106320,6,0,P|353:300|327:346,1,75.5,4|0,1:3|0:0,0:0:0:0:
169,328,106709,2,0,P|157:292|164:256,1,75.5,0|0,1:0|0:0,0:0:0:0:
380,256,107099,2,0,P|385:300|359:346,1,75.5,12|0,1:2|0:0,0:0:0:0:
137,328,107488,2,0,P|125:292|132:256,1,75.5,4|4,3:0|3:0,0:0:0:0:
256,192,107878,5,0,0:0:0:0:
207,43,108073,1,4,3:0:0:0:
334,135,108268,1,0,1:0:0:0:
177,135,108462,1,8,3:0:0:0:
304,42,108657,6,0,P|342:38|378:47,1,75.5,12|0,1:2|1:0,0:0:0:0:
407,139,108949,2,0,P|369:144|333:134,1,75.5,2|0,1:0|1:0,0:0:0:0:
377,47,109242,1,2,1:0:0:0:
469,257,109436,6,0,L|457:341,1,75.5,6|0,1:0|1:0,0:0:0:0:
356,352,109729,2,0,L|345:277,1,75.5,2|0,1:0|0:0,0:0:0:0:
400,196,110021,1,4,3:0:0:0:
96,108,110216,5,12,1:2:0:0:
256,80,110410,1,2,1:0:0:0:
56,192,110605,5,4,1:2:0:0:
216,220,110800,1,2,1:0:0:0:
172,352,110995,5,4,1:2:0:0:
56,192,111190,1,2,1:0:0:0:
356,352,111384,2,0,P|368:329|376:300,1,37.75,4|0,1:2|0:0,0:0:0:0:
398,111,111579,2,0,P|385:133|378:163,1,37.75,2|0,1:0|0:0,0:0:0:0:
444,284,111774,6,0,P|404:244|332:252,1,113.25,4|0,1:0|0:0,0:0:0:0:
277,278,112164,2,0,P|316:316|371:317,1,113.25,4|0,1:0|0:0,0:0:0:0:
369,94,112553,6,0,B|373:169|338:167|350:244,1,151,4|0,0:1|1:0,0:0:0:0:
199,249,113527,2,0,P|179:241|159:241,1,37.75,2|2,0:0|0:0,0:0:0:0:
163,241,113917,2,0,B|174:166|138:170|142:93,1,151,0|0,3:0|0:0,0:0:0:0:
432,212,114891,1,0,1:0:0:0:
204,312,115086,2,0,P|184:320|164:320,1,37.75,2|0,0:0|0:0,0:0:0:0:
168,321,115475,6,0,B|243:310|239:346|316:342,1,151,0|0,3:3|0:3,0:0:0:0:
80,212,116449,1,0,1:0:0:0:
308,72,116644,2,0,P|328:64|348:64,1,37.75,2|2,0:0|0:0,0:0:0:0:
344,63,117034,6,0,B|269:74|273:38|196:42,1,151,0|0,3:3|0:3,0:0:0:0:
432,212,118008,1,0,1:0:0:0:
200,308,118203,5,2,0:0:0:0:
256,208,118397,1,0,0:0:0:0:
312,308,118592,1,2,0:0:0:0:
56,172,118787,5,2,1:2:0:0:
56,172,118884,1,0,0:0:0:0:
56,172,118982,2,0,P|45:127|49:111,1,37.75,0|0,0:0|0:0,0:0:0:0:
124,60,119176,1,2,1:2:0:0:
124,60,119273,1,0,0:0:0:0:
124,60,119371,2,0,P|135:105|131:121,1,37.75,0|0,0:0|0:0,0:0:0:0:
232,128,119566,6,0,P|280:156|348:132,1,113.25,0|0,1:0|0:0,0:0:0:0:
333,144,119956,2,0,L|337:196,1,37.75,4|0,3:0|0:0,0:0:0:0:
449,185,120151,6,0,L|333:181,1,113.25,4|0,3:0|0:0,0:0:0:0:
180,288,120540,2,0,L|176:340,2,37.75,2|0|0,0:0|0:0|1:0,0:0:0:0:
80,212,120930,5,4,3:0:0:0:
334,325,121125,1,0,0:0:0:0:
180,96,121319,2,0,L|176:44,2,37.75,0|0|0,1:0|0:0|0:0,0:0:0:0:
80,212,121709,1,2,0:0:0:0:
334,325,121904,5,0,1:0:0:0:
460,255,122099,1,0,1:0:0:0:
391,128,122293,1,4,3:0:0:0:
264,198,122488,1,8,3:0:0:0:
334,325,122683,5,2,3:0:0:0:
256,68,122878,1,2,3:0:0:0:
185,337,123073,5,2,3:0:0:0:
198,332,123170,1,2,3:0:0:0:
198,319,123268,1,2,3:0:0:0:
185,315,123365,1,2,3:0:0:0:
178,325,123462,6,0,B|154:298|111:283|75:297|75:297|98:305|110:318,1,151,0|0,1:0|0:0,0:0:0:0:
334,325,123755,2,0,B|359:298|402:283|438:297|438:297|415:305|403:318,1,151,0|0,1:0|0:0,0:0:0:0:
256,384,124047,1,0,1:0:0:0:
151,191,124242,6,0,P|117:177|79:175,1,75.5,0|0,1:0|0:0,0:0:0:0:
307,103,124436,2,0,P|321:68|346:40,1,75.5,0|0,1:0|0:0,0:0:0:0:
203,103,124631,2,0,P|189:69|164:41,1,75.5,0|0,1:0|0:0,0:0:0:0:
359,191,124826,2,0,P|394:177|432:176,1,75.5,0|0,1:0|0:0,0:0:0:0:
328,319,125021,6,0,P|274:361|188:322,1,153.925631165387,4|0,1:0|0:0,0:0:0:0:
188,324,125410,2,0,P|119:299|59:342,1,153.925631165387,2|0,3:0|0:0,0:0:0:0:
52,356,125800,2,0,L|48:296,1,43.9787517615391,8|0,0:0|0:0,0:0:0:0:
108,160,125995,2,0,L|104:220,1,43.9787517615391,0|0,0:0|0:0,0:0:0:0:
52,28,126190,1,2,3:0:0:0:
307,111,126384,2,0,P|376:86|436:129,1,153.925631165387,2|0,1:2|0:0,0:0:0:0:
367,160,126774,1,2,0:0:0:0:
464,367,126969,6,0,L|448:267,1,87.9575035230781,4|0,3:0|0:0,0:0:0:0:
256,208,127358,1,8,0:0:0:0:
451,280,127553,1,4,0:0:0:0:
256,356,127748,1,0,0:0:0:0:
61,280,127943,2,0,P|52:216|48:128,1,131.936255284617,4|0,0:0|0:0,0:0:0:0:
144,40,128333,2,0,P|155:114|158:190,1,151,2|4,0:0|3:0,0:0:0:0:
61,280,128917,1,8,0:0:0:0:
256,352,129112,6,0,P|297:337|341:336,1,87.9575035230781,4|0,3:0|3:0,0:0:0:0:
451,280,129501,2,0,B|470:149|470:149|442:182,1,175.915007046156,8|2,3:0|0:0,0:0:0:0:
438,188,129988,1,2,0:0:0:0:
434,194,130086,6,0,P|391:192|349:178,1,87.9575035230781,4|0,3:0|0:0,0:0:0:0:
256,64,130475,1,8,0:0:0:0:
336,328,130670,5,4,3:0:0:0:
256,64,130865,1,0,0:0:0:0:
176,328,131060,1,2,1:2:0:0:
61,104,131255,6,0,L|153:96,1,87.9575035230781,4|0,1:0|0:0,0:0:0:0:
88,320,131644,2,0,L|176:328,1,87.9575035230781,2|4,3:0|3:0,0:0:0:0:
256,64,132034,6,0,L|348:56,2,87.9575035230781,8|0|2,0:0|0:0|3:0,0:0:0:0:
284,308,132618,2,0,L|415:319,1,131.936255284617,0|0,0:0|0:0,0:0:0:0:
414,318,133008,6,0,P|388:272|402:222,2,87.9575035230781,2|4|2,0:0|3:0|0:0,0:0:0:0:
448,116,133592,2,0,P|416:60|308:88,1,175.915007046156,8|0,0:0|0:0,0:0:0:0:
195,310,134177,2,0,P|116:333|64:268,1,175.915007046156,4|0,0:0|0:0,0:0:0:0:
98,66,134761,2,0,P|124:112|110:162,1,87.9575035230781,2|4,3:0|3:0,0:0:0:0:
64,267,135151,5,8,0:0:0:0:
80,307,135248,1,6,3:0:0:0:
116,332,135346,1,2,3:0:0:0:
159,333,135443,1,0,0:0:0:0:
195,310,135540,2,0,L|252:313,1,43.9787517615391,6|0,3:0|0:0,0:0:0:0:
375,253,135735,6,0,B|392:228|392:228|376:72,1,175.915007046156,4|0,0:0|0:0,0:0:0:0:
256,36,136320,1,4,3:0:0:0:
138,252,136514,2,0,B|120:227|120:227|134:83,1,175.915007046156,4|0,0:0|0:0,0:0:0:0:
374,61,137099,5,4,1:0:0:0:
138,61,137294,1,4,1:0:0:0:
256,340,137488,1,2,1:2:0:0:
256,340,137878,6,0,P|284:300|284:260,1,87.9575035230781,0|4,0:0|3:0,0:0:0:0:
164,176,138268,2,0,P|136:216|136:256,2,87.9575035230781,8|0|0,0:0|0:0|0:0,0:0:0:0:
432,96,138852,2,0,B|468:72|448:36|398:42|400:88|360:88|315:77,1,175.915007046156,4|0,0:0|0:0,0:0:0:0:
212,52,139436,6,0,L|304:48,1,87.9575035230781,6|0,3:0|0:0,0:0:0:0:
164,176,139826,2,0,L|56:171,1,100.41499586303,10|0,0:0|0:0,0:0:0:0:
375,253,140216,2,0,L|489:248,1,112.872498191587,6|0,0:0|0:0,0:0:0:0:
256,340,140605,1,2,1:2:0:0:
256,340,140995,6,0,P|228:300|228:260,1,87.9575035230781,0|4,0:0|3:0,0:0:0:0:
348,176,141384,2,0,P|376:216|376:256,2,87.9575035230781,8|0|0,0:0|0:0|0:0,0:0:0:0:
80,96,141969,2,0,B|44:72|64:36|115:42|112:88|152:88|198:77,1,175.915007046156,4|0,0:0|0:0,0:0:0:0:
300,52,142553,6,0,L|208:48,1,87.9575035230781,6|0,3:0|0:0,0:0:0:0:
348,176,142943,2,0,L|456:171,1,100.41499586303,10|4,0:0|3:0,0:0:0:0:
137,253,143333,5,6,0:0:0:0:
24,248,143527,1,0,0:0:0:0:
256,340,143722,6,0,P|312:356|380:352,1,112.872498191587,2|0,1:2|0:0,0:0:0:0:
449,171,144112,2,0,P|465:223|461:295,1,112.872498191587,2|4,1:2|3:0,0:0:0:0:
256,340,144501,1,8,0:0:0:0:
146,28,144696,2,0,P|203:27|256:44,2,112.872498191587,2|0|2,1:2|0:0|1:2,0:0:0:0:
63,171,145281,6,0,P|63:235|191:207,1,225.744996383175,4|4,0:0|3:0,0:0:0:0:
146,28,145865,1,2,1:2:0:0:
188,223,146060,2,0,L|300:231,1,112.872498191587,8|0,0:0|0:0,0:0:0:0:
478,19,146449,2,0,L|366:27,1,112.872498191587,2|0,1:2|0:0,0:0:0:0:
325,223,146839,6,0,P|416:265|449:171,1,225.744996383175,4|0,3:0|0:0,0:0:0:0:
256,12,147423,1,4,3:0:0:0:
188,223,147618,1,8,0:0:0:0:
72,168,147813,1,2,3:0:0:0:
72,168,147910,1,2,3:0:0:0:
72,168,148008,2,0,L|68:100,1,56.4362490957937,2|2,1:2|3:0,0:0:0:0:
188,223,148203,2,0,L|185:279,1,56.4362490957937,2|0,3:0|0:0,0:0:0:0:
320,40,148397,6,0,B|361:52|408:28|408:28|400:108|468:152,1,225.744996383175,6|4,1:2|3:0,0:0:0:0:
360,328,148982,1,2,1:2:0:0:
347,152,149177,2,0,L|471:144,1,112.872498191587,10|4,0:0|3:0,0:0:0:0:
185,279,149566,2,0,L|61:271,1,112.872498191587,4|0,1:0|0:0,0:0:0:0:
152,56,149956,1,4,1:0:0:0:
80,192,162423,5,4,3:0:0:0:
256,272,162618,2,0,P|196:292|156:288,2,56.6250021600724,0|2|0,0:0|0:0|0:0,0:0:0:0:
319,188,163203,2,0,L|432:191,1,113.250004320145,2|0,1:2|0:0,0:0:0:0:
432,192,163982,2,0,L|319:196,1,113.250004320145,2|0,0:0|0:0,0:0:0:0:
203,291,164566,1,0,0:0:0:0:
80,191,164761,6,0,P|64:131|64:75,1,113.250004320145,4|0,3:0|0:0,0:0:0:0:
219,180,165345,2,0,P|203:240|203:296,1,113.250004320145,2|0,0:0|0:0,0:0:0:0:
464,306,165930,2,0,L|448:66,1,226.50000864029,2|0,0:0|0:0,0:0:0:0:
268,136,166904,6,0,P|214:121|158:120,2,113.250004320145,2|0|0,0:0|0:0|0:0,0:0:0:0:
244,248,167878,2,0,P|298:263|354:264,1,113.250004320145,0|0,1:0|0:0,0:0:0:0:
64,80,168657,5,4,3:0:0:0:
172,40,168852,1,0,0:0:0:0:
72,152,169047,2,0,L|80:80,1,56.6250021600724,2|0,0:0|0:0,0:0:0:0:
237,172,169436,2,0,L|243:228,2,56.6250021600724,0|0|0,1:0|0:0|0:0,0:0:0:0:
172,344,170021,2,0,P|117:359|61:360,1,113.250004320145,2|0,0:0|0:0,0:0:0:0:
339,343,170800,2,0,P|393:358|450:360,1,113.250004320145,2|0,0:0|0:0,0:0:0:0:
311,183,171384,2,0,P|283:183|256:192,1,56.6250021600724,4|0,3:0|0:0,0:0:0:0:
172,344,171774,6,0,P|176:276|72:320,1,226.50000864029,8|0,3:0|1:0,0:0:0:0:
71,313,172943,2,0,P|83:269|87:245,1,56.6250021600724,2|0,0:0|0:0,0:0:0:0:
70,312,173333,6,0,P|44:264|54:209,1,112.872498191587,0|0,1:0|0:0,0:0:0:0:
176,44,173625,2,0,P|202:92|192:147,1,112.872498191587,0|0,1:0|0:0,0:0:0:0:
68,109,173917,2,0,L|124:105,1,56.4362490957937,0|0,1:0|0:0,0:0:0:0:
256,260,174112,6,0,P|284:276|352:264,1,75.5,0|0,1:0|0:0,0:0:0:0:
456,64,174307,2,0,P|418:63|385:80,1,75.5,0|0,1:0|0:0,0:0:0:0:
456,320,174501,6,0,P|428:336|360:324,1,75.5,0|0,1:0|0:0,0:0:0:0:
256,124,174696,2,0,P|294:123|327:140,1,75.5,0|0,1:0|0:0,0:0:0:0:
169,305,174891,6,0,P|117:341|57:320,1,131.936255284617,4|0,1:0|0:0,0:0:0:0:
48,312,175281,2,0,P|26:252|62:199,1,131.936255284617,2|0,3:0|0:0,0:0:0:0:
128,156,175670,2,0,P|80:128|64:132,1,43.9787517615391,8|0,0:0|0:0,0:0:0:0:
248,172,175865,2,0,P|239:192|241:214,1,43.9787517615391,0|0,0:0|0:0,0:0:0:0:
202,61,176060,1,2,3:0:0:0:
452,204,176255,6,0,B|461:189|461:189|339:200,1,131.936255284617,2|0,1:2|0:0,0:0:0:0:
316,204,176644,1,2,0:0:0:0:
169,305,176839,2,0,L|268:312,1,87.9575035230781,4|0,3:0|0:0,0:0:0:0:
96,108,177229,1,8,0:0:0:0:
256,192,177423,1,4,0:0:0:0:
416,108,177618,1,0,0:0:0:0:
256,28,177813,6,0,B|240:16|240:16|128:28,1,131.936255284617,4|0,0:0|0:0,0:0:0:0:
96,108,178203,2,0,L|88:200,2,87.9575035230781,2|0|4,0:0|3:1|3:0,0:0:0:0:
424,195,178787,1,8,0:0:0:0:
264,336,178982,5,2,0:0:0:0:
260,338,179079,1,0,0:0:0:0:
256,339,179177,1,2,0:0:0:0:
252,337,179274,1,0,0:0:0:0:
249,333,179371,1,2,0:0:0:0:
249,329,179469,1,0,0:0:0:0:
252,325,179566,1,0,0:0:0:0:
256,324,179664,1,0,0:0:0:0:
260,324,179761,1,2,0:0:0:0:
264,327,179858,1,0,0:0:0:0:
264,327,179956,6,0,P|276:280|264:231,1,87.9575035230781,4|0,3:0|0:0,0:0:0:0:
56,48,180345,1,8,0:0:0:0:
192,280,180540,5,4,3:0:0:0:
211,92,180735,1,0,0:0:0:0:
364,203,180930,1,2,1:2:0:0:
456,48,181125,6,0,L|359:44,1,87.9575035230781,4|0,1:0|0:0,0:0:0:0:
368,339,181514,2,0,L|456:336,1,87.9575035230781,2|4,3:0|3:0,0:0:0:0:
299,95,181904,6,0,L|202:91,2,87.9575035230781,8|0|2,0:0|0:0|3:0,0:0:0:0:
60,283,182488,2,0,L|204:279,1,131.936255284617,0|0,0:0|0:0,0:0:0:0:
191,279,182878,6,0,L|187:375,2,87.9575035230781,2|4|2,0:0|3:0|0:0,0:0:0:0:
76,120,183462,2,0,P|92:72|200:80,1,175.915007046156,8|0,0:0|0:0,0:0:0:0:
312,305,184047,2,0,P|390:331|436:264,1,175.915007046156,4|0,0:0|0:0,0:0:0:0:
312,76,184631,1,2,3:0:0:0:
368,265,184826,1,4,3:0:0:0:
174,343,185021,5,8,0:0:0:0:
145,340,185118,1,6,3:0:0:0:
116,337,185216,1,0,0:0:0:0:
88,335,185313,1,0,0:0:0:0:
64,332,185410,2,0,P|36:296|32:288,1,43.9787517615391,6|0,3:0|0:0,0:0:0:0:
76,120,185605,6,0,B|70:94|91:84|91:84|91:125|118:167|168:183,1,175.915007046156,4|0,0:0|0:0,0:0:0:0:
256,48,186190,1,4,3:0:0:0:
343,183,186384,2,0,B|393:167|420:125|420:84|420:84|441:94|436:120,1,175.915007046156,4|0,0:0|0:0,0:0:0:0:
448,332,186969,5,4,1:0:0:0:
256,144,187164,1,4,1:0:0:0:
64,332,187358,1,2,1:2:0:0:
64,332,187748,6,0,P|48:288|56:236,1,87.9575035230781,0|4,0:0|3:0,0:0:0:0:
256,144,188138,2,0,P|272:188|264:240,2,87.9575035230781,8|0|0,0:0|0:0|0:0,0:0:0:0:
322,287,188722,2,0,P|240:304|192:237,1,175.915007046156,4|0,0:0|0:0,0:0:0:0:
68,60,189307,6,0,L|156:52,1,87.9575035230781,6|0,3:0|0:0,0:0:0:0:
343,151,189696,2,0,L|228:140,1,100.41499586303,10|0,0:0|0:0,0:0:0:0:
64,332,190086,2,0,L|178:321,1,112.872498191587,6|0,0:0|0:0,0:0:0:0:
448,332,190475,1,2,1:2:0:0:
448,332,190865,6,0,P|464:288|456:236,1,87.9575035230781,0|4,0:0|3:0,0:0:0:0:
256,144,191255,2,0,P|240:188|248:240,2,87.9575035230781,8|0|0,0:0|0:0|0:0,0:0:0:0:
190,288,191839,2,0,P|272:304|320:236,1,175.915007046156,4|0,0:0|0:0,0:0:0:0:
444,60,192423,6,0,L|356:52,1,87.9575035230781,6|0,3:0|0:0,0:0:0:0:
169,151,192813,2,0,L|283:140,1,100.41499586303,10|4,0:0|3:0,0:0:0:0:
448,332,193203,5,6,0:0:0:0:
460,247,193397,1,0,0:0:0:0:
288,331,193592,6,0,L|173:320,1,112.872498191587,2|0,1:2|0:0,0:0:0:0:
60,164,193982,2,0,L|175:153,1,112.872498191587,2|0,1:2|0:0,0:0:0:0:
221,39,194371,1,8,0:0:0:0:
347,257,194566,2,0,L|459:246,2,112.872498191587,2|0|2,1:2|1:0|0:0,0:0:0:0:
63,213,195151,6,0,P|63:149|191:177,1,225.744996383175,4|4,0:0|3:0,0:0:0:0:
81,383,195735,1,2,1:2:0:0:
187,160,195930,2,0,L|172:44,1,112.872498191587,8|0,0:0|0:0,0:0:0:0:
325,224,196320,2,0,L|340:340,1,112.872498191587,2|0,1:2|0:0,0:0:0:0:
449,171,196709,6,0,P|449:235|321:207,1,225.744996383175,4|0,3:0|0:0,0:0:0:0:
408,52,197294,1,4,3:0:0:0:
431,383,197488,1,8,0:0:0:0:
185,179,197683,5,2,3:0:0:0:
268,121,197878,1,2,1:2:0:0:
326,204,198073,1,2,3:0:0:0:
243,262,198268,2,0,P|237:296|238:306,6,37.6241660638625,6|0|0|0|0|0|4,1:2|0:0|0:0|0:0|0:0|0:0|3:0,0:0:0:0:
326,204,198852,5,2,1:2:0:0:
160,64,199047,2,0,P|105:62|67:102,1,112.872498191587,10|4,0:0|3:0,0:0:0:0:
352,320,199436,2,0,P|406:321|444:281,1,112.872498191587,4|0,1:0|0:0,0:0:0:0:
134,129,199826,6,0,L|137:179,1,42.4687516200543,4|0,1:0|0:0,0:0:0:0:
148,188,200216,2,0,L|143:255,1,56.6250021600724,2|0,0:0|0:0,0:0:0:0:
142,262,200800,5,2,0:0:0:0:
376,304,200995,6,0,L|361:302,1,14.1562505400181,2|2,0:0|0:0,0:0:0:0:
288,216,201190,1,0,0:0:0:0:
308,213,201384,6,0,L|323:211,1,14.1562505400181,2|2,0:0|0:0,0:0:0:0:
