osu file format v14

[General]
AudioFilename: MONSTA X () - Be Quiet [THE CLAN Pt.2 'GUILTY'].mp3
AudioLeadIn: 0
PreviewTime: 60120
Countdown: 0
SampleSet: Soft
StackLeniency: 0.6
Mode: 0
LetterboxInBreaks: 0
WidescreenStoryboard: 0

[Editor]
DistanceSpacing: 1.1
BeatDivisor: 4
GridSize: 4
TimelineZoom: 2

[Metadata]
Title:Be Quiet
TitleUnicode:Be Quiet
Artist:MONSTA X
ArtistUnicode:몬스타엑스
Creator:DeRandom Otaku
Version:Insane
Source:
Tags:trap kpop k-pop leon THE CLAN pt.2 GUILTY Starship Entertainment Shownu Wonho Minhyuk Kihyun Hyungwon Jooheon I.M 셔누 원호 민혁 기현 형원 주헌 아이엠 Cerulean Veyron CV
BeatmapID:1101124
BeatmapSetID:518311

[Difficulty]
HPDrainRate:6
CircleSize:4
OverallDifficulty:7.5
ApproachRate:9
SliderMultiplier:1.9
SliderTickRate:1

[Events]
//Background and Video events
0,0,"BG.png",0,0
//Break Periods
2,134524,139487
//Storyboard Layer 0 (Background)
//Storyboard Layer 1 (Fail)
//Storyboard Layer 2 (Pass)
//Storyboard Layer 3 (Foreground)
//Storyboard Sound Samples

[TimingPoints]
220,397.350993377483,4,2,1,5,1,0
3398,-100,4,2,1,10,0,0
4193,-100,4,2,1,15,0,0
4988,-100,4,2,1,20,0,0
5782,-100,4,2,1,25,0,0
6577,-133.333333333333,4,2,0,45,0,0
12140,-68.9655172413793,4,2,1,55,0,0
12438,-68.9655172413793,4,2,1,5,0,0
12537,-68.9655172413793,4,2,1,55,0,0
12835,-68.9655172413793,4,2,1,5,0,0
12935,-90.9090909090909,4,2,1,75,0,1
15021,-90.9090909090909,4,2,1,5,0,1
15120,-90.9090909090909,4,2,1,75,0,1
15219,-90.9090909090909,4,2,1,5,0,1
15319,-90.9090909090909,4,2,1,75,0,1
18200,-90.9090909090909,4,2,1,5,0,1
18299,-90.9090909090909,4,2,1,75,0,1
18398,-90.9090909090909,4,2,1,5,0,1
18498,-133.333333333333,4,2,1,75,0,0
18796,-133.333333333333,4,2,1,5,0,0
18895,-133.333333333333,4,2,4,75,0,0
19193,-133.333333333333,4,2,1,5,0,0
19292,-100,4,2,1,75,0,0
20286,-90.9090909090909,4,2,1,75,0,1
21378,-90.9090909090909,4,2,1,5,0,1
21478,-90.9090909090909,4,2,1,75,0,1
21577,-90.9090909090909,4,2,1,5,0,1
21676,-90.9090909090909,4,2,1,75,0,1
24855,-133.333333333333,4,2,1,75,0,0
25153,-133.333333333333,4,2,1,5,0,0
25253,-133.333333333333,4,2,1,75,0,0
25650,-111.111111111111,4,2,1,65,0,0
28034,-153.846153846154,4,2,1,50,0,0
28829,-111.111111111111,4,2,1,55,0,0
31213,-111.111111111111,4,2,1,40,0,0
31610,-111.111111111111,4,2,1,50,0,0
38365,-100,4,2,1,60,0,0
41445,-100,4,2,1,5,0,0
41544,-100,4,2,1,60,0,0
44623,-100,4,2,1,5,0,0
44723,-153.846153846154,4,2,1,60,0,0
45418,-153.846153846154,4,2,1,5,0,0
45518,-125,4,2,1,60,0,0
47802,-125,4,2,1,5,0,0
47902,-125,4,2,1,60,0,0
50286,-181.818181818182,4,2,1,50,0,0
51080,-100,4,2,0,50,0,0
63001,-66.6666666666667,4,2,1,50,0,0
63299,-66.6666666666667,4,2,1,5,0,0
63398,-66.6666666666667,4,2,1,50,0,0
63696,-66.6666666666667,4,2,1,5,0,0
63796,-83.3333333333333,4,2,1,75,0,1
65882,-83.3333333333333,4,2,1,5,0,1
65981,-83.3333333333333,4,2,1,75,0,1
66080,-83.3333333333333,4,2,1,5,0,1
66180,-83.3333333333333,4,2,1,75,0,1
69061,-83.3333333333333,4,2,1,5,0,1
69160,-83.3333333333333,4,2,1,75,0,1
69259,-83.3333333333333,4,2,1,5,0,1
69359,-125,4,2,1,75,0,0
69657,-125,4,2,1,5,0,0
69756,-111.111111111111,4,2,4,75,0,0
70054,-111.111111111111,4,2,1,5,0,0
70153,-153.846153846154,4,2,1,75,0,0
71147,-83.3333333333333,4,2,1,75,0,1
72239,-83.3333333333333,4,2,1,5,0,1
72339,-83.3333333333333,4,2,1,75,0,1
72438,-83.3333333333333,4,2,1,5,0,1
72537,-83.3333333333333,4,2,1,75,0,1
75716,-133.333333333333,4,2,1,75,0,0
76114,-133.333333333333,4,2,1,25,0,0
76312,-133.333333333333,4,2,1,25,0,0
76511,-100,4,2,1,50,0,0
89226,-100,4,2,0,50,0,0
95584,-133.333333333333,4,2,0,50,0,0
101147,-133.333333333333,4,2,4,50,0,0
101941,-100,4,2,0,50,0,0
113862,-68.9655172413793,4,2,1,50,0,0
114160,-68.9655172413793,4,2,1,5,0,0
114259,-68.9655172413793,4,2,1,50,0,0
114557,-68.9655172413793,4,2,1,5,0,0
114657,-83.3333333333333,4,2,1,75,0,1
116743,-83.3333333333333,4,2,1,5,0,1
116842,-83.3333333333333,4,2,1,75,0,1
116941,-83.3333333333333,4,2,1,5,0,1
117041,-83.3333333333333,4,2,1,75,0,1
119921,-83.3333333333333,4,2,1,5,0,1
120021,-83.3333333333333,4,2,1,75,0,1
120120,-83.3333333333333,4,2,1,5,0,1
120219,-133.333333333333,4,2,1,75,0,0
120518,-133.333333333333,4,2,1,5,0,0
120617,-133.333333333333,4,2,4,75,0,0
120915,-133.333333333333,4,2,1,5,0,0
121014,-100,4,2,1,75,0,0
122008,-83.3333333333333,4,2,1,75,0,1
123100,-83.3333333333333,4,2,1,5,0,1
123200,-83.3333333333333,4,2,1,75,0,1
123299,-83.3333333333333,4,2,1,5,0,1
123398,-83.3333333333333,4,2,1,75,0,1
126577,-133.333333333333,4,2,1,75,0,0
127372,-133.333333333333,4,2,1,60,0,0
140087,-133.333333333333,4,2,1,50,0,0
146445,-100,4,2,0,65,0,0
152008,-100,4,2,1,65,0,0
152107,-100,4,2,1,5,0,0
152206,-100,4,2,1,65,0,0
152802,-76.9230769230769,4,2,1,85,0,1
154888,-76.9230769230769,4,2,1,5,0,1
154988,-76.9230769230769,4,2,1,85,0,1
155087,-76.9230769230769,4,2,1,5,0,1
155186,-76.9230769230769,4,2,1,85,0,1
158067,-76.9230769230769,4,2,1,5,0,1
158167,-76.9230769230769,4,2,1,85,0,1
158266,-76.9230769230769,4,2,1,5,0,1
158365,-117.647058823529,4,2,1,85,0,0
158663,-117.647058823529,4,2,1,5,0,0
158763,-117.647058823529,4,2,4,85,0,0
159061,-117.647058823529,4,2,1,5,0,0
159160,-90.9090909090909,4,2,1,85,0,0
160153,-80,4,2,1,85,0,1
161246,-80,4,2,1,5,0,1
161345,-80,4,2,1,85,0,1
161445,-80,4,2,1,5,0,1
161544,-80,4,2,1,85,0,1
164723,-80,4,2,1,85,0,0
165518,-80,4,2,1,90,0,1
171080,-117.647058823529,4,2,1,90,0,0
171875,-80,4,2,1,90,0,1
175451,-100,4,2,1,90,0,1
175749,-100,4,2,1,5,0,1
175849,-80,4,2,1,90,0,1
177041,-133.333333333333,4,2,1,90,0,1
177339,-133.333333333333,4,2,1,5,0,1
177438,-133.333333333333,4,2,1,90,0,1
177736,-133.333333333333,4,2,1,5,0,1
177835,-133.333333333333,4,2,1,90,0,1
178233,-133.333333333333,4,2,1,90,0,0
178332,-133.333333333333,4,2,1,50,0,0
179027,-133.333333333333,4,2,1,40,0,0
179822,-133.333333333333,4,2,1,20,0,0
180617,-133.333333333333,4,2,1,5,0,0

[Colours]
Combo1 : 0,215,0
Combo2 : 0,255,255
Combo3 : 255,34,34
Combo4 : 243,230,133

[HitObjects]
256,192,3398,12,0,5782,0:0:0:0:
230,69,6577,6,0,P|167:81|111:134,1,142.500005435944,12|8,0:0|0:0,0:0:0:0:
286,209,7372,2,0,P|349:197|405:144,1,142.500005435944,8|8,0:0|0:0,0:0:0:0:
249,215,8167,6,0,L|273:367,1,142.500005435944,8|8,0:0|0:0,0:0:0:0:
456,277,8961,2,0,L|432:125,1,142.500005435944,8|8,0:0|0:0,0:0:0:0:
241,188,9756,6,0,P|192:211|90:213,1,142.500005435944,8|8,0:0|0:0,0:0:0:0:
328,327,10551,2,0,P|377:304|479:302,1,142.500005435944,8|8,0:0|0:0,0:0:0:0:
337,212,11941,5,0,0:0:0:0:
180,221,12140,2,0,P|234:164|338:215,1,206.625006305695,2|0,0:3|0:0,0:0:0:0:
260,244,12537,2,0,B|240:204|266:163|266:163|251:129|251:129|272:96|255:47,1,206.625006305695,2|0,0:3|0:0,0:0:0:0:
179,87,12935,5,4,3:2:0:0:
337,212,13133,1,0,0:0:0:0:
179,87,13332,2,0,P|121:95|91:132,1,104.500003189087
102,284,13729,1,8,0:0:0:0:
161,159,13928,1,0,3:0:0:0:
36,232,14127,1,0,3:0:0:0:
197,293,14325,1,0,0:0:0:0:
161,159,14524,2,0,P|169:105|207:54,1,104.500003189087,0|0,0:0|0:0,0:0:0:0:
367,179,14921,6,0,L|361:231,1,52.2500015945435,0|0,3:0|0:0,0:0:0:0:
241,195,15120,2,0,L|247:143,1,52.2500015945435
381,76,15319,2,0,L|367:181,1,104.500003189087,8|0,0:0|0:0,0:0:0:0:
227,298,15716,2,0,L|241:193,1,104.500003189087,0|0,0:0|0:0,0:0:0:0:
263,52,16114,5,0,3:0:0:0:
420,134,16312,1,0,0:0:0:0:
241,195,16511,2,0,B|193:195|193:224|133:224,1,104.500003189087,0|0,0:0|0:0,0:0:0:0:
48,170,16908,1,8,0:0:0:0:
239,283,17107,1,0,3:0:0:0:
46,272,17306,2,0,B|36:223|36:223|50:160,1,104.500003189087,0|0,3:0|0:0,0:0:0:0:
126,55,17703,1,0,0:0:0:0:
141,223,17902,1,0,3:0:0:0:
268,106,18100,6,0,L|320:111,1,52.2500015945435,0|0,3:0|0:0,0:0:0:0:
192,228,18299,2,0,L|139:222,1,52.2500015945435,0|0,0:0|0:0,0:0:0:0:
337,341,18498,6,0,B|352:292|352:292|336:234,1,106.875004076958,2|0,0:3|0:0,0:0:0:0:
261,241,18895,2,0,P|300:271|337:238,1,106.875004076958,4|0,0:0|0:0,0:0:0:0:
193,254,19292,6,0,P|214:302|248:329,2,95,0|0|0,0:0|0:0|0:0,0:0:0:0:
192,228,20087,1,8,0:0:0:0:
151,347,20286,5,0,3:0:0:0:
196,210,20484,1,0,3:0:0:0:
271,323,20683,1,0,0:0:0:0:
105,243,20882,2,0,P|52:228|-4:223,1,104.500003189087,0|0,0:0|0:0,0:0:0:0:
293,306,21279,6,0,L|281:375,1,52.2500015945435,0|0,3:0|0:0,0:0:0:0:
245,188,21478,2,0,L|233:119,1,52.2500015945435,0|0,0:0|0:0,0:0:0:0:
189,309,21676,1,8,0:0:0:0:
355,230,21875,1,0,0:0:0:0:
236,136,22074,2,0,P|243:89|274:35,1,104.500003189087,0|0,0:0|0:0,0:0:0:0:
355,230,22471,5,0,3:0:0:0:
189,309,22670,1,0,0:0:0:0:
132,140,22869,2,0,B|182:131|182:131|248:136,1,104.500003189087,0|0,0:0|0:0,0:0:0:0:
109,238,23266,1,8,0:0:0:0:
265,138,23465,1,0,3:0:0:0:
294,330,23663,1,0,3:0:0:0:
261,111,23862,1,0,0:0:0:0:
329,257,24061,1,0,0:0:0:0:
189,309,24259,1,0,3:0:0:0:
189,309,24359,1,0,0:0:0:0:
189,309,24458,1,0,3:0:0:0:
402,338,24657,1,0,0:0:0:0:
257,204,24855,6,0,P|292:169|350:173,1,106.875004076958,0|0,0:0|0:0,0:0:0:0:
193,171,25253,1,2,0:3:0:0:
224,128,25352,1,2,0:3:0:0:
269,100,25451,1,2,0:3:0:0:
322,92,25551,1,2,0:3:0:0:
373,105,25650,6,0,P|415:116|472:101,1,85.4999973907472,6|0,0:0|0:0,0:0:0:0:
311,203,26047,2,0,L|321:291,1,85.4999973907472,0|0,0:0|0:0,0:0:0:0:
224,128,26445,2,0,P|182:117|125:132,1,85.4999973907472,0|2,0:0|0:0,0:0:0:0:
105,300,26842,1,2,0:0:0:0:
276,246,27041,1,0,0:0:0:0:
198,364,27239,6,0,L|179:192,1,170.999994781494,0|2,0:0|0:0,0:0:0:0:
164,71,28034,2,0,L|181:210,1,123.499994346619
198,364,28829,6,0,L|290:356,1,85.4999973907472,2|0,0:0|0:0,0:0:0:0:
344,252,29226,2,0,P|301:188|353:105,1,170.999994781494,0|0,0:0|0:0,0:0:0:0:
385,181,29822,1,2,0:0:0:0:
273,217,30021,2,0,P|234:217|183:204,1,85.4999973907472,2|0,0:0|0:0,0:0:0:0:
151,101,30418,6,0,L|141:272,1,170.999994781494,0|2,0:0|0:0,0:0:0:0:
376,313,31213,2,0,L|386:142,1,170.999994781494
141,271,32008,6,0,P|132:225|170:106,1,170.999994781494,0|0,0:0|0:0,0:0:0:0:
246,57,32604,1,0,0:0:0:0:
334,87,32802,2,0,P|375:96|427:96,1,85.4999973907472,0|2,0:0|0:0,0:0:0:0:
405,190,33200,2,0,P|364:181|312:181,1,85.4999973907472,2|0,0:0|0:0,0:0:0:0:
262,254,33597,6,0,P|290:187|250:94,2,170.999994781494,2|2|0,0:0|0:0|0:0,0:0:0:0:
251,276,34789,1,0,0:0:0:0:
341,334,34988,1,0,0:0:0:0:
251,276,35186,6,0,B|182:276|182:323|70:324,1,170.999994781494,2|0,0:0|0:0,0:0:0:0:
26,252,35782,1,0,0:0:0:0:
111,211,35981,2,0,B|128:130|128:130|111:41,1,170.999994781494,0|2,0:0|0:0,0:0:0:0:
285,115,36776,6,0,L|276:204,1,85.4999973907472,0|2,0:0|0:0,0:0:0:0:
197,250,37173,2,0,P|273:220|350:267,1,170.999994781494,2|0,0:0|0:0,0:0:0:0:
267,313,37769,1,0,0:0:0:0:
276,200,37968,2,0,L|290:80,1,113.999996520996,0|0,0:0|0:0,0:0:0:0:
296,48,38365,5,12,0:0:0:0:
170,109,38564,1,0,0:0:0:0:
170,109,38663,1,0,0:0:0:0:
276,200,38862,1,0,0:0:0:0:
276,200,38961,1,0,0:0:0:0:
170,109,39160,2,0,P|125:107|68:115,1,95,8|0,0:0|3:0,0:0:0:0:
42,120,39458,2,0,P|55:162|48:227,1,95,0|0,0:0|0:0,0:0:0:0:
56,247,39756,1,0,0:0:0:0:
56,247,39855,1,0,0:0:0:0:
56,247,39955,5,0,0:0:0:0:
142,155,40153,1,0,0:0:0:0:
142,155,40253,2,0,B|192:148|192:148|246:157,1,95,0|0,0:0|0:0,0:0:0:0:
267,164,40551,1,0,0:0:0:0:
188,303,40749,1,8,0:0:0:0:
328,355,40948,1,0,0:0:0:0:
328,355,41047,1,0,0:0:0:0:
400,231,41246,1,0,0:0:0:0:
400,231,41345,2,0,P|398:201|402:168,1,47.5
407,85,41544,5,0,3:0:0:0:
310,202,41743,1,0,0:0:0:0:
489,212,41941,1,0,0:0:0:0:
316,120,42140,1,0,0:0:0:0:
316,120,42239,1,0,0:0:0:0:
316,120,42339,2,0,B|270:117|270:117|216:130,1,95,8|0,0:0|3:0,0:0:0:0:
191,141,42637,2,0,B|143:152|143:152|97:149,1,95,0|0,0:0|0:0,0:0:0:0:
66,137,42935,1,0,0:0:0:0:
133,21,43133,5,0,0:0:0:0:
191,141,43332,1,0,3:0:0:0:
249,21,43531,1,0,3:0:0:0:
307,141,43729,1,0,3:0:0:0:
133,21,43928,1,0,3:0:0:0:
386,69,44127,1,0,3:0:0:0:
54,93,44325,2,0,B|42:145|42:145|73:246,1,142.5,0|0,3:0|0:0,0:0:0:0:
148,218,44723,6,0,P|80:279|146:366,1,216.124990106583,4|0,3:2|0:0,0:0:0:0:
154,292,45518,5,8,0:0:0:0:
50,177,45716,1,0,3:0:0:0:
50,177,45816,1,0,0:0:0:0:
50,177,45915,1,0,3:0:0:0:
184,105,46114,1,0,0:0:0:0:
184,105,46213,1,0,0:0:0:0:
184,105,46312,6,0,L|279:108,1,76
288,98,46610,1,0,0:0:0:0:
288,98,46710,1,0,3:0:0:0:
381,200,46908,2,0,L|386:256,1,38,0|0,0:0|0:0,0:0:0:0:
445,291,47107,1,8,0:0:0:0:
445,291,47206,2,0,P|391:275|336:311,2,114
400,350,47902,6,0,L|413:181,1,152,0|0,3:0|0:0,0:0:0:0:
461,148,48431,1,0,0:0:0:0:
402,107,48564,1,0,0:0:0:0:
352,57,48696,2,0,B|300:57|300:57|236:71,1,101.333333333333,8|0,0:0|0:0,0:0:0:0:
201,118,49094,2,0,B|145:118|145:118|91:106,1,101.333333333333,0|0,3:0|0:0,0:0:0:0:
56,50,49491,5,0,0:0:0:0:
160,17,49690,1,0,3:0:0:0:
201,118,49888,2,0,L|192:194,1,76,0|0,3:0|0:0,0:0:0:0:
307,292,50286,6,0,L|317:214,1,78.3750023918153,0|0,0:0|0:0,0:0:0:0:
394,148,50683,1,2,0:3:0:0:
363,171,50782,1,2,0:3:0:0:
325,177,50881,1,2,0:3:0:0:
288,163,50981,1,2,0:3:0:0:
264,133,51080,5,12,0:0:0:0:
341,38,51279,1,0,0:0:0:0:
198,80,51478,2,0,P|180:124|194:181,1,95,8|0,0:0|0:0,0:0:0:0:
284,226,51875,2,0,B|192:199|192:199|99:237,1,190,8|8,0:0|0:0,0:0:0:0:
72,245,52670,6,0,P|66:165|74:83,2,142.5,8|0|0,0:0|0:0|0:0,0:0:0:0:
163,330,53465,2,0,P|121:339|68:341,1,95,8|0,0:0|0:0,0:0:0:0:
105,235,53862,1,8,0:0:0:0:
197,320,54061,1,0,0:0:0:0:
246,155,54259,6,0,P|336:170|396:252,1,190,8|8,0:0|0:0,0:0:0:0:
292,328,54855,1,0,0:0:0:0:
239,235,55054,2,0,P|289:225|286:331,1,190,8|8,0:0|0:0,0:0:0:0:
269,336,55849,6,0,P|204:342|123:334,1,142.5,8|0,0:0|0:0,0:0:0:0:
98,332,56246,2,0,P|104:284|104:227,1,95,8|0,0:0|0:0,0:0:0:0:
100,115,56643,2,0,L|216:125,1,95,8|0,0:0|0:0,0:0:0:0:
330,44,57041,1,8,0:0:0:0:
339,207,57239,1,0,0:0:0:0:
194,123,57438,5,12,0:0:0:0:
217,89,57537,1,0,0:0:0:0:
250,63,57636,1,8,0:0:0:0:
288,48,57736,1,0,0:0:0:0:
330,44,57835,1,8,0:0:0:0:
370,52,57934,1,0,0:0:0:0:
407,71,58034,1,8,0:0:0:0:
436,100,58133,1,0,0:0:0:0:
457,136,58233,5,8,0:0:0:0:
449,159,58332,1,0,0:0:0:0:
444,182,58431,1,8,0:0:0:0:
441,206,58531,1,0,0:0:0:0:
440,229,58630,1,8,0:0:0:0:
442,253,58729,1,0,0:0:0:0:
445,276,58829,1,8,0:0:0:0:
451,299,58928,1,0,0:0:0:0:
459,322,59027,6,0,L|405:332,3,47.5,8|0|8|0,0:0|0:0|0:0|0:0,0:0:0:0:
331,315,59425,2,0,L|276:324,3,47.5,8|0|8|0,0:0|0:0|0:0|0:0,0:0:0:0:
206,298,59822,5,8,0:0:0:0:
192,265,59921,1,0,0:0:0:0:
186,230,60020,1,8,0:0:0:0:
191,195,60120,1,0,0:0:0:0:
203,161,60219,1,8,0:0:0:0:
215,128,60318,1,0,0:0:0:0:
220,93,60418,1,8,0:0:0:0:
216,57,60517,1,0,0:0:0:0:
207,23,60616,5,0,0:0:0:0:
314,196,62802,5,0,0:0:0:0:
381,322,63001,2,0,B|347:315|312:335|312:335|325:297|311:265|311:265|328:228|308:175,1,213.750008153916,2|0,0:3|0:0,0:0:0:0:
277,102,63398,2,0,P|312:178|347:90,1,213.750008153916,2|0,0:3|0:0,0:0:0:0:
199,120,63796,6,0,P|208:180|242:222,1,113.999996520996,4|0,3:2|0:0,0:0:0:0:
249,26,64193,2,0,L|125:35,1,113.999996520996,0|0,0:0|0:0,0:0:0:0:
46,233,64590,1,8,0:0:0:0:
199,120,64789,1,0,3:0:0:0:
58,65,64988,1,0,3:0:0:0:
148,218,65186,1,0,0:0:0:0:
286,124,65385,2,0,B|342:122|343:145|408:144,1,113.999996520996,0|0,0:0|0:0,0:0:0:0:
291,256,65782,6,0,L|306:195,1,56.9999982604981,0|0,3:0|0:0,0:0:0:0:
398,12,65981,2,0,L|383:73,1,56.9999982604981
304,200,66180,2,0,L|180:181,1,113.999996520996,8|0,0:0|0:0,0:0:0:0:
384,67,66577,2,0,L|508:86,1,113.999996520996
341,132,66974,5,0,3:0:0:0:
472,218,67173,1,0,0:0:0:0:
291,256,67372,2,0,P|233:256|182:218,1,113.999996520996
73,130,67769,1,8,0:0:0:0:
259,177,67968,1,0,3:0:0:0:
68,237,68167,2,0,B|52:183|52:183|72:128,1,113.999996520996,0|0,3:0|0:0,0:0:0:0:
191,27,68564,1,0,0:0:0:0:
260,176,68763,1,0,3:0:0:0:
72,129,68961,6,0,L|15:120,1,56.9999982604981,0|0,3:0|0:0,0:0:0:0:
16,266,69160,2,0,L|80:256,1,56.9999982604981,0|0,0:0|0:0,0:0:0:0:
224,172,69359,6,0,B|172:172|172:172|110:195,1,114,2|0,0:3|0:0,0:0:0:0:
72,257,69756,2,0,L|72:115,1,128.249996086121,4|0,0:0|0:0,0:0:0:0:
49,61,70153,6,0,P|88:87|152:87,1,92.6249957599642,0|0,0:0|0:0,0:0:0:0:
161,85,70551,1,0,0:0:0:0:
189,78,70948,1,8,0:0:0:0:
262,232,71147,5,0,3:0:0:0:
183,54,71345,1,0,3:0:0:0:
131,239,71544,1,0,0:0:0:0:
294,124,71743,1,0,0:0:0:0:
78,142,71941,1,0,0:0:0:0:
262,232,72140,6,0,P|285:238|329:241,1,56.9999982604981,0|0,3:0|0:0,0:0:0:0:
183,54,72339,2,0,P|154:56|126:63,1,56.9999982604981,0|0,0:0|0:0,0:0:0:0:
294,124,72537,2,0,P|314:87|305:8,1,113.999996520996,8|0,0:0|0:0,0:0:0:0:
151,162,72935,2,0,P|131:199|140:278,1,113.999996520996
341,224,73332,6,0,L|228:227,1,113.999996520996,0|0,3:0|0:0,0:0:0:0:
401,48,73729,2,0,P|411:106|403:161,1,113.999996520996,0|0,0:0|0:0,0:0:0:0:
375,330,74127,1,8,0:0:0:0:
495,265,74325,1,0,3:0:0:0:
341,224,74524,2,0,L|228:227,1,113.999996520996,0|0,3:0|0:0,0:0:0:0:
127,307,74921,1,0,0:0:0:0:
152,178,75120,1,0,3:0:0:0:
152,178,75219,1,0,0:0:0:0:
152,178,75319,1,0,3:0:0:0:
225,333,75518,1,0,0:0:0:0:
279,127,75716,6,0,B|350:116|379:157|379:157|416:116|479:133,1,213.750008153916,2|0,0:3|0:0,0:0:0:0:
191,175,76511,5,0,3:0:0:0:
191,175,76710,2,0,P|178:123|199:68,1,95,0|0,0:0|0:0,0:0:0:0:
279,127,77107,1,0,0:0:0:0:
191,175,77306,1,8,0:0:0:0:
279,221,77504,2,0,P|318:229|379:231,1,95,0|0,3:0|3:0,0:0:0:0:
445,162,77902,1,0,0:0:0:0:
341,154,78100,6,0,P|392:94|441:173,1,190,0|0,0:0|3:0,0:0:0:0:
170,229,78895,2,0,P|113:289|66:221,1,190,8|0,0:0|0:0,0:0:0:0:
126,151,79491,1,0,0:0:0:0:
115,321,79690,5,0,3:0:0:0:
115,320,79888,2,0,P|81:353|35:364,1,95,0|0,0:0|0:0,0:0:0:0:
117,235,80286,1,0,0:0:0:0:
187,284,80484,2,0,P|226:309|274:310,1,95,8|0,0:0|3:0,0:0:0:0:
364,255,80882,1,0,3:0:0:0:
259,224,81080,1,0,0:0:0:0:
393,263,81279,6,0,B|399:199|399:199|393:145|393:145|398:60,1,190,0|0,0:0|3:0,0:0:0:0:
119,121,82074,2,0,B|113:185|113:185|119:239|119:239|114:324,2,190
36,53,83067,6,0,B|121:86|121:86|226:62,1,190,0|0,0:0|0:0,0:0:0:0:
381,40,83663,1,8,0:0:0:0:
280,171,83862,1,0,3:0:0:0:
300,52,84061,1,0,3:0:0:0:
379,210,84259,1,0,0:0:0:0:
217,63,84458,6,0,P|179:71|129:108,1,95,0|0,0:0|0:0,0:0:0:0:
59,234,84855,1,0,3:0:0:0:
117,123,85054,1,0,0:0:0:0:
174,271,85253,1,8,0:0:0:0:
180,291,85650,1,0,0:0:0:0:
110,101,85849,1,0,0:0:0:0:
60,260,86047,6,0,P|67:303|107:360,1,95,0|0,3:0|0:0,0:0:0:0:
195,259,86445,1,0,0:0:0:0:
120,360,86643,1,0,0:0:0:0:
296,326,86842,2,0,P|344:318|395:325,1,95,8|0,0:0|3:0,0:0:0:0:
419,179,87239,1,0,3:0:0:0:
473,328,87438,1,0,0:0:0:0:
389,90,87637,5,0,0:0:0:0:
335,239,87836,1,0,3:0:0:0:
313,147,88034,1,0,3:0:0:0:
419,179,88233,1,0,0:0:0:0:
259,272,88431,2,0,P|217:280|154:273,1,95,0|0,0:0|0:0,0:0:0:0:
325,182,88829,2,0,P|367:174|430:181,1,95,0|0,0:0|0:0,0:0:0:0:
381,314,89226,5,10,0:0:0:0:
291,183,89425,1,0,0:0:0:0:
259,272,89623,1,8,0:0:0:0:
227,361,89822,2,0,L|126:363,1,95,0|8,0:0|0:0,0:0:0:0:
203,152,90219,1,2,0:0:0:0:
291,183,90417,1,10,0:0:0:0:
380,215,90617,2,0,L|387:120,1,95,0|8,0:0|0:0,0:0:0:0:
253,22,91014,5,0,0:0:0:0:
203,152,91213,1,10,0:0:0:0:
155,26,91412,1,0,0:0:0:0:
281,103,91610,1,8,0:0:0:0:
126,105,91809,1,0,0:0:0:0:
253,22,92008,2,0,P|303:23|348:47,1,95,8|0,0:0|0:0,0:0:0:0:
494,152,92405,5,10,0:0:0:0:
281,103,92604,1,0,0:0:0:0:
304,198,92802,1,8,0:0:0:0:
327,293,93001,2,0,L|424:284,1,95,0|8,0:0|0:0,0:0:0:0:
494,152,93398,1,2,0:0:0:0:
399,175,93597,1,10,0:0:0:0:
304,198,93796,2,0,L|203:220,1,95,0|8,0:0|0:0,0:0:0:0:
97,139,94193,5,2,0:0:0:0:
229,103,94392,1,10,0:0:0:0:
91,115,94590,1,0,0:0:0:0:
223,79,94789,2,0,L|329:83,1,95
91,115,95186,2,0,P|81:72|95:21,1,95
164,184,95584,6,0,P|113:214|28:194,1,142.500005435944,0|0,0:0|0:0,0:0:0:0:
165,73,96378,2,0,P|216:43|301:63,1,142.500005435944,8|10,0:0|0:0,0:0:0:0:
228,273,97173,6,0,L|237:131,1,142.500005435944,8|10,0:0|0:0,0:0:0:0:
406,223,97968,2,0,L|397:365,1,142.500005435944,8|8,0:0|0:0,0:0:0:0:
344,168,98763,6,0,P|413:140|479:184,1,142.500005435944,10|8,0:0|0:0,0:0:0:0:
290,329,99557,2,0,P|221:357|155:313,1,142.500005435944,8|10,0:0|0:0,0:0:0:0:
62,154,100352,6,0,L|67:236,1,71.2500027179719,0|2,0:0|0:0,0:0:0:0:
153,247,100749,2,0,L|148:165,1,71.2500027179719,2|0,0:0|0:0,0:0:0:0:
164,327,101147,2,0,B|232:325|229:280|296:281,1,142.500005435944,4|0,0:0|0:0,0:0:0:0:
381,354,101743,1,0,0:0:0:0:
352,174,101941,6,0,P|367:130|410:96,1,95,12|0,0:0|0:0,0:0:0:0:
465,197,102339,2,0,P|450:241|407:275,1,95,8|0,0:0|0:0,0:0:0:0:
352,174,102736,2,0,B|265:174|265:221|142:221,1,190,8|8,0:0|0:0,0:0:0:0:
142,222,103531,6,0,P|139:160|146:66,2,142.5,8|0|0,0:0|0:0|0:0,0:0:0:0:
148,341,104325,2,0,P|195:354|243:338,1,95,8|0,0:0|0:0,0:0:0:0:
307,243,104723,1,8,0:0:0:0:
194,276,104921,1,0,0:0:0:0:
357,342,105120,6,0,B|418:326|473:347|473:347|454:304|465:256,1,190,8|8,0:0|0:0,0:0:0:0:
400,192,105716,1,0,0:0:0:0:
461,107,105915,2,0,B|454:80|473:37|473:37|418:58|357:42,1,190,8|8,0:0|0:0,0:0:0:0:
327,40,106710,6,0,P|320:104|326:194,1,142.5,8|0,0:0|0:0,0:0:0:0:
329,212,107107,2,0,P|336:259|329:306,1,95,8|0,0:0|0:0,0:0:0:0:
165,153,107504,2,0,P|159:106|169:51,1,95,8|0,0:0|0:0,0:0:0:0:
243,191,107902,1,8,0:0:0:0:
115,226,108100,1,0,0:0:0:0:
272,89,108299,5,12,0:0:0:0:
311,77,108398,1,0,0:0:0:0:
353,78,108497,1,8,0:0:0:0:
392,91,108597,1,0,0:0:0:0:
425,116,108696,1,8,0:0:0:0:
448,150,108795,1,0,0:0:0:0:
460,190,108895,1,8,0:0:0:0:
459,231,108994,1,0,0:0:0:0:
446,270,109094,5,8,0:0:0:0:
417,262,109193,1,0,0:0:0:0:
388,258,109292,1,8,0:0:0:0:
358,260,109392,1,0,0:0:0:0:
329,267,109491,1,8,0:0:0:0:
300,273,109590,1,0,0:0:0:0:
271,274,109690,1,8,0:0:0:0:
241,270,109789,1,0,0:0:0:0:
213,262,109888,6,0,L|224:208,3,47.5,8|0|8|0,0:0|0:0|0:0|0:0,0:0:0:0:
171,165,110286,2,0,L|181:110,3,47.5,8|0|8|0,0:0|0:0|0:0|0:0,0:0:0:0:
150,53,110683,5,8,0:0:0:0:
184,43,110782,1,0,0:0:0:0:
219,37,110881,1,8,0:0:0:0:
255,40,110981,1,0,0:0:0:0:
289,48,111080,1,8,0:0:0:0:
324,56,111179,1,0,0:0:0:0:
360,58,111279,1,8,0:0:0:0:
395,53,111378,1,0,0:0:0:0:
429,43,111477,5,0,0:0:0:0:
338,303,113663,5,0,0:0:0:0:
158,303,113862,2,0,B|251:253|251:253|340:305,1,206.625006305695,2|0,0:3|0:0,0:0:0:0:
252,253,114259,2,0,B|233:212|260:174|260:174|243:144|243:144|272:103|246:40,1,206.625006305695,2|0,0:3|0:0,0:0:0:0:
175,94,114657,5,4,3:2:0:0:
320,222,114855,1,0,0:0:0:0:
142,197,115054,2,0,P|144:141|175:94,1,113.999996520996,0|0,0:0|0:0,0:0:0:0:
402,116,115451,1,8,0:0:0:0:
232,169,115650,1,0,3:0:0:0:
403,235,115849,1,0,3:0:0:0:
305,71,116047,1,0,0:0:0:0:
282,266,116246,2,0,P|282:325|319:371,1,113.999996520996,0|0,0:0|0:0,0:0:0:0:
415,280,116643,6,0,L|361:297,1,56.9999982604981,0|0,3:0|0:0,0:0:0:0:
231,215,116842,2,0,L|285:231,1,56.9999982604981,0|0,0:0|0:0,0:0:0:0:
162,261,117041,2,0,P|148:202|187:144,1,113.999996520996,8|0,0:0|0:0,0:0:0:0:
484,233,117438,2,0,P|498:292|459:350,1,113.999996520996,0|0,0:0|0:0,0:0:0:0:
231,215,117835,5,0,3:0:0:0:
415,280,118034,1,0,0:0:0:0:
231,345,118233,2,0,B|178:345|178:345|168:351|168:351|110:351,1,113.999996520996,0|0,0:0|0:0,0:0:0:0:
62,169,118630,2,0,P|79:216|60:282,1,113.999996520996,8|0,0:0|3:0,0:0:0:0:
139,78,119027,2,0,P|186:61|252:80,1,113.999996520996,0|0,3:0|0:0,0:0:0:0:
331,217,119425,1,0,0:0:0:0:
194,151,119623,1,0,3:0:0:0:
365,81,119822,6,0,P|370:55|365:22,1,56.9999982604981,0|0,3:0|0:0,0:0:0:0:
331,217,120021,2,0,P|326:243|331:276,1,56.9999982604981,0|0,0:0|0:0,0:0:0:0:
194,151,120219,6,0,P|143:151|92:187,1,106.875004076958,2|0,0:3|0:0,0:0:0:0:
126,277,120617,2,0,P|126:226|90:175,1,106.875004076958,4|0,0:0|0:0,0:0:0:0:
47,249,121014,6,0,B|37:297|37:297|49:343,2,95,4|0|0,0:0|0:0|0:0,0:0:0:0:
52,225,121809,1,8,0:0:0:0:
184,317,122008,5,0,3:0:0:0:
48,341,122206,1,0,3:0:0:0:
162,191,122405,1,0,0:0:0:0:
184,317,122604,1,0,0:0:0:0:
52,225,122802,1,0,0:0:0:0:
174,91,123001,6,0,P|205:87|241:93,1,56.9999982604981,0|0,3:0|0:0,0:0:0:0:
108,224,123200,2,0,P|77:228|41:222,1,56.9999982604981
267,95,123398,2,0,L|260:223,1,113.999996520996,8|0,0:0|0:0,0:0:0:0:
22,220,123796,2,0,L|29:92,1,113.999996520996,0|0,0:0|0:0,0:0:0:0:
153,284,124193,5,0,3:0:0:0:
260,205,124392,1,0,0:0:0:0:
117,166,124590,2,0,P|68:178|18:227,1,113.999996520996,0|0,0:0|0:0,0:0:0:0:
260,205,124988,1,8,0:0:0:0:
197,97,125186,1,0,3:0:0:0:
153,284,125385,1,0,3:0:0:0:
276,304,125583,1,0,0:0:0:0:
117,166,125782,1,0,0:0:0:0:
153,284,125981,1,0,3:0:0:0:
153,284,126080,1,0,0:0:0:0:
153,284,126180,1,0,3:0:0:0:
208,112,126378,1,0,0:0:0:0:
262,303,126577,6,0,P|318:341|391:307,1,142.500005435944,0|0,0:0|0:0,0:0:0:0:
347,144,127173,2,0,L|340:196,1,35.625001358986,0|2,0:0|0:3,0:0:0:0:
328,266,127372,1,0,3:0:0:0:
327,283,128365,5,2,0:0:0:0:
252,257,128564,1,2,0:0:0:0:
252,257,128763,1,0,0:0:0:0:
184,295,128961,2,0,P|148:298|103:293,1,71.2500027179719,0|0,0:0|0:0,0:0:0:0:
114,216,129359,2,0,P|149:212|184:215,1,71.2500027179719,2|0,0:0|0:0,0:0:0:0:
252,257,129756,2,0,L|338:257,1,71.2500027179719,0|0,0:0|0:0,0:0:0:0:
323,178,130153,2,0,L|237:178,1,71.2500027179719,0|0,0:0|0:0,0:0:0:0:
114,216,130551,1,2,0:0:0:0:
94,216,131544,5,2,0:0:0:0:
54,148,131743,1,2,0:0:0:0:
54,148,131941,1,0,0:0:0:0:
116,100,132140,2,0,P|154:92|192:97,1,71.2500027179719,0|2,0:0|0:0,0:0:0:0:
261,115,132537,2,0,P|299:123|337:118,1,71.2500027179719,2|0,0:0|0:0,0:0:0:0:
383,60,132935,2,0,P|357:120|394:197,1,142.500005435944,0|0,0:0|0:0,0:0:0:0:
465,322,133729,5,0,0:0:0:0:
240,159,140087,6,0,P|220:91|145:68,2,142.500005435944,4|0|0,0:0|0:0|0:0,0:0:0:0:
164,145,141080,1,0,0:0:0:0:
255,75,141279,2,0,P|289:70|338:78,1,71.2500027179719,0|0,0:0|0:0,0:0:0:0:
370,149,141676,6,0,P|370:76|418:17,1,142.500005435944
468,144,142471,2,0,P|437:101|500:99,1,142.500005435944
328,238,143266,6,0,B|263:238|263:271|184:270,2,142.500005435944,0|0|0,0:0|0:0|0:0,0:0:0:0:
423,257,144259,1,0,0:0:0:0:
391,166,144458,2,0,P|395:131|416:86,1,71.2500027179719,0|0,0:0|0:0,0:0:0:0:
481,53,144855,2,0,L|308:73,1,142.500005435944,0|0,0:0|0:0,0:0:0:0:
246,113,145451,5,0,0:0:0:0:
303,192,145650,1,0,0:0:0:0:
244,88,145849,1,0,0:0:0:0:
195,219,146047,2,0,P|192:257|200:300,1,71.2500027179719,0|0,0:0|0:0,0:0:0:0:
346,318,146445,6,0,L|398:309,3,47.5,12|0|8|0,0:0|0:0|0:0|0:0,0:0:0:0:
410,228,146842,2,0,L|462:219,3,47.5,8|0|8|0,0:0|0:0|0:0|0:0,0:0:0:0:
479,140,147239,5,8,0:0:0:0:
447,113,147338,1,0,0:0:0:0:
410,94,147437,1,8,0:0:0:0:
370,83,147537,1,0,0:0:0:0:
329,80,147636,1,8,0:0:0:0:
288,87,147735,1,0,0:0:0:0:
249,102,147835,1,8,0:0:0:0:
215,126,147934,1,0,0:0:0:0:
186,156,148034,5,8,0:0:0:0:
190,127,148133,1,0,0:0:0:0:
184,98,148232,1,8,0:0:0:0:
168,73,148332,1,0,0:0:0:0:
143,56,148431,1,8,0:0:0:0:
115,49,148530,1,0,0:0:0:0:
86,53,148630,1,8,0:0:0:0:
60,67,148729,1,0,0:0:0:0:
41,90,148829,5,8,0:0:0:0:
77,110,148928,1,0,0:0:0:0:
116,122,149027,1,8,0:0:0:0:
158,118,149127,1,0,0:0:0:0:
196,101,149226,1,8,0:0:0:0:
233,84,149325,1,0,0:0:0:0:
274,76,149425,1,8,0:0:0:0:
315,83,149524,1,0,0:0:0:0:
353,99,149623,5,0,0:0:0:0:
353,99,152008,6,0,L|348:161,1,47.5,2|0,0:3|0:0,0:0:0:0:
338,278,152206,1,0,0:0:0:0:
357,74,152405,1,0,0:0:0:0:
357,74,152802,5,4,3:2:0:0:
218,153,153001,1,0,0:0:0:0:
412,212,153200,2,0,B|427:275|427:275|410:336,1,123.499994346619,0|0,0:0|0:0,0:0:0:0:
282,274,153597,1,8,0:0:0:0:
406,182,153796,1,0,3:0:0:0:
218,153,153994,2,0,P|162:153|102:189,1,123.499994346619,0|0,3:0|0:0,0:0:0:0:
315,186,154392,2,0,P|315:130|279:70,1,123.499994346619
185,250,154789,6,0,L|180:328,1,61.7499971733095,0|0,3:0|0:0,0:0:0:0:
293,367,154988,2,0,L|298:289,1,61.7499971733095,0|0,0:0|0:0,0:0:0:0:
316,205,155186,2,0,L|440:213,1,123.499994346619,8|0,0:0|0:0,0:0:0:0:
185,250,155584,2,0,L|61:242,1,123.499994346619,0|0,0:0|0:0,0:0:0:0:
134,119,155981,5,0,3:0:0:0:
185,250,156180,1,0,0:0:0:0:
61,242,156378,2,0,L|185:250,1,123.499994346619,0|0,0:0|0:0,0:0:0:0:
296,163,156776,1,8,0:0:0:0:
298,301,156974,1,0,3:0:0:0:
211,163,157173,2,0,P|238:101|301:77,1,123.499994346619,0|0,3:0|0:0,0:0:0:0:
429,253,157570,1,0,0:0:0:0:
296,163,157769,1,0,3:0:0:0:
482,135,157968,6,0,P|485:102|477:66,1,61.7499971733095,0|0,3:0|0:0,0:0:0:0:
429,253,158167,2,0,P|426:286|434:322,1,61.7499971733095,0|0,0:0|0:0,0:0:0:0:
296,163,158365,6,0,B|238:163|238:163|169:192,1,121.125002310276,2|0,0:3|0:0,0:0:0:0:
63,163,158763,2,0,B|121:163|121:163|190:192,1,121.125002310276,4|0,0:0|0:0,0:0:0:0:
179,291,159160,6,0,L|179:187,1,104.500003189087,4|0,0:0|0:0,0:0:0:0:
179,43,159557,1,0,0:0:0:0:
179,23,159955,1,8,0:0:0:0:
95,163,160153,5,0,3:0:0:0:
263,163,160352,1,0,3:0:0:0:
179,23,160551,1,0,0:0:0:0:
179,187,160749,2,0,L|179:308,1,118.75,0|0,0:0|0:0,0:0:0:0:
119,186,161147,6,0,L|179:187,1,59.375,0|0,3:0|0:0,0:0:0:0:
238,305,161345,2,0,L|179:305,1,59.375,0|0,0:0|0:0,0:0:0:0:
292,251,161544,2,0,P|313:299|292:360,1,118.75,8|0,0:0|0:0,0:0:0:0:
65,240,161941,2,0,P|44:192|65:131,1,118.75,0|0,0:0|0:0,0:0:0:0:
238,187,162339,6,0,L|111:186,1,118.75,0|0,3:0|0:0,0:0:0:0:
264,53,162736,2,0,B|280:112|280:112|259:179,1,118.75,0|0,0:0|0:0,0:0:0:0:
372,116,163133,1,8,0:0:0:0:
292,251,163332,1,0,3:0:0:0:
478,243,163531,1,0,3:0:0:0:
372,116,163729,1,0,0:0:0:0:
382,312,163928,2,0,L|377:190,1,118.75
372,116,164226,1,0,0:0:0:0:
372,116,164325,1,0,0:0:0:0:
385,334,164524,1,0,0:0:0:0:
229,170,164723,5,0,0:0:0:0:
188,175,164822,1,0,0:0:0:0:
152,189,164921,1,0,0:0:0:0:
119,211,165021,1,0,0:0:0:0:
92,238,165120,2,0,L|99:141,2,79.1666666666667,0|0|0,0:0|0:0|0:0,0:0:0:0:
45,302,165518,6,0,P|95:272|165:288,1,118.75,4|0,3:2|0:0,0:0:0:0:
220,317,165816,1,0,0:0:0:0:
220,317,165915,1,0,3:0:0:0:
112,355,166114,1,0,0:0:0:0:
237,218,166312,2,0,P|298:218|351:258,1,118.75,0|0,3:0|0:0,0:0:0:0:
418,353,166710,1,0,3:0:0:0:
273,298,166908,1,0,0:0:0:0:
459,221,167107,6,0,B|477:165|477:165|458:99,1,118.75,0|0,3:0|0:0,0:0:0:0:
459,36,167405,1,0,0:0:0:0:
459,36,167504,2,0,B|402:50|402:50|341:50,1,118.75,0|0,3:0|0:0,0:0:0:0:
341,207,167902,2,0,B|402:207|402:207|459:221,1,118.75,0|0,3:0|0:0,0:0:0:0:
272,128,168299,2,0,L|233:128,6,29.6875,0|0|0|0|0|0|0,3:0|0:0|0:0|0:0|0:0|0:0|0:0,0:0:0:0:
321,128,168696,5,0,3:0:0:0:
191,128,168895,1,0,0:0:0:0:
176,128,168994,1,0,0:0:0:0:
161,128,169094,2,0,B|76:128|76:128|102:160,1,118.75,0|0,3:0|0:0,0:0:0:0:
166,272,169491,1,0,3:0:0:0:
191,128,169690,1,0,0:0:0:0:
260,245,169888,1,0,3:0:0:0:
97,155,170087,1,0,0:0:0:0:
304,152,170286,6,0,B|304:95|304:95|284:33,1,118.75,0|0,3:0|0:0,0:0:0:0:
189,159,170683,1,0,3:0:0:0:
347,215,170882,2,0,L|382:219,2,29.6875,0|0|0,0:0|0:0|0:0,0:0:0:0:
304,152,171080,6,0,B|304:209|304:209|281:271,1,121.125002310276,2|0,0:3|0:0,0:0:0:0:
209,327,171478,1,2,0:3:0:0:
234,296,171577,1,2,0:3:0:0:
273,291,171676,1,2,0:3:0:0:
305,313,171776,1,2,0:3:0:0:
314,352,171875,5,0,3:0:0:0:
304,152,172074,1,0,0:0:0:0:
304,152,172173,1,0,0:0:0:0:
304,152,172272,2,0,P|304:97|342:47,1,118.75,0|0,3:0|0:0,0:0:0:0:
502,138,172670,2,0,L|385:121,1,118.75,0|0,3:0|0:0,0:0:0:0:
186,134,173067,2,0,L|303:151,1,118.75,0|0,3:0|0:0,0:0:0:0:
413,233,173465,6,0,B|423:292|423:292|408:357,1,118.75,0|0,3:0|0:0,0:0:0:0:
347,289,173763,1,0,0:0:0:0:
347,289,173862,2,0,B|337:230|337:230|352:165,1,118.75,0|0,3:0|0:0,0:0:0:0:
355,30,174259,2,0,B|368:87|368:87|358:146,1,118.75,0|0,3:0|0:0,0:0:0:0:
205,98,174657,2,0,L|156:98,6,29.6875,0|0|0|0|0|0|0,3:0|0:0|0:0|0:0|0:0|0:0|0:0,0:0:0:0:
243,113,175054,5,0,3:0:0:0:
94,40,175253,1,0,0:0:0:0:
101,200,175451,6,0,P|135:250|169:197,1,142.5
31,195,175849,2,0,P|38:257|80:305,1,118.75,0|0,3:0|0:0,0:0:0:0:
170,200,176246,1,0,3:0:0:0:
27,99,176445,1,0,0:0:0:0:
170,218,176643,1,0,3:0:0:0:
219,48,176842,1,0,0:0:0:0:
219,48,176941,1,0,0:0:0:0:
219,48,177041,6,0,L|318:99,1,106.875004076958,2|0,3:0|0:0,0:0:0:0:
219,146,177438,2,0,L|318:95,1,106.875004076958,2|0,3:0|0:0,0:0:0:0:
456,96,177835,1,2,0:3:0:0:
420,96,177934,1,2,0:3:0:0:
384,96,178033,1,2,0:3:0:0:
349,96,178133,1,2,0:3:0:0:
314,97,178232,5,4,0:0:0:0:
256,192,178332,12,0,180816,0:0:0:0:
