osu file format v14

[General]
AudioFilename: MONSTA X () - Be Quiet [THE CLAN Pt.2 'GUILTY'].mp3
AudioLeadIn: 0
PreviewTime: 60120
Countdown: 0
SampleSet: Soft
StackLeniency: 0.6
Mode: 0
LetterboxInBreaks: 0
WidescreenStoryboard: 0

[Editor]
DistanceSpacing: 0.9
BeatDivisor: 4
GridSize: 4
TimelineZoom: 2

[Metadata]
Title:Be Quiet
TitleUnicode:Be Quiet
Artist:MONSTA X
ArtistUnicode:몬스타엑스
Creator:DeRandom Otaku
Version:Easy
Source:
Tags:trap kpop k-pop leon THE CLAN pt.2 GUILTY Starship Entertainment Shownu Wonho Minhyuk Kihyun Hyungwon Jooheon I.M 셔누 원호 민혁 기현 형원 주헌 아이엠 Cerulean Veyron CV
BeatmapID:1104403
BeatmapSetID:518311

[Difficulty]
HPDrainRate:2
CircleSize:2.5
OverallDifficulty:2
ApproachRate:2
SliderMultiplier:1.1
SliderTickRate:1

[Events]
//Background and Video events
0,0,"BG.png",0,0
//Break Periods
2,134524,138527
//Storyboard Layer 0 (Background)
//Storyboard Layer 1 (Fail)
//Storyboard Layer 2 (Pass)
//Storyboard Layer 3 (Foreground)
//Storyboard Sound Samples

[TimingPoints]
220,397.350993377483,4,2,0,45,1,0
6577,-100,4,2,0,45,0,0
12140,-100,4,2,1,55,0,0
12935,-100,4,2,1,75,0,1
18498,-100,4,2,1,75,0,0
18895,-100,4,2,4,75,0,0
19292,-100,4,2,1,75,0,0
20286,-100,4,2,1,75,0,1
24855,-100,4,2,1,75,0,0
25650,-100,4,2,1,65,0,0
28034,-100,4,2,1,50,0,0
28829,-100,4,2,1,55,0,0
31213,-100,4,2,1,40,0,0
31610,-100,4,2,1,50,0,0
38365,-100,4,2,1,60,0,0
50286,-100,4,2,1,50,0,0
51080,-100,4,2,0,50,0,0
63001,-100,4,2,1,50,0,0
63796,-100,4,2,1,75,0,1
69359,-100,4,2,1,75,0,0
69756,-100,4,2,4,75,0,0
70153,-100,4,2,1,75,0,0
71147,-100,4,2,1,75,0,1
75716,-100,4,2,1,75,0,0
76511,-100,4,2,1,50,0,0
89226,-100,4,2,0,50,0,0
101147,-100,4,2,4,50,0,0
101941,-100,4,2,0,50,0,0
113862,-100,4,2,1,50,0,0
114657,-100,4,2,1,75,0,1
120219,-100,4,2,1,75,0,0
120617,-100,4,2,4,75,0,0
121014,-100,4,2,1,75,0,0
122008,-100,4,2,1,75,0,1
126577,-100,4,2,1,75,0,0
127372,-100,4,2,1,60,0,0
140087,-100,4,2,1,50,0,0
146445,-100,4,2,0,65,0,0
152008,-100,4,2,1,65,0,0
152802,-100,4,2,1,85,0,1
158365,-100,4,2,1,85,0,0
158763,-100,4,2,4,85,0,0
159160,-100,4,2,1,85,0,0
160153,-100,4,2,1,85,0,1
164723,-100,4,2,1,85,0,0
165518,-100,4,2,1,90,0,1
171080,-100,4,2,1,90,0,0
171875,-100,4,2,1,90,0,1
178233,-100,4,2,1,90,0,0
178332,-100,4,2,1,50,0,0
179027,-100,4,2,1,40,0,0
179822,-100,4,2,1,20,0,0
180617,-100,4,2,1,5,0,0

[Colours]
Combo1 : 0,215,0
Combo2 : 0,255,255
Combo3 : 255,34,34
Combo4 : 243,230,133

[HitObjects]
256,192,6577,12,8,10948,0:0:0:0:
153,183,12140,6,0,B|102:183|102:183|39:204,1,110,2|2,0:3|0:3,0:0:0:0:
46,300,12935,6,0,L|161:325,1,110,4|0,3:2|0:0,0:0:0:0:
252,323,13729,2,0,L|359:299,2,110,8|0|0,0:0|3:0|0:0,0:0:0:0:
202,238,14921,1,0,3:0:0:0:
263,160,15319,2,0,L|370:184,1,110,8|0,0:0|0:0,0:0:0:0:
430,262,16114,6,0,P|402:179|490:95,1,220,0|8,3:0|0:0,0:0:0:0:
498,192,17306,1,0,3:0:0:0:
430,262,17703,2,0,P|374:277|307:276,1,110,0|0,0:0|3:0,0:0:0:0:
233,233,18498,2,0,B|226:201|235:184|235:184|229:167|229:167|237:149|230:115,1,110,2|4,0:3|0:0,0:0:0:0:
210,29,19292,5,0,0:0:0:0:
67,166,20087,2,0,B|53:220|53:220|70:292,2,110,8|0|0,0:0|3:0|0:0,0:0:0:0:
138,96,21279,1,0,3:0:0:0:
210,29,21676,2,0,L|327:33,1,110,8|0,0:0|0:0,0:0:0:0:
402,88,22471,6,0,P|388:143|406:206,1,110,0|0,3:0|0:0,0:0:0:0:
425,289,23266,1,8,0:0:0:0:
327,270,23663,2,0,P|276:270|216:310,1,110,0|0,3:0|0:0,0:0:0:0:
155,368,24458,1,0,3:0:0:0:
85,298,24855,2,0,B|84:244|84:244|106:177,1,110,0|2,0:0|0:3,0:0:0:0:
194,157,25650,6,0,P|111:157|57:43,1,220,6|0,0:0|0:0,0:0:0:0:
152,68,26842,1,2,0:0:0:0:
249,86,27239,2,0,L|365:96,1,110,0|2,0:0|0:0,0:0:0:0:
401,185,28034,2,0,L|291:175,1,110
194,158,28829,5,2,0:0:0:0:
100,189,29226,2,0,P|123:228|181:256,2,110,0|0|2,0:0|0:0|0:0,0:0:0:0:
100,89,30418,2,0,P|123:50|181:22,1,110,0|2,0:0|0:0,0:0:0:0:
278,22,31213,2,0,P|327:43|357:88,1,110
297,168,32008,6,0,P|392:112|481:176,1,220
387,214,33200,1,2,0:0:0:0:
304,266,33597,2,0,L|327:378,2,110,2|2|0,0:0|0:0|0:0,0:0:0:0:
297,168,34789,1,0,0:0:0:0:
220,104,35186,6,0,P|157:104|106:122,1,110,2|0,0:0|0:0,0:0:0:0:
111,216,35981,2,0,P|164:232|219:231,1,110,0|2,0:0|0:0,0:0:0:0:
297,168,36776,1,0,0:0:0:0:
373,232,37173,2,0,P|427:233|480:217,2,110,2|0|0,0:0|0:0|0:0,0:0:0:0:
297,168,38365,6,0,P|297:111|330:63,1,110,12|0,0:0|0:0,0:0:0:0:
391,140,39160,1,8,0:0:0:0:
460,209,39557,1,0,0:0:0:0:
389,279,39955,2,0,B|351:291|351:291|275:291,1,110,0|0,0:0|0:0,0:0:0:0:
210,221,40749,1,8,0:0:0:0:
139,291,41147,1,0,0:0:0:0:
69,221,41544,6,0,P|69:164|102:109,1,110,0|0,3:0|0:0,0:0:0:0:
163,47,42339,2,0,P|220:47|275:80,1,110,8|0,0:0|0:0,0:0:0:0:
320,153,43133,1,0,0:0:0:0:
381,75,43531,1,0,3:0:0:0:
442,153,43928,1,0,3:0:0:0:
381,231,44325,1,0,3:0:0:0:
320,153,44723,6,0,L|94:171,1,220,4|8,3:2|0:0,0:0:0:0:
30,240,45915,1,0,3:0:0:0:
99,309,46312,2,0,L|228:298,1,110
307,289,47107,1,8,0:0:0:0:
391,339,47504,1,0,0:0:0:0:
461,268,47902,6,0,P|461:213|426:165,1,110,0|0,3:0|0:0,0:0:0:0:
350,111,48696,2,0,P|305:141|250:140,1,110,8|0,0:0|3:0,0:0:0:0:
155,111,49491,2,0,P|100:110|55:140,1,110,0|0,0:0|3:0,0:0:0:0:
129,208,50286,2,0,B|138:262|138:262|126:323,1,110,0|2,0:0|0:3,0:0:0:0:
38,354,51080,6,0,L|270:361,1,220,12|8,0:0|0:0,0:0:0:0:
343,309,52272,1,8,0:0:0:0:
260,253,52670,2,0,P|266:139|366:105,1,220,8|8,0:0|0:0,0:0:0:0:
342,200,53862,1,8,0:0:0:0:
260,253,54259,6,0,B|150:253|150:253|45:210,1,220,8|8,0:0|0:0,0:0:0:0:
118,141,55451,1,8,0:0:0:0:
47,70,55849,2,0,B|148:28|148:28|258:28,1,220,8|8,0:0|0:0,0:0:0:0:
357,28,57041,1,8,0:0:0:0:
256,192,57438,12,0,60617,0:0:0:0:
357,28,63001,6,0,L|335:155,1,110,2|2,0:3|0:3,0:0:0:0:
320,234,63796,6,0,P|375:223|443:245,1,110,4|0,3:2|0:0,0:0:0:0:
426,333,64590,2,0,P|372:345|319:332,1,110,8|0,0:0|3:0,0:0:0:0:
232,285,65385,1,0,0:0:0:0:
146,333,65782,2,0,P|92:345|39:334,1,110,0|8,3:0|0:0,0:0:0:0:
94,251,66577,1,0,0:0:0:0:
127,157,66974,6,0,B|179:157|179:157|237:188,1,110,0|0,3:0|0:0,0:0:0:0:
329,184,67769,2,0,B|380:156|380:156|432:156,2,110,8|0|0,0:0|3:0|0:0,0:0:0:0:
280,270,68961,1,0,3:0:0:0:
230,184,69359,2,0,B|223:152|232:135|232:135|226:118|226:118|234:100|227:66,1,110,2|4,0:3|0:0,0:0:0:0:
130,85,70153,5,0,0:0:0:0:
28,255,70948,2,0,P|77:282|141:272,2,110,8|0|0,0:0|3:0|0:0,0:0:0:0:
97,184,72140,1,0,3:0:0:0:
28,113,72537,2,0,P|75:86|129:90,1,110,8|0,0:0|0:0,0:0:0:0:
226,108,73332,6,0,B|280:123|280:123|341:107,1,110,0|0,3:0|0:0,0:0:0:0:
412,167,74127,2,0,B|397:221|397:221|413:282,2,110,8|0|0,0:0|3:0|0:0,0:0:0:0:
421,68,75319,1,0,3:0:0:0:
332,109,75716,1,2,0:3:0:0:
139,62,76511,6,0,P|106:166|149:285,1,220,0|8,3:0|0:0,0:0:0:0:
188,353,77703,1,0,3:0:0:0:
253,278,78100,2,0,B|302:278|302:278|310:282|310:282|366:282,1,110,0|0,0:0|3:0,0:0:0:0:
389,186,78895,2,0,B|340:186|340:186|332:182|332:182|276:182,1,110,8|0,0:0|0:0,0:0:0:0:
209,111,79690,5,0,3:0:0:0:
139,180,80087,2,0,B|86:180|86:180|78:184|78:184|29:184,2,110,0|8|0,0:0|0:0|3:0,0:0:0:0:
211,247,81279,2,0,P|211:303|186:355,1,110,0|0,0:0|3:0,0:0:0:0:
89,350,82074,2,0,P|66:300|66:245,1,110,0|0,0:0|0:0,0:0:0:0:
139,180,82869,6,0,B|190:194|190:194|363:167,1,220,0|8,0:0|0:0,0:0:0:0:
451,145,84061,1,0,3:0:0:0:
422,239,84458,2,0,P|422:289|456:342,2,110,0|0|8,0:0|3:0|0:0,0:0:0:0:
451,145,85650,1,0,0:0:0:0:
355,168,86047,6,0,B|342:114|342:114|355:42,2,110,0|0|8,3:0|0:0|0:0,0:0:0:0:
422,239,87239,1,0,3:0:0:0:
338,291,87637,2,0,P|289:292|225:254,1,110,0|0,0:0|3:0,0:0:0:0:
165,195,88431,2,0,L|165:82,1,110,0|0,0:0|0:0,0:0:0:0:
88,21,89226,6,0,P|189:54|296:22,1,220,10|8,0:0|0:0,0:0:0:0:
386,60,90418,2,0,B|376:115|376:115|391:173,1,110,10|8,0:0|0:0,0:0:0:0:
420,261,91213,1,10,0:0:0:0:
324,236,91610,2,0,B|269:226|269:226|211:241,1,110,8|8,0:0|0:0,0:0:0:0:
162,322,92405,6,0,P|162:213|104:112,1,220,10|8,0:0|0:0,0:0:0:0:
50,37,93597,2,0,L|168:22,1,110,10|8,0:0|0:0,0:0:0:0:
229,93,94392,1,10,0:0:0:0:
303,27,94789,2,0,L|412:40,1,110,0|0,0:0|0:0,0:0:0:0:
413,139,95584,6,0,L|304:152,1,110,0|0,0:0|0:0,0:0:0:0:
233,221,96378,2,0,L|124:234,1,110,8|10,0:0|0:0,0:0:0:0:
46,298,97173,2,0,P|23:242|33:190,1,110,8|10,0:0|0:0,0:0:0:0:
72,104,97968,1,8,0:0:0:0:
233,221,98763,6,0,L|229:336,1,110,10|8,0:0|0:0,0:0:0:0:
322,364,99557,2,0,L|326:249,1,110,8|10,0:0|0:0,0:0:0:0:
418,219,100352,1,0,0:0:0:0:
454,127,100749,2,0,L|341:124,2,110,2|4|0,0:0|0:0|0:0,0:0:0:0:
474,30,101941,6,0,L|242:23,1,220,12|8,0:0|0:0,0:0:0:0:
169,75,103133,1,8,0:0:0:0:
252,131,103531,2,0,P|246:245|146:279,1,220,8|8,0:0|0:0,0:0:0:0:
170,184,104723,1,8,0:0:0:0:
252,131,105120,6,0,B|362:131|362:131|467:174,1,220,8|8,0:0|0:0,0:0:0:0:
394,243,106312,1,8,0:0:0:0:
465,314,106710,2,0,B|364:356|364:356|254:356,1,220,8|8,0:0|0:0,0:0:0:0:
155,356,107902,1,8,0:0:0:0:
256,192,108299,12,0,111478,0:0:0:0:
59,262,113862,6,0,L|188:262,1,110,2|2,0:3|0:3,0:0:0:0:
268,262,114657,6,0,B|269:210|269:210|288:150,1,110,4|0,3:2|0:0,0:0:0:0:
385,154,115451,2,0,B|402:209|402:209|403:261,2,110,8|0|0,0:0|3:0|0:0,0:0:0:0:
335,68,116643,1,0,3:0:0:0:
286,154,117041,2,0,P|221:154|174:129,1,110,8|0,0:0|0:0,0:0:0:0:
84,115,117835,6,0,L|97:227,1,110,0|0,3:0|0:0,0:0:0:0:
105,323,118630,2,0,L|214:310,1,110,8|0,0:0|3:0,0:0:0:0:
284,240,119425,1,0,0:0:0:0:
353,309,119822,1,0,3:0:0:0:
432,249,120219,2,0,B|425:217|434:200|434:200|428:183|428:183|436:165|429:131,1,110,2|4,0:3|0:0,0:0:0:0:
404,46,121014,5,4,0:0:0:0:
278,199,121809,2,0,P|232:199|180:165,1,110,8|0,0:0|3:0,0:0:0:0:
179,65,122604,2,0,P|222:33|277:30,2,110,0|0|8,0:0|3:0|0:0,0:0:0:0:
93,115,123796,1,0,0:0:0:0:
179,164,124193,6,0,L|171:280,1,110,0|0,3:0|0:0,0:0:0:0:
79,310,124988,2,0,L|87:194,2,110,8|0|0,0:0|3:0|0:0,0:0:0:0:
155,373,126180,1,0,3:0:0:0:
253,373,126577,1,0,0:0:0:0:
185,186,127372,6,0,B|458:186|458:186|512:228,1,330,0|2,3:0|0:0,0:0:0:0:
421,276,128961,2,0,L|301:276,1,110,0|2,0:0|0:0,0:0:0:0:
211,276,129756,2,0,L|91:276,1,110,0|0,0:0|0:0,0:0:0:0:
43,356,130551,6,0,B|43:90|43:90|95:45,1,330,2|2,0:0|0:0,0:0:0:0:
136,136,132140,2,0,L|136:251,1,110,0|2,0:0|0:0,0:0:0:0:
235,246,132935,2,0,L|235:131,1,110,0|0,0:0|0:0,0:0:0:0:
235,37,133729,5,0,0:0:0:0:
235,37,140087,6,0,L|107:48,2,110,4|0|0,0:0|0:0|0:0,0:0:0:0:
334,37,141279,1,0,0:0:0:0:
432,37,141676,2,0,L|432:156,1,110,0|0,0:0|0:0,0:0:0:0:
472,237,142471,2,0,P|435:203|401:252,1,110,0|0,0:0|0:0,0:0:0:0:
435,329,143266,6,0,L|318:329,2,110,0|0|0,0:0|0:0|0:0,0:0:0:0:
472,237,144458,1,0,0:0:0:0:
435,144,144855,2,0,L|320:144,1,110,0|0,0:0|0:0,0:0:0:0:
254,214,145650,2,0,L|139:214,1,110,0|0,0:0|0:0,0:0:0:0:
256,192,146445,12,0,149623,0:0:0:0:
74,288,152008,6,0,P|78:234|63:173,1,110,2|0,0:3|0:0,0:0:0:0:
46,84,152802,6,0,L|161:59,1,110,4|0,3:2|0:0,0:0:0:0:
252,61,153597,2,0,L|359:85,2,110,8|0|0,0:0|3:0|0:0,0:0:0:0:
202,146,154788,1,0,3:0:0:0:
263,224,155186,2,0,L|370:200,1,110,8|0,0:0|0:0,0:0:0:0:
430,122,155981,6,0,P|402:205|490:289,1,220,0|8,3:0|0:0,0:0:0:0:
498,192,157173,1,0,3:0:0:0:
430,122,157570,2,0,P|374:107|307:108,1,110,0|0,0:0|3:0,0:0:0:0:
233,151,158365,2,0,B|226:183|235:200|235:200|229:217|229:217|237:235|230:269,1,110,2|4,0:3|0:0,0:0:0:0:
210,355,159159,5,4,0:0:0:0:
67,218,159954,2,0,B|53:164|53:164|70:92,2,110,8|0|0,0:0|3:0|0:0,0:0:0:0:
138,288,161146,1,0,3:0:0:0:
210,355,161543,2,0,L|327:351,1,110,8|0,0:0|0:0,0:0:0:0:
402,296,162338,6,0,P|388:241|406:178,1,110,0|0,3:0|0:0,0:0:0:0:
425,95,163133,1,8,0:0:0:0:
327,114,163530,2,0,P|276:114|216:74,1,110,0|0,3:0|0:0,0:0:0:0:
155,16,164325,1,0,0:0:0:0:
85,86,164722,2,0,B|84:140|84:140|106:207,1,110,0|0,0:0|0:0,0:0:0:0:
141,284,165518,6,0,P|193:314|251:306,1,110,4|0,3:2|3:0,0:0:0:0:
309,238,166312,1,0,3:0:0:0:
210,223,166710,1,0,3:0:0:0:
115,192,167107,2,0,P|115:147|144:85,2,110,0|0|0,3:0|3:0|3:0,0:0:0:0:
138,288,168299,1,0,3:0:0:0:
210,223,168696,6,0,B|267:212|267:212|321:211,1,110,0|0,3:0|3:0,0:0:0:0:
418,211,169491,1,0,3:0:0:0:
368,125,169888,1,0,3:0:0:0:
318,211,170286,2,0,P|305:263|321:315,2,110,0|0|2,3:0|3:0|0:3,0:0:0:0:
403,261,171478,1,2,0:3:0:0:
485,316,171875,6,0,P|500:264|487:211,1,110,0|0,3:0|3:0,0:0:0:0:
441,123,172670,1,0,3:0:0:0:
373,50,173067,1,0,3:0:0:0:
302,120,173465,2,0,B|243:144|196:119|196:119|177:177|104:195,1,220,0|0,3:0|3:0,0:0:0:0:
100,93,174657,1,0,3:0:0:0:
170,24,175054,6,0,L|290:24,1,110,0|0,3:0|0:0,0:0:0:0:
374,52,175849,1,0,3:0:0:0:
302,120,176246,1,0,3:0:0:0:
374,189,176643,1,0,3:0:0:0:
445,120,177041,2,0,P|468:79|462:8,1,110,2|2,3:0|3:0,0:0:0:0:
374,52,177835,1,2,0:3:0:0:
256,192,178233,12,0,180816,0:0:0:0:
