osu file format v12

[General]
AudioFilename: 01 Holdin' On (Skrillex Nero Remix).mp3
AudioLeadIn: 1996
PreviewTime: 154425
Countdown: 0
SampleSet: None
StackLeniency: 0.3
Mode: 2
LetterboxInBreaks: 1

[Editor]
Bookmarks: 60804,102183
DistanceSpacing: 0.8
BeatDivisor: 4
GridSize: 8

[Metadata]
Title:Holdin' On (Skrillex & Nero Remix)
TitleUnicode:Holdin' On (Skrillex & Nero Remix)
Artist:MONSTA
ArtistUnicode:MONSTA
Creator:VelperK
Version:D-D-D-DROP THE FRUIT
Source:
Tags:
BeatmapID:220450
BeatmapSetID:78908

[Difficulty]
HPDrainRate:8
CircleSize:4
OverallDifficulty:9
ApproachRate:9
SliderMultiplier:3.59999990463257
SliderTickRate:2

[Events]
//Background and Video events
0,0,"Home-Blackmill.jpg",0,0
//Break Periods
2,43763,49170
2,105142,115377
2,148590,153997
//Storyboard Layer 0 (Background)
//Storyboard Layer 1 (Fail)
//Storyboard Layer 2 (Pass)
//Storyboard Layer 3 (Foreground)
//Storyboard Sound Samples
//Background Colour Transformations
3,100,68,68,68

[TimingPoints]
115,689.655172413793,4,3,0,100,1,0
60804,-50,4,3,0,100,0,1
71839,-50,4,3,0,100,0,0
71882,-50,4,3,0,100,0,1
82830,-50,4,3,0,100,0,0
82873,-50,4,3,0,100,0,1
93864,-50,4,3,0,100,0,0
93908,-50,4,3,0,100,0,1
102183,-100,4,3,0,100,0,0
115804,-100,4,3,0,40,0,0
126839,-100,4,3,0,100,0,0
154425,-100,4,1,0,100,0,0
160114,-50,4,3,0,100,0,1
171106,-50,4,3,0,100,0,0
171149,-50,4,3,0,100,0,1
182140,-50,4,3,0,100,0,0
182183,-50,4,3,0,100,0,1
193175,-50,4,3,0,100,0,0
193218,-50,4,3,0,100,0,1
201494,-100,4,3,0,100,0,0

[Colours]
Combo1 : 248,248,248
Combo2 : 149,255,255
Combo3 : 9,132,255

[HitObjects]
48,48,115,1,8,0:0:0:0:
464,56,459,1,2,0:0:0:0:
256,248,804,1,0,0:0:0:0:
464,56,1149,1,2,0:0:0:0:
32,48,1494,6,0,L|240:48,1,179.999995231629,8|0,0:0|0:0,0:0:0:0:
480,208,2183,2,0,L|248:208,2,179.999995231629,0|0|8,0:0|0:0|0:0,0:0:0:0:
48,200,3218,1,2,0:0:0:0:
464,208,3563,1,0,0:0:0:0:
48,336,3908,6,0,L|248:192,1,179.999995231629,2|8,0:0|0:0,0:0:0:0:
464,336,4597,2,0,L|312:232,1,179.999995231629,2|4,0:0|0:0,0:0:0:0:
48,48,5287,2,0,P|128:88|216:16,1,179.999995231629,0|8,0:0|0:0,0:0:0:0:
464,56,5977,2,0,P|384:104|280:32,1,179.999995231629
472,184,6666,5,2,0:0:0:0:
40,192,7011,1,8,0:0:0:0:
40,192,7356,1,0,0:0:0:0:
256,184,7528,1,0,0:0:0:0:
472,184,7701,1,4,0:0:0:0:
40,192,8046,6,0,L|256:192,2,179.999995231629,0|8|0,0:0|0:0|0:0,0:0:0:0:
256,184,9080,1,0,0:0:0:0:
472,200,9425,2,0,L|272:200,2,179.999995231629,0|8|0,0:0|0:0|0:0,0:0:0:0:
256,184,10287,1,0,0:0:0:0:
32,192,10459,1,0,0:0:0:0:
480,144,10804,5,0,0:0:0:0:
96,176,10977,1,0,0:0:0:0:
256,176,11149,2,0,L|464:176|32:176,2,629.9999833107,8|0|2,0:0|0:0|0:0,0:0:0:0:
40,104,13908,5,8,0:0:0:0:
232,104,14080,1,2,0:0:0:0:
40,104,14252,1,4,0:0:0:0:
472,104,14597,1,8,0:0:0:0:
280,104,14770,1,2,0:0:0:0:
472,104,14942,1,4,0:0:0:0:
472,320,15287,5,8,0:0:0:0:
112,288,15632,1,2,0:0:0:0:
464,224,15977,2,2,B|464:168|464:168|144:168|144:168|192:168,1,359.999990463257
464,296,17011,1,4,0:0:0:0:
48,128,17356,2,2,B|48:80|48:80|400:80,1,359.999990463257
360,192,18390,5,2,0:0:0:0:
208,176,18563,1,0,0:0:0:0:
72,160,18735,1,8,0:0:0:0:
72,160,19080,1,0,0:0:0:0:
208,176,19252,1,0,0:0:0:0:
360,192,19425,1,4,0:0:0:0:
464,248,19770,5,0,0:0:0:0:
464,248,19942,1,0,0:0:0:0:
72,160,20114,2,0,L|456:160,2,359.999990463257,8|2|8,0:0|0:0|0:0,0:0:0:0:
432,160,21666,1,4,0:0:0:0:
48,48,22183,5,8,0:0:0:0:
168,48,22356,2,0,L|464:48,1,269.999992847443,0|2,0:0|0:0,0:0:0:0:
168,144,23046,1,0,0:0:0:0:
472,160,23218,2,0,L|272:96,2,179.999995231629,0|8|4,0:0|0:0|0:0,0:0:0:0:
32,152,24252,1,2,0:0:0:0:
392,160,24597,1,0,0:0:0:0:
56,296,24770,6,2,P|240:320|352:256,1,269.999992847443,0|0,0:0|0:0,0:0:0:0:
56,200,25459,1,0,0:0:0:0:
304,160,25632,1,2,0:0:0:0:
392,160,25977,1,0,0:0:0:0:
56,96,26321,1,8,0:0:0:0:
248,144,26494,1,0,0:0:0:0:
432,80,26666,2,0,L|224:80,2,179.999995231629,0|2|0,0:0|0:0|0:0,0:0:0:0:
56,256,27701,5,8,0:0:0:0:
448,272,27873,2,0,B|488:248|488:248|256:248,1,269.999992847443,0|2,0:0|0:0,0:0:0:0:
472,104,28735,1,0,0:0:0:0:
360,104,28908,1,0,0:0:0:0:
256,104,29080,1,8,0:0:0:0:
256,104,29425,5,0,0:0:0:0:
360,104,29597,1,0,0:0:0:0:
472,104,29770,2,0,B|472:160|472:160|352:160|352:160|232:112|232:112|160:40,1,359.999990463257,2|8,0:0|0:0,0:0:0:0:
440,160,30804,5,8,0:0:0:0:
376,104,30977,1,4,0:0:0:0:
64,88,31149,1,2,0:0:0:0:
120,144,31321,1,8,0:0:0:0:
448,352,31494,1,4,0:0:0:0:
384,304,31666,1,0,0:0:0:0:
56,336,31839,6,0,L|200:288,2,89.9999976158143,8|0|0,0:0|0:0|0:0,0:0:0:0:
448,192,32356,1,0,0:0:0:0:
40,248,32528,2,0,L|176:208,2,89.9999976158143,2|0|0,0:0|0:0|0:0,0:0:0:0:
440,64,33046,1,4,0:0:0:0:
56,144,33908,6,0,L|224:48,1,179.999995231629,2|0,0:0|0:0,0:0:0:0:
288,56,34425,1,0,0:0:0:0:
88,216,34597,2,0,L|280:104,1,179.999995231629,8|0,0:0|0:0,0:0:0:0:
256,312,35287,5,2,0:0:0:0:
440,304,35459,1,0,0:0:0:0:
256,312,35632,1,0,0:0:0:0:
440,304,35804,1,0,0:0:0:0:
56,136,35977,2,0,B|120:48|216:-8|280:168|416:144|456:128|232:32|416:96,1,359.999990463257,8|2,0:0|0:0,0:0:0:0:
360,176,37011,2,0,L|240:216,1,89.9999976158143
104,264,37356,2,0,L|232:216,1,89.9999976158143,8|0,0:0|0:0,0:0:0:0:
456,56,37701,6,0,L|336:112,1,89.9999976158143
16,352,38046,2,0,P|144:272|144:264,2,179.999995231629,2|0|8,0:0|0:0|0:0,0:0:0:0:
480,344,39080,1,0,0:0:0:0:
104,200,39425,2,0,B|208:80|336:136|240:192,2,179.999995231629,2|0|8,0:0|0:0|0:0,0:0:0:0:
464,224,40459,2,0,L|336:224,2,89.9999976158143,0|0|2,0:0|0:0|0:0,0:0:0:0:
56,216,41149,5,0,0:0:0:0:
256,184,41321,1,0,0:0:0:0:
464,216,41494,1,8,0:0:0:0:
256,296,41839,1,0,0:0:0:0:
96,248,42011,1,0,0:0:0:0:
256,168,42183,5,2,0:0:0:0:
456,128,42528,1,0,0:0:0:0:
0,56,42873,1,8,0:0:0:0:
512,224,43563,1,2,0:0:0:0:
32,72,49770,5,4,2:0:0:0:
56,72,49856,1,0,2:0:0:0:
32,72,49942,1,0,2:0:0:0:
56,72,50028,1,0,2:0:0:0:
32,72,50115,1,8,2:0:0:0:
480,64,50459,5,4,2:0:0:0:
456,64,50545,1,0,2:0:0:0:
480,64,50632,1,0,2:0:0:0:
456,64,50717,1,0,2:0:0:0:
480,64,50804,1,8,2:0:0:0:
32,208,51149,5,4,2:0:0:0:
56,208,51235,1,0,2:0:0:0:
32,208,51321,1,0,2:0:0:0:
56,208,51407,1,0,2:0:0:0:
32,208,51494,1,8,2:0:0:0:
488,168,51839,5,0,2:0:0:0:
488,168,51925,1,0,2:0:0:0:
488,168,52011,1,0,2:0:0:0:
256,104,52097,5,0,2:0:0:0:
256,104,52183,1,0,2:0:0:0:
256,104,52270,1,0,2:0:0:0:
32,104,52356,5,0,2:0:0:0:
32,104,52442,1,0,2:0:0:0:
32,104,52528,1,0,2:0:0:0:
440,96,52615,5,0,2:0:0:0:
440,96,52701,1,0,2:0:0:0:
440,96,52787,1,0,2:0:0:0:
264,128,52873,5,0,2:0:0:0:
264,128,52959,1,0,2:0:0:0:
264,128,53046,5,0,2:0:0:0:
264,128,53132,1,0,2:0:0:0:
152,120,53218,5,0,2:0:0:0:
152,120,53304,1,0,2:0:0:0:
352,80,53390,5,0,2:0:0:0:
352,80,53477,1,0,2:0:0:0:
256,208,53563,1,0,2:0:0:0:
256,208,53649,1,0,2:0:0:0:
456,312,53735,1,0,2:0:0:0:
368,280,53821,5,0,2:0:0:0:
280,272,53908,1,0,2:0:0:0:
192,256,53994,1,0,2:0:0:0:
192,176,54080,1,0,2:0:0:0:
192,104,54166,1,0,2:0:0:0:
256,128,54252,5,0,2:0:0:0:
328,160,54339,1,0,2:0:0:0:
240,192,54425,1,0,2:0:0:0:
152,184,54511,1,0,2:0:0:0:
64,176,54597,1,0,2:0:0:0:
152,176,54683,5,0,2:0:0:0:
256,176,54770,1,8,2:0:0:0:
320,64,54856,1,8,2:0:0:0:
480,72,54942,1,8,2:0:0:0:
416,152,55028,1,8,2:0:0:0:
256,184,55115,1,4,2:0:0:0:
256,192,55459,12,4,59252,0:0:0:0:
24,192,60804,6,0,L|472:392,1,359.999990463257,8|2,0:0|0:0,0:0:0:0:
24,96,61494,1,4,0:0:0:0:
256,56,61666,1,4,0:0:0:0:
480,112,61839,1,2,0:0:0:0:
24,96,62011,6,0,L|176:0,2,179.999995231629,0|8|4,0:0|0:0|0:0,0:0:0:0:
328,96,62528,1,2,0:0:0:0:
24,192,62701,2,0,L|208:304,2,179.999995231629,0|8|4,0:0|0:0|0:0,0:0:0:0:
488,192,63218,5,2,0:0:0:0:
256,96,63390,1,0,0:0:0:0:
16,192,63563,1,8,0:0:0:0:
480,352,63908,2,2,L|128:160,1,359.999990463257,2|8,0:0|0:0,0:0:0:0:
480,280,64425,5,4,0:0:0:0:
120,280,64597,2,2,L|264:160,2,179.999995231629,2|2|8,0:0|0:0|0:0,0:0:0:0:
232,208,65114,1,4,0:0:0:0:
480,216,65287,1,2,0:0:0:0:
232,208,65459,1,0,0:0:0:0:
480,216,65632,1,8,0:0:0:0:
232,208,65804,1,4,0:0:0:0:
480,280,65977,2,2,L|160:96,2,359.999990463257,2|8|2,0:0|0:0|0:0,0:0:0:0:
32,344,67011,6,0,L|208:264,1,179.999995231629,8|4,0:0|0:0,0:0:0:0:
256,184,67356,1,2,0:0:0:0:
512,40,67528,2,0,L|344:104,2,179.999995231629,0|8|4,0:0|0:0|0:0,0:0:0:0:
224,40,68046,1,2,0:0:0:0:
32,184,68218,2,0,L|216:184,1,179.999995231629,0|8,0:0|0:0,0:0:0:0:
456,272,68563,1,4,0:0:0:0:
48,128,68735,2,0,L|224:80,2,179.999995231629,2|0|8,0:0|0:0|0:0,0:0:0:0:
456,344,69425,5,2,0:0:0:0:
80,328,69597,1,0,0:0:0:0:
256,256,69770,2,0,L|56:312,1,179.999995231629,8|4,0:0|0:0,0:0:0:0:
512,152,70114,1,2,0:0:0:0:
256,256,70287,2,0,L|472:336,1,179.999995231629,2|4,0:0|0:0,0:0:0:0:
440,176,70804,6,0,L|248:96,1,179.999995231629,0|8,0:0|0:0,0:0:0:0:
440,256,71149,1,0,0:0:0:0:
0,176,71321,2,0,L|232:280,1,179.999995231629,0|6,0:0|0:0,0:0:0:0:
440,176,71839,5,2,0:0:0:0:
192,96,72011,1,4,0:0:0:0:
440,176,72183,1,4,0:0:0:0:
184,176,72356,1,0,0:0:0:0:
440,176,72528,2,0,L|272:272,1,179.999995231629,8|4,0:0|0:0,0:0:0:0:
256,112,72873,5,2,0:0:0:0:
0,144,73046,1,0,0:0:0:0:
440,104,73218,2,0,L|264:0,1,179.999995231629,8|4,0:0|0:0,0:0:0:0:
440,176,73563,1,2,0:0:0:0:
40,336,73735,2,0,L|264:336,2,179.999995231629,0|8|4,0:0|0:0|0:0,0:0:0:0:
440,336,74252,5,0,0:0:0:0:
128,248,74425,1,0,0:0:0:0:
392,184,74597,1,4,0:0:0:0:
96,40,74942,1,2,0:0:0:0:
32,40,75287,6,0,L|216:120,2,179.999995231629,8|4|2,0:0|0:0|0:0,0:0:0:0:
472,40,75804,1,0,0:0:0:0:
32,344,75977,2,0,L|248:240,2,179.999995231629,8|4|0,0:0|0:0|0:0,0:0:0:0:
194,265,76494,1,0,0:0:0:0:
496,240,76666,2,0,L|312:240,1,179.999995231629,8|4,0:0|0:0,0:0:0:0:
496,176,77011,5,2,0:0:0:0:
256,128,77183,1,0,0:0:0:0:
32,176,77356,1,2,0:0:0:0:
512,304,77701,1,4,0:0:0:0:
24,336,78046,6,0,L|208:224,1,179.999995231629,8|4,0:0|0:0,0:0:0:0:
32,176,78390,1,2,0:0:0:0:
504,32,78563,2,0,L|336:136,1,179.999995231629,0|8,0:0|0:0,0:0:0:0:
32,288,78908,2,0,L|272:288|272:288,4,179.999995231629,4|2|0|8|4,0:0|0:0|0:0|0:0|0:0,0:0:0:0:
448,264,79770,5,0,0:0:0:0:
200,208,79942,1,0,0:0:0:0:
448,160,80114,1,4,0:0:0:0:
0,80,80459,1,2,0:0:0:0:
448,160,80804,2,0,P|240:160|352:120,1,719.999980926514
256,192,81666,12,4,82873,0:0:0:0:
32,192,83218,1,2,0:0:0:0:
488,208,83563,5,2,0:0:0:0:
256,176,83649,1,0,0:0:0:0:
32,200,83735,1,0,0:0:0:0:
344,176,83908,1,4,0:0:0:0:
0,120,84080,1,0,0:0:0:0:
256,112,84252,5,0,0:0:0:0:
256,112,84425,2,0,L|440:248,1,179.999995231629,4|2,0:0|0:0,0:0:0:0:
184,112,84770,2,0,L|16:200,2,179.999995231629,0|8|4,0:0|0:0|0:0,0:0:0:0:
448,120,85287,1,2,0:0:0:0:
184,112,85459,1,0,0:0:0:0:
448,120,85632,2,0,L|120:312,2,359.999990463257,8|2|4,0:0|0:0|0:0,0:0:0:0:
400,208,86494,5,2,0:0:0:0:
256,264,86666,1,0,0:0:0:0:
104,232,86839,1,2,0:0:0:0:
400,136,87011,2,2,L|440:312,1,179.999995231629
400,136,87356,1,8,0:0:0:0:
56,320,87528,2,0,L|256:200,2,179.999995231629,2|0|2,0:0|0:0|0:0,0:0:0:0:
480,152,88046,5,0,0:0:0:0:
480,152,88218,2,0,P|424:56|256:96,1,179.999995231629,0|4,0:0|0:0,0:0:0:0:
0,56,88735,1,2,0:0:0:0:
32,312,89080,1,2,0:0:0:0:
256,208,89166,1,0,0:0:0:0:
480,312,89252,5,0,0:0:0:0:
104,208,89425,2,0,L|328:208,2,179.999995231629,2|0|8,0:0|0:0|0:0,0:0:0:0:
436,208,89942,1,4,0:0:0:0:
256,208,90114,1,2,0:0:0:0:
436,208,90287,1,0,0:0:0:0:
48,208,90459,2,0,P|200:72|448:128,1,359.999990463257,8|2,0:0|0:0,0:0:0:0:
48,128,90977,5,0,0:0:0:0:
56,288,91149,2,0,L|344:72,1,359.999990463257,8|2,0:0|0:0,0:0:0:0:
232,320,91666,1,0,0:0:0:0:
480,312,91839,1,8,0:0:0:0:
128,224,92011,1,4,0:0:0:0:
376,224,92183,1,2,0:0:0:0:
128,224,92356,2,0,L|360:224,1,179.999995231629,0|0,0:0|0:0,0:0:0:0:
256,192,92701,12,0,93908,0:0:0:0:
432,192,94252,1,2,0:0:0:0:
0,192,94597,2,0,L|208:48,1,179.999995231629,0|4,0:0|0:0,0:0:0:0:
147,89,94942,1,2,0:0:0:0:
464,48,95114,2,0,L|304:168,1,179.999995231629,0|8,0:0|0:0,0:0:0:0:
8,352,95459,2,0,L|232:232,1,179.999995231629,4|2,0:0|0:0,0:0:0:0:
464,240,95804,5,0,0:0:0:0:
166,267,95977,1,8,0:0:0:0:
464,344,96149,2,0,L|176:224,1,179.999995231629,4|2,0:0|0:0,0:0:0:0:
464,288,96494,1,0,0:0:0:0:
80,272,96666,2,0,L|464:272,2,359.999990463257,8|2|8,0:0|0:0|0:0,0:0:0:0:
80,160,97528,5,4,0:0:0:0:
448,152,97701,2,0,L|216:152,1,179.999995231629,2|0,0:0|0:0,0:0:0:0:
448,80,98046,1,8,0:0:0:0:
288,56,98218,1,4,0:0:0:0:
120,80,98390,1,2,0:0:0:0:
288,160,98563,1,0,0:0:0:0:
120,168,98735,2,0,L|544:168,2,359.999990463257,8|2|8,0:0|0:0|0:0,0:0:0:0:
512,256,99770,5,2,0:0:0:0:
32,320,100114,2,0,L|224:256,1,179.999995231629,8|4,0:0|0:0,0:0:0:0:
32,320,100459,1,2,0:0:0:0:
488,32,100632,2,0,P|336:120|320:120,2,179.999995231629,0|8|4,0:0|0:0|0:0,0:0:0:0:
40,192,101149,1,2,0:0:0:0:
480,304,101321,2,0,L|248:248,2,179.999995231629,0|0|4,0:0|0:0|0:0,0:0:0:0:
40,44,101839,2,0,P|304:164|440:212,1,359.999990463257,2|0,0:0|0:0,0:0:0:0:
256,192,102356,12,0,103218,0:0:0:0:
48,224,103563,5,4,0:0:0:0:
96,176,103649,1,0,0:0:0:0:
144,128,103735,1,0,0:0:0:0:
48,296,103821,1,0,0:0:0:0:
48,360,103908,1,0,0:0:0:0:
504,24,104080,5,12,0:0:0:0:
456,72,104166,1,0,0:0:0:0:
400,120,104252,1,0,0:0:0:0:
256,192,104339,1,0,0:0:0:0:
400,240,104425,1,0,0:0:0:0:
400,240,104511,1,0,0:0:0:0:
400,240,104597,1,0,0:0:0:0:
96,176,104942,5,4,0:0:0:0:
80,40,115977,6,8,L|456:40,2,359.999990463257,8|0|8,0:0|0:0|0:0,0:0:0:0:
512,200,117701,1,0,0:0:0:0:
0,316,118046,6,8,L|376:316,2,359.999990463257,8|0|8,0:0|0:0|0:0,0:0:0:0:
444,184,119770,1,2,0:0:0:0:
256,148,119942,1,4,0:0:0:0:
88,192,120114,1,8,0:0:0:0:
84,292,120459,5,2,0:0:0:0:
256,316,120632,1,4,0:0:0:0:
444,320,120804,2,0,B|416:200|260:124|164:248,2,359.999990463257,8|2|4,0:0|0:0|0:0,0:0:0:0:
0,192,122873,1,8,0:0:0:0:
512,200,123563,1,8,0:0:0:0:
256,192,124252,12,2,126666,0:0:0:0:
256,40,127011,5,8,0:0:0:0:
32,40,127183,2,0,L|272:200,1,269.999992847443,0|2,0:0|0:0,0:0:0:0:
0,120,127873,1,0,0:0:0:0:
256,176,128046,2,0,L|480:176,2,179.999995231629,0|8|0,0:0|0:0|0:0,0:0:0:0:
32,184,128908,6,0,L|136:184,1,89.9999976158143,0|2,0:0|0:0,0:0:0:0:
512,184,129252,1,8,0:0:0:0:
224,192,129425,2,0,P|232:336|32:176,1,539.999985694885,0|2,0:0|0:0,0:0:0:0:
312,192,130804,2,0,P|328:336|488:152,1,539.999985694885,0|2,0:0|0:0,0:0:0:0:
80,160,132011,1,4,0:0:0:0:
328,112,132183,6,0,L|552:112,1,179.999995231629,0|8,0:0|0:0,0:0:0:0:
40,160,132873,2,0,L|160:160,2,89.9999976158143,0|0|2,0:0|0:0|0:0,0:0:0:0:
432,168,133563,1,0,0:0:0:0:
64,168,133908,1,8,0:0:0:0:
64,168,134080,1,0,0:0:0:0:
64,168,134252,2,0,L|304:168,1,179.999995231629,0|2,0:0|0:0,0:0:0:0:
64,240,134942,5,0,0:0:0:0:
256,272,135114,1,0,0:0:0:0:
440,240,135287,2,0,L|56:88,1,359.999990463257,8|2,0:0|0:0,0:0:0:0:
512,312,136149,1,0,0:0:0:0:
80,176,136321,2,0,L|304:280,1,179.999995231629,0|8,0:0|0:0,0:0:0:0:
480,152,136839,5,4,0:0:0:0:
208,224,137011,2,0,L|304:160,2,89.9999976158143,2|0|2,0:0|0:0|0:0,0:0:0:0:
416,80,137528,1,0,0:0:0:0:
112,80,137701,1,0,0:0:0:0:
416,80,137873,1,4,0:0:0:0:
72,192,138390,5,0,0:0:0:0:
432,200,138735,1,2,0:0:0:0:
256,200,138908,1,0,0:0:0:0:
72,192,139080,2,0,L|240:264,2,179.999995231629,0|8|0,0:0|0:0|0:0,0:0:0:0:
432,200,139942,1,0,0:0:0:0:
304,200,140114,1,2,0:0:0:0:
32,192,140459,6,0,L|152:192,2,89.9999976158143,0|0|8,0:0|0:0|0:0,0:0:0:0:
512,208,141494,2,0,L|320:208,1,179.999995231629,2|0,0:0|0:0,0:0:0:0:
40,192,142011,1,0,0:0:0:0:
120,184,142183,2,0,L|328:184,2,179.999995231629,8|0|2,0:0|0:0|0:0,0:0:0:0:
300,184,143046,1,0,0:0:0:0:
472,184,143218,6,0,L|240:184,1,179.999995231629,0|8,0:0|0:0,0:0:0:0:
472,264,143908,1,0,0:0:0:0:
352,112,144080,1,0,0:0:0:0:
56,288,144252,2,0,L|416:144,1,359.999990463257,2|8,0:0|0:0,0:0:0:0:
56,120,145287,5,0,0:0:0:0:
448,120,145459,1,0,0:0:0:0:
296,112,145632,2,0,L|144:112,1,89.9999976158143,2|0,0:0|0:0,0:0:0:0:
448,184,145977,2,0,L|320:184,1,89.9999976158143
64,192,146321,2,0,L|264:192,1,179.999995231629,8|0,0:0|0:0,0:0:0:0:
0,192,147011,5,2,0:0:0:0:
0,192,147183,1,0,0:0:0:0:
256,200,147356,1,0,0:0:0:0:
96,336,147701,2,0,L|88:88,2,179.999995231629,8|4|2,0:0|0:0|0:0,0:0:0:0:
16,192,154597,6,0,L|64:192,4,44.9999988079071,4|0|0|0|8,0:0|2:0|2:0|2:0|0:0,1:0:0:0:
256,96,155114,5,2,1:0:0:0:
16,272,155287,2,0,L|72:272,4,44.9999988079071,0|0|0|0|0,0:0|2:0|2:0|0:0|2:0,1:0:0:0:
384,96,155804,1,2,1:0:0:0:
136,272,155977,2,0,L|192:272,4,44.9999988079071,0|0|0|0|8,0:0|0:0|0:0|0:0|0:0,1:0:0:0:
368,256,156494,5,2,1:0:0:0:
272,256,156666,1,8,1:0:0:0:
464,256,156839,1,2,1:0:0:0:
224,256,157011,1,8,1:0:0:0:
512,256,157183,1,4,1:0:0:0:
256,192,157356,12,0,159770,0:0:0:0:
32,144,160114,5,8,0:0:0:0:
480,152,160459,1,2,0:0:0:0:
56,48,160804,2,0,L|56:240,2,179.999995231629,8|4|2,0:0|0:0|0:0,0:0:0:0:
360,56,161321,1,0,0:0:0:0:
128,248,161494,2,0,L|336:136,2,179.999995231629,8|4|2,0:0|0:0|0:0,0:0:0:0:
464,248,162011,5,0,0:0:0:0:
256,184,162183,1,8,0:0:0:0:
464,176,162356,1,4,0:0:0:0:
112,176,162528,1,2,0:0:0:0:
256,184,162701,2,0,L|472:80,1,179.999995231629,0|4,0:0|0:0,0:0:0:0:
0,344,163218,5,2,0:0:0:0:
472,40,163563,2,0,L|320:144,1,179.999995231629,8|4,0:0|0:0,0:0:0:0:
472,136,163908,1,2,0:0:0:0:
40,344,164080,2,0,L|216:232,1,179.999995231629,0|8,0:0|0:0,0:0:0:0:
32,272,164425,2,0,L|184:176,2,179.999995231629,4|2|0,0:0|0:0|0:0,0:0:0:0:
256,112,164942,5,8,0:0:0:0:
512,104,165114,1,4,0:0:0:0:
256,256,165287,2,0,P|200:208|64:264,2,179.999995231629,2|0|8,0:0|0:0|0:0,0:0:0:0:
100,220,165804,1,4,0:0:0:0:
100,220,165977,2,0,L|384:208,1,179.999995231629,2|0,0:0|0:0,0:0:0:0:
24,216,166321,2,0,L|344:216,1,179.999995231629,8|4,0:0|0:0,0:0:0:0:
256,88,166666,5,2,0:0:0:0:
0,136,166839,2,0,L|192:248,1,179.999995231629,0|8,0:0|0:0,0:0:0:0:
512,88,167183,1,4,0:0:0:0:
256,88,167356,1,2,0:0:0:0:
256,88,167528,2,0,L|32:88,2,179.999995231629,0|8|4,0:0|0:0|0:0,0:0:0:0:
512,232,168046,1,2,0:0:0:0:
72,256,168218,1,0,0:0:0:0:
0,256,168390,6,0,L|328:16,2,359.999990463257,8|2|8,0:0|0:0|0:0,0:0:0:0:
360,184,169252,1,4,0:0:0:0:
64,184,169425,2,0,L|240:96,2,179.999995231629,2|0|8,0:0|0:0|0:0,0:0:0:0:
504,192,170114,1,8,0:0:0:0:
256,192,170287,1,2,0:0:0:0:
512,320,170632,1,8,0:0:0:0:
72,320,170804,2,0,B|112:184|304:240|424:352,2,359.999990463257,2|8|2,0:0|0:0|0:0,0:0:0:0:
480,136,171839,6,0,L|344:288,2,179.999995231629,8|4|2,0:0|0:0|0:0,0:0:0:0:
48,136,172356,1,0,0:0:0:0:
300,136,172528,2,0,L|128:16,1,179.999995231629,8|4,0:0|0:0,0:0:0:0:
300,136,172873,1,2,0:0:0:0:
16,240,173046,2,0,L|304:240,2,179.999995231629,0|8|4,0:0|0:0|0:0,0:0:0:0:
512,240,173563,5,2,0:0:0:0:
256,192,173735,1,0,0:0:0:0:
0,240,173908,1,8,0:0:0:0:
512,0,174252,2,0,L|248:320,1,359.999990463257,2|8,0:0|0:0,0:0:0:0:
512,96,174770,1,4,0:0:0:0:
256,112,174942,1,2,0:0:0:0:
0,88,175114,1,0,0:0:0:0:
256,112,175287,5,8,0:0:0:0:
504,104,175459,1,4,0:0:0:0:
256,112,175632,2,0,L|480:112,2,179.999995231629,2|0|8,0:0|0:0|0:0,0:0:0:0:
436,112,176149,1,4,0:0:0:0:
56,264,176321,2,0,L|232:160,2,179.999995231629,2|0|8,0:0|0:0|0:0,0:0:0:0:
512,256,177011,1,2,0:0:0:0:
56,192,177356,6,0,L|336:192,1,179.999995231629,8|4,0:0|0:0,0:0:0:0:
480,192,177701,1,2,0:0:0:0:
56,192,177873,1,0,0:0:0:0:
232,192,178046,2,0,L|232:0,2,179.999995231629,8|4|2,0:0|0:0|0:0,0:0:0:0:
56,192,178563,1,0,0:0:0:0:
480,192,178735,2,0,L|304:328,1,179.999995231629,8|4,0:0|0:0,0:0:0:0:
16,336,179080,2,0,L|248:184,2,179.999995231629,2|0|8,0:0|0:0|0:0,0:0:0:0:
512,352,179770,6,2,L|40:280,1,359.999990463257,2|8,0:0|0:0,0:0:0:0:
496,272,180287,1,4,0:0:0:0:
384,208,180459,1,2,0:0:0:0:
192,160,180632,1,0,0:0:0:0:
512,368,180804,2,2,B|696:0|-168:-80|-184:352|-184:352,1,899.999976158143,4|2,0:0|0:0,0:0:0:0:
504,168,181839,5,2,0:0:0:0:
256,168,182011,1,4,0:0:0:0:
24,160,182183,6,0,L|488:160,1,359.999990463257,2|0,0:0|0:0,0:0:0:0:
440,160,182873,1,2,0:0:0:0:
256,160,182959,1,0,0:0:0:0:
440,160,183046,1,0,0:0:0:0:
184,160,183218,1,2,0:0:0:0:
440,160,183390,1,0,0:0:0:0:
184,160,183563,2,0,L|400:160,2,179.999995231629,8|4|2,0:0|0:0|0:0,0:0:0:0:
48,160,184080,5,0,0:0:0:0:
512,160,184252,2,0,L|320:160,1,179.999995231629,8|4,0:0|0:0,0:0:0:0:
512,272,184597,1,2,0:0:0:0:
256,272,184770,1,0,0:0:0:0:
512,272,184942,1,8,0:0:0:0:
0,272,185287,1,2,0:0:0:0:
512,56,185632,2,0,L|280:264,2,179.999995231629,8|4|2,0:0|0:0|0:0,0:0:0:0:
512,56,186149,1,0,0:0:0:0:
16,360,186321,2,0,L|192:216,1,179.999995231629,8|4,0:0|0:0,0:0:0:0:
256,40,186666,6,0,L|464:40,3,179.999995231629,2|0|8|4,0:0|0:0|0:0|0:0,0:0:0:0:
0,192,187356,1,2,0:0:0:0:
256,320,187528,1,0,0:0:0:0:
512,192,187701,1,8,0:0:0:0:
40,344,188046,2,0,L|256:168,1,179.999995231629,2|0,0:0|0:0,0:0:0:0:
416,216,188390,2,0,L|512:216,2,89.9999976158143,2|0|0,0:0|0:0|0:0,0:0:0:0:
256,200,188735,1,2,0:0:0:0:
376,136,188908,1,0,0:0:0:0:
128,136,189080,1,8,0:0:0:0:
256,80,189252,6,0,L|-24:288,1,179.999995231629,4|2,0:0|0:0,0:0:0:0:
24,192,189597,1,2,0:0:0:0:
256,328,189770,2,0,L|448:184,1,179.999995231629,2|4,0:0|0:0,0:0:0:0:
48,336,190114,2,2,L|456:32,1,359.999990463257,2|4,0:0|0:0,0:0:0:0:
48,272,190804,1,2,0:0:0:0:
472,200,191149,1,8,0:0:0:0:
192,200,191321,1,4,0:0:0:0:
472,200,191494,1,2,0:0:0:0:
192,200,191666,1,0,0:0:0:0:
256,192,191839,12,8,193218,0:0:0:0:
464,192,193563,1,2,0:0:0:0:
0,192,193908,2,0,B|216:192|216:192,2,179.999995231629,8|4|2,0:0|0:0|0:0,0:0:0:0:
336,192,194425,1,0,0:0:0:0:
56,192,194597,1,8,0:0:0:0:
344,296,194770,2,0,B|408:224|408:224|544:192,1,179.999995231629,4|2,0:0|0:0,0:0:0:0:
56,192,195114,1,0,0:0:0:0:
352,96,195287,1,8,0:0:0:0:
56,112,195459,1,4,0:0:0:0:
512,240,195632,2,0,L|312:240,1,179.999995231629,2|0,0:0|0:0,0:0:0:0:
0,232,195977,2,0,L|480:232,2,359.999990463257,8|2|8,0:0|0:0|0:0,0:0:0:0:
360,232,196839,5,4,0:0:0:0:
80,160,197011,1,2,0:0:0:0:
360,160,197183,1,0,0:0:0:0:
16,352,197356,2,0,P|128:344|216:344,2,179.999995231629,8|4|2,0:0|0:0|0:0,0:0:0:0:
472,328,197873,1,0,0:0:0:0:
80,272,198046,2,0,L|488:272,2,359.999990463257,8|2|8,0:0|0:0|0:0,0:0:0:0:
440,208,198908,1,0,0:0:0:0:
80,200,199080,2,2,L|456:40,1,359.999990463257,2|8,0:0|0:0,0:0:0:0:
80,296,199597,5,4,0:0:0:0:
440,312,199770,1,2,0:0:0:0:
80,200,199942,1,0,0:0:0:0:
440,208,200114,2,0,L|176:208,1,179.999995231629,8|4,0:0|0:0,0:0:0:0:
512,152,200459,1,2,0:0:0:0:
0,208,200632,2,0,L|184:208,2,179.999995231629,0|8|4,0:0|0:0|0:0,0:0:0:0:
512,136,201149,2,0,L|96:136,1,359.999990463257,2|4,0:0|0:0,0:0:0:0:
256,192,201666,12,4,202528,0:0:0:0:
112,208,202873,5,4,0:0:0:0:
112,128,202959,1,0,0:0:0:0:
176,176,203046,1,0,0:0:0:0:
256,176,203132,1,0,0:0:0:0:
336,176,203218,1,0,0:0:0:0:
256,96,203390,1,4,0:0:0:0:
256,96,203477,1,0,0:0:0:0:
256,96,203563,5,0,0:0:0:0:
416,288,203649,1,0,0:0:0:0:
416,288,203735,1,0,0:0:0:0:
176,256,203821,1,0,0:0:0:0:
352,160,203908,2,2,L|520:64,2,179.999995231629
16,192,204942,5,8,0:0:0:0:
256,192,205114,1,0,0:0:0:0:
16,192,205287,1,0,0:0:0:0:
496,192,205459,1,0,0:0:0:0:
256,192,205632,1,8,0:0:0:0:
496,192,205804,1,0,0:0:0:0:
256,192,205977,1,0,0:0:0:0:
16,192,206149,1,0,0:0:0:0:
256,192,206321,1,8,0:0:0:0:
496,192,206494,1,2,0:0:0:0:
48,192,206666,2,2,L|240:192,2,179.999995231629,0|0|0,0:0|0:0|0:0,0:0:0:0:
464,192,207701,5,8,0:0:0:0:
368,288,207873,1,0,0:0:0:0:
216,288,208046,1,0,0:0:0:0:
56,248,208218,1,0,0:0:0:0:
248,152,208390,1,8,0:0:0:0:
464,128,208563,1,0,0:0:0:0:
216,224,208735,1,0,0:0:0:0:
480,264,208908,1,0,0:0:0:0:
56,112,209080,1,0,0:0:0:0:
336,224,209425,2,0,P|376:152|472:176,2,179.999995231629
88,320,210459,5,0,0:0:0:0:
448,328,210632,1,0,0:0:0:0:
448,328,210804,1,0,0:0:0:0:
88,320,210977,1,0,0:0:0:0:
88,320,211149,1,8,0:0:0:0:
512,240,211321,1,0,0:0:0:0:
512,240,211494,1,0,0:0:0:0:
0,224,211666,1,0,0:0:0:0:
0,224,211839,1,8,0:0:0:0:
512,160,212011,1,0,0:0:0:0:
512,160,212183,2,2,L|264:160,2,179.999995231629,0|2|4,0:0|0:0|0:0,0:0:0:0:
80,288,213218,5,2,0:0:0:0:
432,288,213390,1,0,0:0:0:0:
80,288,213563,1,0,0:0:0:0:
432,288,213735,1,2,0:0:0:0:
256,192,213908,12,4,215287,0:0:0:0:
160,288,215977,5,8,0:0:0:0:
352,288,216149,1,0,0:0:0:0:
88,288,216321,1,0,0:0:0:0:
424,288,216494,1,0,0:0:0:0:
16,288,216666,1,8,0:0:0:0:
352,288,216839,1,0,0:0:0:0:
88,288,217011,1,0,0:0:0:0:
424,288,217183,1,0,0:0:0:0:
424,288,217356,1,8,0:0:0:0:
88,288,217528,1,0,0:0:0:0:
88,288,217701,6,2,P|224:312|232:280,2,179.999995231629,0|2|0,0:0|0:0|0:0,0:0:0:0:
120,192,218735,1,8,0:0:0:0:
120,120,218908,1,0,0:0:0:0:
360,120,219080,1,0,0:0:0:0:
120,192,219252,1,0,0:0:0:0:
120,256,219425,1,8,0:0:0:0:
360,264,219597,1,0,0:0:0:0:
0,320,219770,1,0,0:0:0:0:
256,328,219942,1,0,0:0:0:0:
512,344,220114,2,0,L|144:120,1,359.999990463257,8|2,0:0|0:0,0:0:0:0:
56,336,221494,6,0,L|192:264,1,89.9999976158143,8|0,0:0|0:0,0:0:0:0:
456,56,221839,2,0,L|368:112,1,89.9999976158143
40,264,222183,2,0,L|160:184,1,89.9999976158143,8|0,0:0|0:0,0:0:0:0:
328,32,222528,2,0,L|288:136,1,89.9999976158143
112,368,222873,2,0,L|208:248,1,89.9999976158143,8|0,0:0|0:0,0:0:0:0:
456,352,223218,2,0,L|400:280,1,89.9999976158143
0,32,223563,2,0,L|88:144,1,89.9999976158143,2|4,0:0|0:0,0:0:0:0:
512,368,224080,2,0,L|416:264,1,89.9999976158143,2|4,0:0|0:0,0:0:0:0:
0,360,224597,2,0,L|128:272,1,89.9999976158143,2|4,0:0|0:0,0:0:0:0:
256,192,224942,12,4,226321,0:0:0:0:
