osu file format v5

[General]
AudioFilename: RTRZ Idea - 1-03 - Departure.mp3
AudioLeadIn: 0
PreviewTime: -1
Countdown: 2
SampleSet: Normal

[Metadata]
Title:Departure
Artist:MMZ2
Creator:lukewarmholiday
Version:Hard

[Difficulty]
HPDrainRate:7
CircleSize:5
OverallDifficulty:6
SliderMultiplier:1.4
SliderTickRate:2

[Events]
//Background and Video events
0,0,"606px-INTIR-002~3-front.jpg"
//Break Periods
//Storyboard Layer 0 (Background)
//Storyboard Layer 1 (Failing)
//Storyboard Layer 2 (Passing)
//Storyboard Layer 3 (Foreground)
//Storyboard Sound Samples
//Background Colour Transformations
3,100,238,123,177

[TimingPoints]
560,394.736842105263,4,1,0,50

[HitObjects]
32,192,6273,2,0,B|44:252|80:301|192:304,1,210
288,304,7259,1,0
368,256,7654,1,0
416,176,8049,1,0
416,80,8444,6,2,B|372:75|336:79|286:104|256:128,1,140
224,176,9233,1,0
192,272,9628,1,0
288,272,10023,2,2,B|336:272|368:240|384:208|384:176,1,140
384,96,10812,1,0
288,96,11207,1,0
192,96,11602,6,2,B|26:100|48:259|68:293|150:313|256:320,1,420
352,320,13181,2,2,B|400:304|416:256|416:176,1,140
414,121,13970,1,0
361,53,14365,1,0
256,48,14760,6,2,B|256:192,1,140
256,256,15549,1,0
160,256,15944,1,0
64,256,16339,6,2,B|64:189|64:112,1,140
64,32,17128,2,0,B|112:48|128:80|128:112|128:144,1,140
128,224,17918,2,2,B|176:224|208:192|224:144|224:128,1,140
256,64,18707,5,0
208,160,19102,1,0
160,240,19497,2,2,B|103:240|64:270|48:320,2,140
256,240,20681,1,0
352,240,21076,2,2,B|409:240|448:270|464:320,2,140
256,240,22260,1,0
160,240,22655,2,2,B|103:240|64:270|48:320,2,140
256,240,23839,1,0
352,240,24234,2,2,B|432:224|448:176|448:128,1,140
432,64,25024,6,0,B|368:64,4,35
320,80,25813,1,0
288,112,26010,1,0
272,160,26208,1,0
256,208,26405,1,0
256,256,26603,1,0
256,304,26800,1,0
176,304,27195,6,4,B|129:290|112:187|208:96|258:86|304:96|402:189|384:288|336:304,1,490
256,304,28971,1,0
256,256,29169,1,0
256,208,29366,1,0
256,160,29563,1,0
256,112,29761,1,0
256,64,29958,1,0
352,64,30353,6,4,B|416:80|462:126|466:192|464:258|416:304|352:320,1,350
256,320,31734,1,4
144,320,32129,1,0
112,288,32327,1,0
96,240,32524,1,0
89,192,32721,1,0
96,144,32919,1,0
112,96,33116,1,0
192,48,33511,2,4,B|420:28|484:144|480:368,1,490
400,352,35287,5,0
352,352,35485,1,0
304,336,35682,1,0
272,304,35879,1,0
256,256,36077,1,0
256,208,36274,1,0
256,96,36669,2,4,B|256:176,1,70
48,128,37853,6,4,B|80:48|192:23|255:5|320:24|416:48|464:144,1,490
464,192,39432,1,4
464,240,39630,1,4
432,272,39827,1,4
384,288,40024,2,4,B|160:288,1,210
48,192,42393,5,0
80,224,42590,1,0
112,192,42788,1,0
80,160,42985,1,0
48,192,43182,1,4
96,256,43479,1,4
160,304,43775,2,4,B|256:336|384:320|432:224|432:160,1,350
432,112,45058,1,0
352,112,45354,1,0
304,112,45551,2,4,B|227:112|176:176,1,140
128,256,46341,6,4,B|240:352,1,140
288,348,46933,2,4,B|400:252,1,140
352,192,47920,2,0,B|256:112|160:192,2,210
304,304,49499,2,0,B|192:304,2,105
432,288,50486,6,4,B|432:192|256:192,1,210
208,192,51374,1,4
144,192,51670,1,0
144,144,51867,1,0
169,107,52065,1,0
210,88,52262,1,0
250,106,52459,1,0
272,144,52657,2,4,B|304:87|352:57|402:86|432:144,1,210
448,224,53644,5,0
432,288,54046,1,0
403,312,54244,2,4,B|307:344|237:321,1,140
207,305,54828,2,4,B|179:285|146:258|111:161,1,140
112,104,55617,2,4,B|145:75|176:104,1,70
192,192,56407,2,4,B|224:256|272:304|333:242|400:304|448:256|480:192,1,350
416,160,57690,1,0
352,160,57986,1,0
304,160,58183,6,4,B|304:208|272:239|208:240,1,140
128,240,58973,1,0
208,267,59368,1,0
256,272,59565,1,0
351,269,59960,1,0
432,240,60354,2,4,B|512:4|64:32,1,490
80,144,62131,6,0,B|96:224|176:256,3,140
240,256,63710,2,0,B|320:256|437:213|480:128,1,280
384,128,65092,1,0
352,128,65289,2,0,B|273:138|216:193|192:272,1,210
304,256,66473,1,0
288,176,66868,2,0,B|208:120|176:120|96:176,2,210
432,192,69237,5,0
368,144,69631,1,0
288,128,70026,2,0,B|165:126|80:192,4,210
368,128,72789,1,0
336,208,73184,1,0
272,272,73579,1,0
240,288,73777,1,0
208,64,74763,5,0
304,96,75158,1,0
208,128,75553,1,4
304,160,75947,1,4
256,192,76342,12,6,81079
192,192,82658,6,2,B|256:137|320:192,1,140
368,272,83448,1,0
288,336,83843,1,0
176,336,84237,2,2,B|112:304|80:224,1,140
96,144,85027,1,0
192,80,85422,1,0
304,64,85816,6,2,B|373:88|400:176,1,140
333,212,86606,1,0
263,295,87001,1,0
368,320,87395,1,2
384,272,87599,2,0,B|384:208,12,35
432,256,88974,2,4,B|432:191|416:144|384:111|335:79|288:48|223:46|176:80|127:111|96:145|81:193|80:256,1,560
116,322,90954,2,4,B|420:322,1,280
368,224,92237,2,0,B|368:160,15,35
368,128,94304,2,0,B|304:144|256:224,1,140
208,272,95291,6,0,B|257:354|320:272,3,140
320,96,97067,2,0,B|320:32,8,35
256,96,98054,1,0
192,176,98454,2,0,B|-40:334|260:376|528:332|304:176,1,560
176,224,100817,2,2,B|320:224,1,140
480,192,101607,6,4,B|480:266|448:305|255:350|64:305|32:263|32:192,1,560
192,192,103975,6,2,B|256:136|320:192,1,140
480,192,104765,6,4,B|480:266|448:305|255:350|64:305|32:263|32:192,1,560
80,128,106739,6,0,B|240:128,1,140
288,128,107528,2,0,B|368:176,2,70
176,64,108515,2,4,B|80:112|80:256|192:320,1,280
208,304,109502,1,4
320,192,110291,6,0,B|176:192,2,140
464,192,112660,2,4,B|432:326|288:370|224:368|80:324|32:192,1,560
192,192,115818,2,2,B|253:249|320:192,1,140
352,272,116805,2,4,B|320:288|257:304|191:288|144:272,1,210
224,64,118779,5,0
288,96,118976,1,0
256,176,119272,1,0
160,240,119963,2,4,B|258:319|352:240,1,210
448,240,121147,2,4,B|448:90|336:80,1,210
304,80,121937,2,4,B|176:80|96:112,1,210
80,144,122726,2,4,B|48:208|80:288,1,140
160,336,123516,2,4,B|336:352|464:304|480:160|480:64,1,490
256,192,126871,5,4
256,192,128450,5,4
256,192,129635,6,0,B|208:192,3,35
