osu file format v6

[General]
AudioFilename: 11 Control.mp3
AudioLeadIn: 0
PreviewTime: -1
Countdown: 1
SampleSet: Normal
StackLeniency: 0.2
Mode: 0
LetterboxInBreaks: 0

[Editor]
Bookmarks: 7014
DistanceSpacing: 1
BeatDivisor: 4
GridSize: 8

[Metadata]
Title:Control
Artist:MKL
Creator:charlesisgay
Version:Insane
Source:Wipe3Out, MKL
Tags:Wip3Out, Wipeout, MKL, mkl, Control, control

[Difficulty]
HPDrainRate:10
CircleSize:6
OverallDifficulty:9
SliderMultiplier:2.2
SliderTickRate:1

[Events]
//Background and Video events
//Break Periods
2,21202,27397
//Storyboard Layer 0 (Background)
//Storyboard Layer 1 (Fail)
//Storyboard Layer 2 (Pass)
//Storyboard Layer 3 (Foreground)
//Storyboard Sound Samples
//Background Colour Transformations
3,100,255,255,255

[TimingPoints]
7014,437.158469945355,4,1,0,81,1,0
27997,-200,4,1,0,81,0,0

[Colours]
Combo1 : 1,87,129
Combo2 : 182,50,12

[HitObjects]
256,32,7013,2,0,L|256:128|128:128,1,220,8|8
132,128,7669,2,0,L|256:128|256:272,1,220
256,336,8325,1,8
256,336,8434,1,0
256,336,8544,1,0
256,224,8762,1,8
368,224,8981,2,0,L|256:224,1,110,0|8
144,224,9419,2,0,L|256:224,1,110,0|8
256,112,9855,1,0
256,0,10074,1,8
160,64,10292,1,0
256,112,10511,1,8
256,192,10565,12,0,11384
384,192,11604,5,0
160,192,12041,5,0
272,192,12259,1,0
272,192,12369,1,0
272,192,12478,1,0
272,80,12697,2,0,L|208:80|208:0,1,110
368,208,13134,2,0,L|368:144|448:144,1,110
240,304,13571,2,0,L|304:304|304:384,1,110
144,176,14008,2,0,L|144:240|64:240,1,110
96,128,14445,5,0
208,128,14664,2,0,L|320:128,1,110
368,128,14992,1,0
320,128,15101,1,0
192,304,15538,1,0
128,208,15757,1,0
192,112,15975,1,0
256,208,16194,1,0
320,112,16412,1,0
384,208,16631,1,0
352,256,16740,1,0
320,304,16850,1,0
256,208,17068,2,0,L|256:96,1,110
360,128,17505,6,0,L|256:0|144:136,1,330,0|0
151,127,18270,1,0
144,184,18380,2,0,L|368:184,1,220
364,184,18926,1,0
368,240,19035,2,0,L|144:240,1,220
148,240,19582,1,0
148,240,19691,1,0
148,240,19800,1,0
148,240,19910,1,0
152,128,20128,2,0,L|112:88|192:88|192:176,2,220
192,128,27997,5,4
256,40,28434,6,0,L|344:40,1,55
312,96,28871,1,0
368,96,29090,1,0
368,152,29309,1,0
368,152,29527,1,0
312,152,29746,5,4
256,248,30183,2,0,L|256:192,1,55
256,136,30620,1,0
224,88,30839,1,0
192,136,31057,1,0
160,88,31276,1,0
128,136,31494,5,4
128,248,31932,6,0,L|176:200,1,55
200,248,32369,2,0,L|248:296,1,55
272,248,32806,2,0,L|312:208,1,55
344,248,33243,5,4
344,136,33680,1,8
344,136,33789,1,0
344,136,33899,1,2
288,136,34117,1,8
288,136,34227,1,0
288,136,34336,1,2
232,136,34554,1,8
232,136,34664,1,0
232,136,34773,1,2
176,136,34992,5,4
256,192,35101,12,4,41986
