osu file format v14

[General]
AudioFilename: MKAlieZ.mp3
AudioLeadIn: 0
PreviewTime: -1
Countdown: 0
SampleSet: Soft
StackLeniency: 0.7
Mode: 0
LetterboxInBreaks: 0
WidescreenStoryboard: 0

[Editor]
DistanceSpacing: 1.5
BeatDivisor: 8
GridSize: 8
TimelineZoom: 1

[Metadata]
Title:MKAlieZ
TitleUnicode:MKAlieZ
Artist:
ArtistUnicode:澤野弘之
Creator:GGFFQQ55
Version:Insane
Source:
Tags:
BeatmapID:673564
BeatmapSetID:300344

[Difficulty]
HPDrainRate:7
CircleSize:4
OverallDifficulty:7
ApproachRate:9
SliderMultiplier:1.9
SliderTickRate:1

[Events]
//Background and Video events
0,0,"49282544_p0_master1200.jpg",0,0
//Break Periods
2,99070,100180
2,149230,164430
//Storyboard Layer 0 (Background)
//Storyboard Layer 1 (Fail)
//Storyboard Layer 2 (Pass)
//Storyboard Layer 3 (Foreground)
//Storyboard Sound Samples

[TimingPoints]
620,600,4,2,2,100,1,0
2420,-133.333333333333,4,2,2,100,0,0
3020,-100,4,2,2,100,0,0
10220,-66.6666666666667,4,2,2,100,0,0
13820,-55.5555555555556,4,2,2,100,0,0
15020,-66.6666666666667,4,2,2,100,0,0
17420,-100,4,2,2,100,0,0
18020,-66.6666666666667,4,2,2,100,0,0
19820,-100,4,2,2,100,0,0
20420,-66.6666666666667,4,2,2,100,0,0
22220,-100,4,2,2,100,0,0
23420,-66.6666666666667,4,2,2,100,0,0
29570,-100,4,2,2,100,0,0
39020,-74.0740740740741,4,2,2,100,0,0
59720,-66.6666666666667,4,2,2,100,0,0
60620,-57.1428571428571,4,2,2,100,0,0
100780,500,4,2,2,100,1,0
100780,-66.6666666666667,4,2,2,100,0,0
222458,500,4,2,2,100,1,0

[Colours]
Combo1 : 255,128,64
Combo2 : 0,128,255
Combo3 : 128,128,128
Combo4 : 255,0,0

[HitObjects]
136,56,620,6,0,L|80:216,1,142.5
168,328,1220,2,0,L|256:248,1,95
312,104,1820,1,0,0:0:0:0:
392,128,1970,1,0,0:0:0:0:
408,216,2120,1,0,0:0:0:0:
408,216,2420,2,0,L|400:272,1,35.625001358986
320,336,2720,2,0,L|325:300,1,35.625001358986
240,160,3020,6,0,P|184:208|152:288,1,142.5
80,192,3620,2,0,L|120:88,1,95
264,32,4220,1,0,0:0:0:0:
384,64,4370,1,0,0:0:0:0:
312,96,4520,1,0,0:0:0:0:
312,96,4820,2,0,L|344:168,1,47.5
360,184,5045,1,0,0:0:0:0:
384,224,5120,2,0,L|416:288,1,47.5
464,344,5420,6,0,P|352:360|280:368,1,142.5
143,329,6020,2,0,L|224:280,1,95
240,88,6620,1,0,0:0:0:0:
232,184,6770,1,0,0:0:0:0:
152,128,6920,1,0,0:0:0:0:
240,88,7220,2,0,L|296:32,1,47.5
424,144,7520,2,0,L|400:88,1,47.5
280,56,7820,6,0,P|184:40|112:56,1,142.5
56,168,8420,1,0,0:0:0:0:
56,168,8720,2,0,P|64:256|64:288,1,95
152,352,9170,6,0,L|200:296,1,47.5
456,240,9620,1,0,0:0:0:0:
360,320,9770,1,0,0:0:0:0:
448,328,9920,1,0,0:0:0:0:
368,232,10070,1,0,0:0:0:0:
480,72,10220,6,0,L|424:24,1,71.2500027179719
272,160,10520,2,0,L|304:96,1,71.2500027179719
456,240,10820,2,0,L|384:184,1,71.2500027179719
216,120,11120,2,0,L|272:163,1,71.2500027179719
456,240,11420,5,0,0:0:0:0:
216,120,11570,1,0,0:0:0:0:
240,136,11870,1,0,0:0:0:0:
216,120,12020,2,0,L|136:56,1,71.2500027179719
328,80,12320,2,0,L|384:24,1,71.2500027179719
448,144,12620,5,0,0:0:0:0:
392,216,12770,1,0,0:0:0:0:
376,368,12920,1,0,0:0:0:0:
432,296,13070,1,0,0:0:0:0:
416,120,13220,1,0,0:0:0:0:
360,192,13370,1,0,0:0:0:0:
344,344,13520,1,0,0:0:0:0:
400,272,13670,1,0,0:0:0:0:
416,120,13820,6,0,L|368:24,1,85.4999973907472
408,168,14270,2,0,L|360:72,1,85.4999973907472
400,272,14570,1,0,0:0:0:0:
380,233,14645,1,0,0:0:0:0:
361,195,14720,1,0,0:0:0:0:
448,344,14870,1,0,0:0:0:0:
248,256,15020,6,0,P|232:328|208:360,1,71.2500027179719
96,176,15320,2,0,P|112:104|136:72,1,71.2500027179719
144,256,15620,2,0,P|128:328|104:360,1,71.2500027179719
200,176,15920,2,0,P|216:104|240:72,1,71.2500027179719
280,48,16220,5,0,0:0:0:0:
144,256,16370,1,0,0:0:0:0:
120,288,16670,1,0,0:0:0:0:
96,320,16820,1,0,0:0:0:0:
200,176,16970,1,0,0:0:0:0:
200,320,17120,1,0,0:0:0:0:
96,176,17270,1,0,0:0:0:0:
200,32,17420,6,0,P|320:64|376:72,1,142.5
496,24,18020,2,0,L|512:104,1,71.2500027179719
448,184,18320,2,0,L|488:264,1,71.2500027179719
384,352,18620,5,0,0:0:0:0:
440,200,18770,1,0,0:0:0:0:
496,40,18920,1,0,0:0:0:0:
496,24,19220,1,0,0:0:0:0:
392,64,19370,1,0,0:0:0:0:
480,128,19520,1,0,0:0:0:0:
304,8,19670,1,0,0:0:0:0:
392,304,19820,6,0,L|336:136,1,142.5
304,8,20420,1,0,0:0:0:0:
304,8,20570,2,0,L|216:64,1,71.2500027179719
232,144,21020,5,0,0:0:0:0:
168,56,21170,1,0,0:0:0:0:
232,144,21470,1,0,0:0:0:0:
168,56,21620,2,0,L|72:80,1,71.2500027179719
160,232,21920,2,0,L|64:208,1,71.2500027179719
232,144,22220,6,0,P|304:128|352:72,1,142.5
368,200,22820,2,0,L|352:296,1,95
472,184,23420,6,0,L|488:96,1,71.2500027179719
456,272,23870,2,0,L|443:342,1,71.2500027179719
328,360,24170,1,0,0:0:0:0:
328,320,24245,1,0,0:0:0:0:
328,280,24320,1,0,0:0:0:0:
440,344,24470,1,0,0:0:0:0:
224,256,24620,6,0,P|184:296|176:336,1,71.2500027179719
53,342,24920,2,0,L|88:280,1,71.2500027179719
67,124,25220,2,0,P|51:156|48:192,1,71.2500027179719
173,113,25520,2,0,L|216:56,1,71.2500027179719
384,128,25820,5,0,0:0:0:0:
336,32,25970,1,0,0:0:0:0:
384,128,26270,1,0,0:0:0:0:
336,32,26420,1,0,0:0:0:0:
288,176,26570,1,0,0:0:0:0:
384,128,26720,1,0,0:0:0:0:
240,80,26870,1,0,0:0:0:0:
432,144,27020,5,0,0:0:0:0:
192,64,27320,1,0,0:0:0:0:
352,376,27620,1,0,0:0:0:0:
112,296,27920,1,0,0:0:0:0:
472,280,28220,5,0,0:0:0:0:
432,144,28370,1,0,0:0:0:0:
472,280,28670,1,0,0:0:0:0:
432,144,28820,1,0,0:0:0:0:
344,248,28970,1,0,0:0:0:0:
432,144,29120,1,0,0:0:0:0:
418,111,29195,1,0,0:0:0:0:
396,82,29270,1,0,0:0:0:0:
369,60,29345,1,0,0:0:0:0:
336,48,29420,5,0,0:0:0:0:
232,176,29570,2,0,P|176:128|280:128,1,237.5
192,248,30620,5,0,0:0:0:0:
232,176,30770,1,0,0:0:0:0:
152,320,31070,1,0,0:0:0:0:
192,248,31220,1,0,0:0:0:0:
264,288,31370,1,0,0:0:0:0:
80,288,31520,1,0,0:0:0:0:
232,176,31670,1,0,0:0:0:0:
240,368,31820,6,0,B|312:328|384:368|384:368|456:352|488:264,1,285
456,96,33020,5,0,0:0:0:0:
408,192,33170,1,0,0:0:0:0:
416,24,33470,1,0,0:0:0:0:
304,112,33620,2,0,L|280:64,1,47.5
152,24,33920,2,0,L|144:80,1,47.5
48,248,34220,6,0,B|128:256|168:312|168:312|216:368|304:344,1,285
464,336,35420,6,0,L|408:296,1,47.5
360,192,35870,2,0,L|398:219,1,47.5
480,176,36170,1,0,0:0:0:0:
464,88,36320,1,0,0:0:0:0:
392,32,36470,1,0,0:0:0:0:
268,177,36620,6,0,P|309:73|208:120,1,285
192,280,37820,6,0,L|200:224,1,47.5
224,336,38270,2,0,L|232:280,2,47.5
320,360,38720,1,0,0:0:0:0:
358,351,38795,1,0,0:0:0:0:
377,289,38870,1,0,0:0:0:0:
416,280,38945,1,0,0:0:0:0:
448,224,39020,6,0,P|480:200|496:112,1,128.250000489235
368,32,39470,2,0,L|416:96,1,64.1250002446175
352,160,39770,2,0,L|344:200,2,32.0625001223087
256,224,40070,1,0,0:0:0:0:
216,56,40220,5,0,0:0:0:0:
216,56,40295,1,0,0:0:0:0:
216,56,40370,1,0,0:0:0:0:
144,192,40520,1,0,0:0:0:0:
32,32,40670,1,0,0:0:0:0:
32,32,40745,1,0,0:0:0:0:
32,32,40820,1,0,0:0:0:0:
40,264,40970,2,0,L|40:208,2,32.0625001223087
168,352,41270,1,0,0:0:0:0:
328,288,41420,6,0,B|432:288|432:288|408:320,1,128.250000489235
264,352,41870,2,0,B|224:256|224:256|264:272,1,128.250000489235
424,312,42320,1,0,0:0:0:0:
512,176,42470,1,0,0:0:0:0:
424,40,42620,6,0,L|448:80,2,32.0625001223087
400,192,42920,1,0,0:0:0:0:
272,112,43070,2,0,L|296:152,2,32.0625001223087
136,16,43370,1,0,0:0:0:0:
112,32,43445,1,0,0:0:0:0:
96,56,43520,1,0,0:0:0:0:
160,168,43670,1,0,0:0:0:0:
72,272,43820,6,0,B|136:344|136:344|192:344,1,128.250000489235
328,304,44270,2,0,L|256:320,1,64.1250002446175
368,224,44570,1,0,0:0:0:0:
392,216,44645,1,0,0:0:0:0:
416,208,44720,1,0,0:0:0:0:
296,160,44870,1,0,0:0:0:0:
344,72,45020,6,0,L|368:32,2,32.0625001223087
216,32,45320,1,0,0:0:0:0:
432,168,45470,2,0,L|472:192,2,32.0625001223087
296,160,45770,1,0,0:0:0:0:
272,176,45845,1,0,0:0:0:0:
296,192,45920,1,0,0:0:0:0:
384,240,46070,1,0,0:0:0:0:
488,256,46220,6,0,B|448:344|448:344|424:296,1,128.250000489235
384,240,46670,2,0,B|424:152|424:152|448:200,1,128.250000489235
432,312,47120,1,0,0:0:0:0:
336,160,47270,1,0,0:0:0:0:
248,320,47420,5,0,0:0:0:0:
256,328,47495,1,0,0:0:0:0:
264,336,47570,1,0,0:0:0:0:
120,304,47720,1,0,0:0:0:0:
112,168,47870,1,0,0:0:0:0:
120,176,47945,1,0,0:0:0:0:
128,184,48020,1,0,0:0:0:0:
104,24,48170,1,0,0:0:0:0:
112,32,48245,1,0,0:0:0:0:
120,40,48320,1,0,0:0:0:0:
224,112,48470,1,0,0:0:0:0:
456,56,48620,6,0,L|328:24,1,128.250000489235
344,152,49070,1,0,0:0:0:0:
432,248,49220,1,0,0:0:0:0:
424,240,49295,1,0,0:0:0:0:
416,232,49370,1,0,0:0:0:0:
384,336,49520,1,0,0:0:0:0:
224,304,49670,1,0,0:0:0:0:
320,264,49820,5,0,0:0:0:0:
326,232,49895,1,0,0:0:0:0:
333,201,49970,1,0,0:0:0:0:
160,224,50120,1,0,0:0:0:0:
224,304,50270,1,0,0:0:0:0:
213,334,50345,1,0,0:0:0:0:
203,364,50420,1,0,0:0:0:0:
160,224,50570,1,0,0:0:0:0:
170,194,50645,1,0,0:0:0:0:
181,164,50720,1,0,0:0:0:0:
56,256,50870,1,0,0:0:0:0:
48,56,51020,6,0,B|144:32|144:32|192:40,1,128.250000489235
424,80,51470,2,0,B|328:104|328:104|280:96,1,128.250000489235
376,176,51920,2,0,L|448:192,1,64.1250002446175
400,336,52220,5,0,0:0:0:0:
380,310,52295,1,0,0:0:0:0:
361,284,52370,1,0,0:0:0:0:
272,224,52520,2,0,L|248:288,1,64.1250002446175
104,304,52820,1,0,0:0:0:0:
134,313,52895,1,0,0:0:0:0:
165,322,52970,1,0,0:0:0:0:
152,200,53120,1,0,0:0:0:0:
64,112,53270,1,0,0:0:0:0:
80,64,53345,1,0,0:0:0:0:
168,24,53420,6,0,B|224:32|256:72|256:72|296:72,1,128.250000489235
368,32,53870,1,0,0:0:0:0:
480,144,54020,1,0,0:0:0:0:
457,121,54095,1,0,0:0:0:0:
434,98,54170,1,0,0:0:0:0:
328,248,54320,1,0,0:0:0:0:
340,161,54470,1,0,0:0:0:0:
448,232,54620,5,0,0:0:0:0:
470,254,54695,1,0,0:0:0:0:
493,277,54770,1,0,0:0:0:0:
392,376,54920,2,0,L|384:288,1,64.1250002446175
312,240,55220,1,0,0:0:0:0:
294,265,55295,1,0,0:0:0:0:
276,292,55370,1,0,0:0:0:0:
376,144,55520,1,0,0:0:0:0:
368,32,55670,2,0,L|371:86,1,32.0625001223087
376,144,55820,6,0,P|320:128|296:48,1,128.250000489235
448,57,56270,2,0,P|432:117|376:144,1,128.250000489235
208,112,56720,2,0,L|192:48,1,64.1250002446175
120,160,57020,6,0,L|128:200,1,32.0625001223087
144,264,57170,2,0,L|152:304,1,32.0625001223087
168,368,57320,1,0,0:0:0:0:
64,336,57470,1,0,0:0:0:0:
255,295,57620,2,0,L|274:259,1,32.0625001223087
304,200,57770,2,0,L|323:164,1,32.0625001223087
352,104,57920,1,0,0:0:0:0:
496,272,58070,2,0,L|472:248,1,32.0625001223087
208,128,59720,6,0,B|312:128|312:128|264:176,1,142.500005435944
235,212,60170,2,0,B|208:240|208:240|312:240,1,142.500005435944
472,240,60620,6,0,B|480:152|480:152|448:56,1,166.250001585484
336,32,61070,1,0,0:0:0:0:
272,136,61220,2,0,P|240:112|216:72,1,83.1250007927418
96,40,61520,2,0,P|64:112|72:216,1,166.250001585484
144,296,61970,5,0,0:0:0:0:
417,270,62120,2,0,P|346:311|264:320,1,166.250001585484
312,208,62570,2,0,P|352:128|432:80,1,166.250001585484
296,40,63020,6,0,B|224:40|224:40|200:24|200:24|104:24,1,166.250001585484
96,144,63470,1,0,0:0:0:0:
16,88,63620,1,0,0:0:0:0:
8,192,63770,1,0,0:0:0:0:
96,248,63920,2,0,B|208:320|208:320|272:320,1,166.250001585484
360,272,64370,5,0,0:0:0:0:
448,184,64520,2,0,P|496:272|488:352,1,166.250001585484
352,192,64970,2,0,P|352:112|424:32,1,166.250001585484
280,64,65420,6,0,B|184:176|184:176|160:136,1,166.250001585484
112,32,65870,1,0,0:0:0:0:
104,112,66020,1,0,0:0:0:0:
40,64,66170,1,0,0:0:0:0:
32,232,66320,2,0,P|72:304|160:344,1,166.250001585484
272,336,66770,5,0,0:0:0:0:
487,162,66920,2,0,B|480:208|480:208|384:280,1,166.250001585484
392,152,67370,2,0,P|432:80|512:64,1,166.250001585484
384,280,67820,5,0,0:0:0:0:
272,336,67970,1,0,0:0:0:0:
296,248,68120,1,0,0:0:0:0:
360,360,68270,1,0,0:0:0:0:
176,304,68420,5,0,0:0:0:0:
120,192,68570,1,0,0:0:0:0:
208,216,68720,1,0,0:0:0:0:
96,280,68870,1,0,0:0:0:0:
80,112,69020,6,0,P|128:64|136:16,1,83.1250007927418
307,32,69320,2,0,L|224:32,1,83.1250007927418
220,120,69620,2,0,L|304:120,1,83.1250007927418
447,111,69920,2,0,P|414:87|395:51,1,83.1250007927418
448,208,70220,6,0,B|416:264|440:336|440:336|408:323,1,166.250001585484
296,272,70670,1,0,0:0:0:0:
176,312,70820,2,0,P|120:280|80:272,1,83.1250007927418
40,144,71120,2,0,P|96:176|136:184,1,83.1250007927418
248,72,71420,5,0,0:0:0:0:
208,160,71570,1,0,0:0:0:0:
352,56,71720,2,0,B|416:72|480:16|480:16|480:80,1,166.250001585484
472,168,72170,2,0,B|448:240|480:304|480:304|440:288,1,166.250001585484
336,272,72620,6,0,B|256:288|256:288|184:344,1,166.250001585484
64,312,73070,1,0,0:0:0:0:
40,192,73220,2,0,P|40:144|72:88,1,83.1250007927418
160,48,73520,2,0,P|160:96|128:152,1,83.1250007927418
256,72,73820,6,0,L|336:32,1,83.1250007927418
458,263,74120,2,0,P|461:180|432:104,1,166.250001585484
352,200,74570,2,0,L|288:368,1,166.250001585484
248,216,75020,6,0,L|192:48,1,166.250001585484
72,32,75470,1,0,0:0:0:0:
304,80,75620,2,0,L|400:104,1,83.1250007927418
480,144,75920,1,0,0:0:0:0:
472,40,76070,1,0,0:0:0:0:
384,200,76220,5,0,0:0:0:0:
392,304,76370,1,0,0:0:0:0:
176,367,76520,2,0,P|221:298|296:264,1,166.250001585484
152,216,76970,2,0,P|80:264|-8:280,1,166.250001585484
32,160,77420,6,0,L|56:80,1,83.1250007927418
152,56,77720,1,0,0:0:0:0:
208,136,77870,1,0,0:0:0:0:
359,59,78020,2,0,L|312:128,1,83.1250007927418
486,159,78320,1,0,0:0:0:0:
458,66,78470,1,0,0:0:0:0:
432,256,78620,6,0,B|392:184|392:184|344:280,1,166.250001585484
192,256,79070,2,0,B|264:256|264:256|200:176|200:176|280:176,1,249.375002378225
400,176,79670,1,0,0:0:0:0:
336,368,79820,6,0,P|256:336|176:376,1,166.250001585484
72,312,80270,1,0,0:0:0:0:
72,312,80420,2,0,B|56:272|56:272|64:224,1,83.1250007927418
120,72,80720,2,0,B|136:112|136:112|128:160,1,83.1250007927418
224,104,81020,6,0,L|304:32,1,83.1250007927418
440,160,81320,2,0,L|384:88,1,83.1250007927418
216,240,81620,1,0,0:0:0:0:
277,184,81770,1,0,0:0:0:0:
432,296,81920,1,0,0:0:0:0:
380,230,82070,1,0,0:0:0:0:
152,296,82220,6,0,P|72:272|16:192,1,166.250001585484
56,88,82670,1,0,0:0:0:0:
242,66,82820,2,0,P|207:43|168:32,1,83.1250007927418
277,184,83120,2,0,L|360:160,1,83.1250007927418
456,216,83420,5,0,0:0:0:0:
320,336,83570,1,0,0:0:0:0:
424,320,83720,1,0,0:0:0:0:
280,184,83870,1,0,0:0:0:0:
320,336,84020,2,0,L|240:280,1,83.1250007927418
208,256,84245,1,0,0:0:0:0:
176,232,84320,2,0,P|120:208|64:216,1,83.1250007927418
40,128,84620,6,0,P|96:72|216:56,1,166.250001585484
336,136,85070,1,0,0:0:0:0:
240,144,85220,2,0,L|144:152,1,83.1250007927418
344,168,85520,2,0,L|456:160,1,83.1250007927418
248,240,85820,6,0,P|200:272|144:272,1,83.1250007927418
320,72,86120,2,0,P|376:48|424:48,1,83.1250007927418
352,280,86420,1,0,0:0:0:0:
240,144,86570,1,0,0:0:0:0:
216,112,86645,1,0,0:0:0:0:
192,80,86720,1,0,0:0:0:0:
296,216,86870,1,0,0:0:0:0:
416,352,87020,6,0,P|368:368|304:360,1,83.1250007927418
416,352,87320,2,0,P|432:304|423:239,1,83.1250007927418
256,304,87620,2,0,P|216:312|160:352,1,83.1250007927418
400,192,87920,2,0,P|424:152|480:128,1,83.1250007927418
296,216,88220,5,0,0:0:0:0:
200,200,88370,1,0,0:0:0:0:
216,104,88520,1,0,0:0:0:0:
312,120,88670,1,0,0:0:0:0:
360,232,88820,1,0,0:0:0:0:
166,86,88970,1,0,0:0:0:0:
200,254,89120,1,0,0:0:0:0:
334,64,89270,1,0,0:0:0:0:
488,288,89420,6,0,P|448:192|440:112,1,166.250001585484
448,8,89870,1,0,0:0:0:0:
312,120,90020,2,0,P|248:64|160:40,1,166.250001585484
56,88,90470,1,0,0:0:0:0:
110,271,90620,6,0,L|48:216,1,83.1250007927418
216,280,90920,2,0,P|232:328|224:392,1,83.1250007927418
320,304,91220,2,0,L|352:216,1,83.1250007927418
464,184,91520,1,0,0:0:0:0:
440,304,91670,1,0,0:0:0:0:
336,136,91820,6,0,B|392:80|464:72|464:72|424:40,1,166.250001585484
328,24,92270,1,0,0:0:0:0:
208,56,92420,2,0,B|128:80|64:48|64:48|40:72,1,166.250001585484
32,184,92870,1,0,0:0:0:0:
112,280,93020,6,0,P|80:336|56:360,2,83.1250007927418
232,240,93470,1,0,0:0:0:0:
280,128,93620,2,0,P|320:152|344:200,1,83.1250007927418
352,240,93845,2,0,L|352:288,1,41.5625003963709
256,368,94070,1,0,0:0:0:0:
488,304,94220,6,0,P|496:216|448:120,1,166.250001585484
376,64,94670,1,0,0:0:0:0:
150,200,94820,2,0,P|179:123|248:80,1,166.250001585484
96,88,95270,1,0,0:0:0:0:
96,88,95420,6,0,L|40:168,1,83.1250007927418
72,280,95720,2,0,P|112:280|160:264,1,83.1250007927418
248,184,96020,2,0,P|272:248|272:288,1,83.1250007927418
392,312,96320,2,0,L|456:240,1,83.1250007927418
432,128,96620,5,0,0:0:0:0:
328,56,96770,1,0,0:0:0:0:
283,254,96920,2,0,L|328:184,1,83.1250007927418
224,104,97220,2,0,L|177:173,1,83.1250007927418
169,301,97520,1,0,0:0:0:0:
65,237,97670,1,0,0:0:0:0:
280,256,97820,6,0,L|368:312,1,83.1250007927418
472,272,98120,1,0,0:0:0:0:
464,144,98270,1,0,0:0:0:0:
352,96,98420,1,0,0:0:0:0:
384,176,98570,1,0,0:0:0:0:
432,64,98720,1,0,0:0:0:0:
440,48,98795,1,0,0:0:0:0:
448,32,98870,1,0,0:0:0:0:
256,72,100780,5,0,0:0:0:0:
104,304,101030,2,0,P|160:344|256:344,1,142.500005435944
328,296,101405,1,0,0:0:0:0:
432,312,101530,2,0,L|456:360,2,35.625001358986
384,216,101780,5,0,0:0:0:0:
432,120,101905,1,0,0:0:0:0:
360,40,102030,2,0,P|328:80|320:128,1,71.2500027179719
240,168,102280,2,0,L|200:80,1,71.2500027179719
128,32,102530,1,0,0:0:0:0:
120,40,102592,1,0,0:0:0:0:
112,48,102655,1,0,0:0:0:0:
32,120,102780,6,0,P|64:168|80:208,1,71.2500027179719
165,359,103030,2,0,P|98:337|48:288,1,142.500005435944
192,264,103405,2,0,P|232:272|288:304,1,71.2500027179719
272,296,103592,1,0,0:0:0:0:
280,304,103655,1,0,0:0:0:0:
376,352,103780,5,0,0:0:0:0:
456,280,103905,1,0,0:0:0:0:
416,184,104030,2,0,P|384:200|352:240,1,71.2500027179719
384,88,104280,2,0,L|472:32,1,71.2500027179719
444,49,104530,1,0,0:0:0:0:
320,40,104655,1,0,0:0:0:0:
304,48,104717,1,0,0:0:0:0:
288,56,104780,5,0,0:0:0:0:
256,120,105030,2,0,P|176:120|96:88,1,142.500005435944
40,24,105405,1,0,0:0:0:0:
72,200,105530,2,0,L|40:272,1,71.2500027179719
184,336,105780,6,0,L|144:272,1,71.2500027179719
184,176,106030,1,0,0:0:0:0:
272,232,106155,2,0,B|336:288|352:328|352:328|376:296,1,142.500005435944
432,232,106530,2,0,P|464:264|480:312,1,71.2500027179719
432,376,106780,5,0,0:0:0:0:
432,88,107030,1,0,0:0:0:0:
280,104,107155,1,0,0:0:0:0:
352,32,107280,2,0,L|360:136,1,71.2500027179719
368,208,107530,2,0,B|376:304|376:304|352:288|328:248,1,142.500005435944
152,176,108030,5,0,0:0:0:0:
112,352,108155,2,0,P|56:280|56:208,1,142.500005435944
64,128,108530,1,0,0:0:0:0:
168,112,108655,1,0,0:0:0:0:
264,160,108780,5,0,0:0:0:0:
264,56,108905,1,0,0:0:0:0:
368,32,109030,2,0,P|432:80|464:152,1,142.500005435944
416,232,109405,1,0,0:0:0:0:
416,336,109530,2,0,L|448:368,2,35.625001358986
312,344,109780,6,0,L|240:288,1,71.2500027179719
152,304,110030,2,0,L|80:248,2,71.2500027179719
256,304,110405,1,0,0:0:0:0:
320,224,110530,1,0,0:0:0:0:
336,232,110592,1,0,0:0:0:0:
352,240,110655,1,0,0:0:0:0:
456,232,110780,5,0,0:0:0:0:
496,136,110905,1,0,0:0:0:0:
416,336,111030,1,0,0:0:0:0:
312,344,111280,2,0,L|248:296,1,71.2500027179719
168,240,111530,1,0,0:0:0:0:
168,240,111592,1,0,0:0:0:0:
168,240,111655,1,0,0:0:0:0:
112,304,111780,5,0,0:0:0:0:
224,168,111905,1,0,0:0:0:0:
48,216,112030,2,0,L|96:136,1,71.2500027179719
112,36,112280,2,0,L|160:96,1,71.2500027179719
224,168,112530,1,0,0:0:0:0:
288,64,112655,1,0,0:0:0:0:
296,80,112718,1,0,0:0:0:0:
304,96,112780,5,0,0:0:0:0:
336,160,113030,2,0,P|400:120|424:40,1,142.500005435944
480,152,113405,1,0,0:0:0:0:
480,256,113530,2,0,L|480:328,1,71.2500027179719
392,280,113780,6,0,L|392:208,1,71.2500027179719
360,104,114030,1,0,0:0:0:0:
264,48,114155,2,0,P|184:40|104:64,1,142.500005435944
56,136,114530,2,0,P|72:184|72:256,1,106.875004076958
40,280,114780,6,0,P|88:336|184:352,1,142.500005435944
256,336,115155,1,0,0:0:0:0:
328,256,115280,2,0,L|368:328,1,71.2500027179719
472,336,115530,2,0,P|496:256|496:192,1,142.500005435944
456,32,116030,5,0,0:0:0:0:
360,88,116155,2,0,B|304:48|304:48|216:48,1,142.500005435944
104,200,116530,1,0,0:0:0:0:
136,96,116655,1,0,0:0:0:0:
176,168,116780,5,0,0:0:0:0:
64,128,116905,1,0,0:0:0:0:
72,272,117030,2,0,B|104:312|104:312|200:336,1,142.500005435944
296,320,117405,1,0,0:0:0:0:
376,248,117530,2,0,P|408:296|416:336,1,71.2500027179719
480,232,117780,6,0,L|488:152,1,71.2500027179719
448,64,118030,1,0,0:0:0:0:
344,32,118155,1,0,0:0:0:0:
368,136,118280,1,0,0:0:0:0:
448,64,118405,1,0,0:0:0:0:
344,32,118530,2,0,L|272:72,1,71.2500027179719
136,96,118780,6,0,B|160:64|160:64|200:40,1,71.2500027179719
176,176,119030,2,0,B|136:232|136:232|56:272,1,142.500005435944
80,168,119405,1,0,0:0:0:0:
192,288,119530,1,0,0:0:0:0:
200,296,119592,1,0,0:0:0:0:
208,304,119655,1,0,0:0:0:0:
366,350,119780,6,0,L|312:304,1,71.2500027179719
456,241,120030,2,0,L|464:312,1,71.2500027179719
360,216,120280,1,0,0:0:0:0:
432,120,120405,1,0,0:0:0:0:
437,107,120467,1,0,0:0:0:0:
442,93,120530,1,0,0:0:0:0:
360,24,120655,1,0,0:0:0:0:
355,38,120718,1,0,0:0:0:0:
350,51,120780,5,0,0:0:0:0:
288,136,120905,1,0,0:0:0:0:
184,104,121030,2,0,P|112:80|64:24,1,142.500005435944
48,136,121405,2,0,L|40:216,1,71.2500027179719
237,373,121655,2,0,L|224:304,1,71.2500027179719
120,272,121905,5,0,0:0:0:0:
256,156,122030,2,0,L|200:200,1,71.2500027179719
384,304,122405,1,0,0:0:0:0:
480,264,122530,1,0,0:0:0:0:
464,368,122655,1,0,0:0:0:0:
288,288,122780,5,0,0:0:0:0:
440,168,122905,1,0,0:0:0:0:
344,376,123030,2,0,L|192:376,1,142.500005435944
48,240,123405,1,0,0:0:0:0:
152,240,123530,1,0,0:0:0:0:
104,328,123655,1,0,0:0:0:0:
56,136,123780,6,0,L|104:64,1,71.2500027179719
200,48,124030,1,0,0:0:0:0:
280,120,124280,1,0,0:0:0:0:
200,48,124405,1,0,0:0:0:0:
280,120,124655,1,0,0:0:0:0:
200,48,124780,5,0,0:0:0:0:
200,48,124842,1,0,0:0:0:0:
200,48,124905,1,0,0:0:0:0:
176,152,125030,1,0,0:0:0:0:
360,48,125280,1,0,0:0:0:0:
352,264,125530,1,0,0:0:0:0:
136,248,125780,2,0,L|104:320,1,71.2500027179719
48,224,126030,2,0,L|76:158,1,71.2500027179719
272,72,126405,1,0,0:0:0:0:
376,136,126530,2,0,P|432:112|480:56,2,106.875004076958
280,184,127030,1,0,0:0:0:0:
288,288,127155,2,0,P|232:336|144:360,1,142.500005435944
47,245,127530,2,0,L|72:312,1,71.2500027179719
72,312,127717,1,0,0:0:0:0:
72,312,127780,1,0,0:0:0:0:
136,224,127905,2,0,L|88:160,1,71.2500027179719
32,80,128155,2,0,P|96:48|184:40,1,142.500005435944
240,112,128530,1,0,0:0:0:0:
344,80,128655,1,0,0:0:0:0:
352,64,128717,1,0,0:0:0:0:
360,48,128780,1,0,0:0:0:0:
384,176,128905,1,0,0:0:0:0:
504,248,129030,2,0,B|472:312|472:312|384:368,1,142.500005435944
304,336,129405,1,0,0:0:0:0:
136,208,129655,1,0,0:0:0:0:
56,280,129780,2,0,P|24:216|48:144,1,142.500005435944
136,96,130155,2,0,P|208:120|248:192,1,142.500005435944
224,280,130530,1,0,0:0:0:0:
328,248,130655,1,0,0:0:0:0:
376,152,130780,1,0,0:0:0:0:
352,48,130905,1,0,0:0:0:0:
464,216,131030,2,0,L|496:296,1,71.2500027179719
304,320,131280,2,0,L|384:336,1,71.2500027179719
344,120,131530,2,0,L|376:200,1,71.2500027179719
184,224,131780,2,0,L|264:240,1,71.2500027179719
248,40,132030,1,0,0:0:0:0:
344,120,132155,2,0,P|280:152|192:152,1,142.500005435944
72,51,132530,2,0,L|128:96,1,71.2500027179719
144,200,132780,2,0,L|192:232,2,35.625001358986
248,40,133030,2,0,P|336:48|392:104,1,142.500005435944
408,144,133405,1,0,0:0:0:0:
408,216,133530,1,0,0:0:0:0:
306,318,133780,1,0,0:0:0:0:
196,259,133905,1,0,0:0:0:0:
323,242,134030,1,0,0:0:0:0:
230,327,134155,1,0,0:0:0:0:
256,200,134280,1,0,0:0:0:0:
120,344,134530,2,0,L|80:312,1,35.625001358986
48,168,134780,1,0,0:0:0:0:
96,120,134905,1,0,0:0:0:0:
144,64,135030,1,0,0:0:0:0:
192,120,135155,2,0,L|240:192,1,71.2500027179719
280,232,135405,1,0,0:0:0:0:
326,286,135530,1,0,0:0:0:0:
440,176,135780,2,0,L|504:104,1,71.2500027179719
448,24,136030,2,0,L|424:56,1,35.625001358986
392,96,136155,1,0,0:0:0:0:
392,96,136405,2,0,L|344:160,1,71.2500027179719
216,320,136780,2,0,B|176:320|176:320|144:304,1,71.2500027179719
79,102,137030,2,0,B|56:168|56:168|64:240,1,142.500005435944
120,328,137405,1,0,0:0:0:0:
216,280,137530,2,0,B|280:296|280:296|344:352,1,142.500005435944
448,344,137905,1,0,0:0:0:0:
448,344,138030,2,0,P|472:296|472:264,1,71.2500027179719
432,176,138280,2,0,L|368:240,1,71.2500027179719
296,296,138530,1,0,0:0:0:0:
368,96,138780,1,0,0:0:0:0:
160,144,139030,1,0,0:0:0:0:
264,176,139155,1,0,0:0:0:0:
240,72,139280,1,0,0:0:0:0:
56,128,139405,1,0,0:0:0:0:
32,288,139530,2,0,P|80:336|152:352,1,142.500005435944
256,336,139905,1,0,0:0:0:0:
336,264,140030,2,0,P|360:224|360:176,2,71.2500027179719
144,352,140530,2,0,B|104:384|32:256|152:176|192:336,1,249.375009512902
192,376,141030,1,0,0:0:0:0:
296,344,141155,1,0,0:0:0:0:
400,312,141280,1,0,0:0:0:0:
416,280,141530,1,0,0:0:0:0:
432,248,141780,1,0,0:0:0:0:
480,152,141905,1,0,0:0:0:0:
480,120,142155,1,0,0:0:0:0:
480,80,142405,1,0,0:0:0:0:
392,16,142530,1,0,0:0:0:0:
360,40,142780,1,0,0:0:0:0:
328,64,143030,1,0,0:0:0:0:
240,128,143155,1,0,0:0:0:0:
152,192,143280,1,0,0:0:0:0:
120,216,143530,1,0,0:0:0:0:
88,240,143780,1,0,0:0:0:0:
56,136,143905,1,0,0:0:0:0:
264,88,144155,1,0,0:0:0:0:
184,160,144280,1,0,0:0:0:0:
168,56,144530,1,0,0:0:0:0:
264,88,144655,1,0,0:0:0:0:
368,56,144780,1,0,0:0:0:0:
464,88,144905,1,0,0:0:0:0:
384,152,145030,1,0,0:0:0:0:
344,248,145155,1,0,0:0:0:0:
304,344,145280,1,0,0:0:0:0:
304,344,145530,1,0,0:0:0:0:
304,344,145780,1,0,0:0:0:0:
240,264,145905,1,0,0:0:0:0:
216,232,146155,1,0,0:0:0:0:
192,192,146405,1,0,0:0:0:0:
136,96,146530,1,0,0:0:0:0:
112,56,146780,1,0,0:0:0:0:
88,16,147030,1,0,0:0:0:0:
192,40,147155,1,0,0:0:0:0:
296,64,147280,1,0,0:0:0:0:
336,72,147530,1,0,0:0:0:0:
376,80,147780,1,0,0:0:0:0:
320,176,147905,1,0,0:0:0:0:
312,216,148155,1,0,0:0:0:0:
288,320,148280,1,0,0:0:0:0:
280,360,148530,1,0,0:0:0:0:
176,336,148655,1,0,0:0:0:0:
200,232,148780,1,0,0:0:0:0:
304,256,148905,1,0,0:0:0:0:
128,272,149030,1,0,0:0:0:0:
256,112,165030,6,0,L|256:152,1,35.625001358986
