osu file format v12

[General]
AudioFilename: Starry Sky Feat.R.Cena.mp3
AudioLeadIn: 3000
PreviewTime: 0
Countdown: 0
SampleSet: Soft
StackLeniency: 0.4
Mode: 3
LetterboxInBreaks: 1

[Editor]
DistanceSpacing: 1
BeatDivisor: 4
GridSize: 8

[Metadata]
Title:Starry Sky Feat.T.Cena
TitleUnicode:Starry Sky Feat.T.Cena
Artist:MK feat.NINE
ArtistUnicode:MK feat.NINE
Creator:ecafree2
Version:4K SC
Source:
Tags:
BeatmapID:237194
BeatmapSetID:86657

[Difficulty]
HPDrainRate:8
CircleSize:4
OverallDifficulty:7
ApproachRate:7
SliderMultiplier:0.4
SliderTickRate:1

[Events]
//Background and Video events
0,0,"bg.jpg",1,1
//Break Periods
//Storyboard Layer 0 (Background)
//Storyboard Layer 1 (Fail)
//Storyboard Layer 2 (Pass)
//Storyboard Layer 3 (Foreground)
//Storyboard Sound Samples
//Background Colour Transformations

[TimingPoints]
412,416.63773349073,4,2,0,70,1,0

[HitObjects]
64,192,412,1,0,0:0:0:0:
192,192,620,1,0,0:0:0:0:
64,192,828,1,0,0:0:0:0:
64,192,1245,1,0,0:0:0:0:
192,192,1453,1,0,0:0:0:0:
64,192,1661,1,0,0:0:0:0:
64,192,2078,1,0,0:0:0:0:
192,192,2286,1,0,0:0:0:0:
64,192,2495,1,0,0:0:0:0:
64,192,2911,1,0,0:0:0:0:
192,192,3120,1,0,0:0:0:0:
64,192,3328,1,0,0:0:0:0:
64,192,3745,1,0,0:0:0:0:
192,192,3953,1,0,0:0:0:0:
64,192,4161,1,0,0:0:0:0:
64,192,4578,1,0,0:0:0:0:
192,192,4786,1,0,0:0:0:0:
64,192,4995,1,0,0:0:0:0:
64,192,5411,1,0,0:0:0:0:
192,192,5619,1,0,0:0:0:0:
64,192,5828,1,0,0:0:0:0:
64,192,6244,1,0,0:0:0:0:
192,192,6453,1,0,0:0:0:0:
64,192,6661,1,0,0:0:0:0:
64,192,7078,1,0,0:0:0:0:
192,192,7286,1,0,0:0:0:0:
320,192,7390,1,0,0:0:0:0:
64,192,7494,1,0,0:0:0:0:
64,192,7911,1,0,0:0:0:0:
192,192,8119,1,0,0:0:0:0:
320,192,8223,1,0,0:0:0:0:
64,192,8328,1,0,0:0:0:0:
64,192,8744,1,0,0:0:0:0:
192,192,8953,1,0,0:0:0:0:
320,192,9057,1,0,0:0:0:0:
64,192,9161,1,0,0:0:0:0:
64,192,9578,1,0,0:0:0:0:
192,192,9786,1,0,0:0:0:0:
320,192,9890,1,0,0:0:0:0:
64,192,9994,1,0,0:0:0:0:
64,192,10411,1,0,0:0:0:0:
192,192,10619,1,0,0:0:0:0:
448,192,10723,1,0,0:0:0:0:
64,192,10827,1,0,0:0:0:0:
64,192,11244,1,0,0:0:0:0:
192,192,11452,1,0,0:0:0:0:
448,192,11557,1,0,0:0:0:0:
64,192,11661,1,0,0:0:0:0:
64,192,12077,1,0,0:0:0:0:
192,192,12286,1,0,0:0:0:0:
448,192,12390,1,0,0:0:0:0:
64,192,12494,1,0,0:0:0:0:
64,192,12911,1,0,0:0:0:0:
192,192,13119,1,0,0:0:0:0:
448,192,13223,1,0,0:0:0:0:
64,192,13327,1,0,0:0:0:0:
64,192,13744,1,0,0:0:0:0:
192,192,13952,1,0,0:0:0:0:
448,192,14056,1,0,0:0:0:0:
64,192,14161,1,0,0:0:0:0:
448,192,14265,1,0,0:0:0:0:
320,192,14369,1,0,0:0:0:0:
192,192,14473,1,0,0:0:0:0:
64,192,14577,1,0,0:0:0:0:
192,192,14786,1,0,0:0:0:0:
448,192,14890,1,0,0:0:0:0:
64,192,14994,1,0,0:0:0:0:
448,192,15098,1,0,0:0:0:0:
320,192,15202,1,0,0:0:0:0:
192,192,15306,1,0,0:0:0:0:
64,192,15410,1,0,0:0:0:0:
192,192,15619,1,0,0:0:0:0:
448,192,15723,1,0,0:0:0:0:
64,192,15827,1,0,0:0:0:0:
448,192,15931,1,0,0:0:0:0:
320,192,16035,1,0,0:0:0:0:
192,192,16140,1,0,0:0:0:0:
64,192,16244,1,0,0:0:0:0:
192,192,16452,1,0,0:0:0:0:
448,192,16556,1,0,0:0:0:0:
64,192,16660,1,0,0:0:0:0:
448,192,16765,1,0,0:0:0:0:
320,192,16869,1,0,0:0:0:0:
192,192,16973,1,0,0:0:0:0:
64,192,17077,1,0,0:0:0:0:
192,192,17285,1,0,0:0:0:0:
448,192,17389,1,0,0:0:0:0:
64,192,17494,1,0,0:0:0:0:
448,192,17598,1,0,0:0:0:0:
320,192,17702,1,0,0:0:0:0:
192,192,17806,1,0,0:0:0:0:
64,192,17910,1,0,0:0:0:0:
192,192,18119,1,0,0:0:0:0:
448,192,18223,1,0,0:0:0:0:
64,192,18327,1,0,0:0:0:0:
448,192,18431,1,0,0:0:0:0:
320,192,18535,1,0,0:0:0:0:
192,192,18639,1,0,0:0:0:0:
64,192,18744,1,0,0:0:0:0:
192,192,18952,1,0,0:0:0:0:
448,192,19056,1,0,0:0:0:0:
64,192,19160,1,0,0:0:0:0:
448,192,19264,1,0,0:0:0:0:
320,192,19369,1,0,0:0:0:0:
192,192,19473,1,0,0:0:0:0:
64,192,19577,1,0,0:0:0:0:
192,192,19785,1,0,0:0:0:0:
448,192,19889,1,0,0:0:0:0:
64,192,19993,1,0,0:0:0:0:
448,192,20098,1,0,0:0:0:0:
320,192,20202,1,0,0:0:0:0:
192,192,20306,1,0,0:0:0:0:
64,192,20410,1,0,0:0:0:0:
192,192,20618,1,0,0:0:0:0:
448,192,20723,1,0,0:0:0:0:
64,192,20827,1,0,0:0:0:0:
192,192,20931,1,0,0:0:0:0:
320,192,21035,1,0,0:0:0:0:
448,192,21139,1,0,0:0:0:0:
64,192,21243,1,0,0:0:0:0:
192,192,21452,1,0,0:0:0:0:
448,192,21556,1,0,0:0:0:0:
64,192,21660,1,0,0:0:0:0:
192,192,21764,1,0,0:0:0:0:
320,192,21868,1,0,0:0:0:0:
448,192,21973,1,0,0:0:0:0:
64,192,22077,1,0,0:0:0:0:
192,192,22285,1,0,0:0:0:0:
448,192,22389,1,0,0:0:0:0:
64,192,22493,1,0,0:0:0:0:
192,192,22597,1,0,0:0:0:0:
320,192,22702,1,0,0:0:0:0:
448,192,22806,1,0,0:0:0:0:
64,192,22910,1,0,0:0:0:0:
320,192,23014,1,0,0:0:0:0:
192,192,23118,1,0,0:0:0:0:
448,192,23222,1,0,0:0:0:0:
64,192,23327,1,0,0:0:0:0:
192,192,23431,1,0,0:0:0:0:
320,192,23535,1,0,0:0:0:0:
448,192,23639,1,0,0:0:0:0:
64,192,23743,1,0,0:0:0:0:
320,192,23847,1,0,0:0:0:0:
192,192,23952,1,0,0:0:0:0:
448,192,24056,1,0,0:0:0:0:
64,192,24160,1,0,0:0:0:0:
192,192,24264,1,0,0:0:0:0:
320,192,24368,1,0,0:0:0:0:
448,192,24472,1,0,0:0:0:0:
64,192,24576,1,0,0:0:0:0:
320,192,24681,1,0,0:0:0:0:
192,192,24785,1,0,0:0:0:0:
448,192,24889,1,0,0:0:0:0:
64,192,24993,1,0,0:0:0:0:
192,192,25097,1,0,0:0:0:0:
320,192,25201,1,0,0:0:0:0:
448,192,25306,1,0,0:0:0:0:
192,192,25410,1,0,0:0:0:0:
320,192,25514,1,0,0:0:0:0:
64,192,25618,1,0,0:0:0:0:
448,192,25722,1,0,0:0:0:0:
192,192,25826,1,0,0:0:0:0:
320,192,25931,1,0,0:0:0:0:
64,192,26035,1,0,0:0:0:0:
448,192,26139,1,0,0:0:0:0:
192,192,26243,1,0,0:0:0:0:
320,192,26347,1,0,0:0:0:0:
64,192,26451,1,0,0:0:0:0:
448,192,26556,1,0,0:0:0:0:
192,192,26660,1,0,0:0:0:0:
320,192,26764,1,0,0:0:0:0:
64,192,26868,1,0,0:0:0:0:
448,192,26972,1,0,0:0:0:0:
64,192,27076,1,0,0:0:0:0:
192,192,27076,1,0,0:0:0:0:
320,192,27180,1,0,0:0:0:0:
448,192,27285,1,0,0:0:0:0:
192,192,27389,1,0,0:0:0:0:
64,192,27493,1,0,0:0:0:0:
320,192,27493,1,0,0:0:0:0:
448,192,27493,1,0,0:0:0:0:
192,192,27597,1,0,0:0:0:0:
448,192,27701,1,0,0:0:0:0:
320,192,27805,1,0,0:0:0:0:
64,192,27910,1,0,0:0:0:0:
192,192,27910,1,0,0:0:0:0:
320,192,28014,1,0,0:0:0:0:
448,192,28118,1,0,0:0:0:0:
192,192,28222,1,0,0:0:0:0:
64,192,28326,1,0,0:0:0:0:
320,192,28326,1,0,0:0:0:0:
448,192,28326,1,0,0:0:0:0:
192,192,28430,1,0,0:0:0:0:
448,192,28535,1,0,0:0:0:0:
320,192,28639,1,0,0:0:0:0:
64,192,28743,1,0,0:0:0:0:
192,192,28743,1,0,0:0:0:0:
448,192,28847,1,0,0:0:0:0:
320,192,28951,1,0,0:0:0:0:
192,192,29055,1,0,0:0:0:0:
64,192,29160,1,0,0:0:0:0:
320,192,29160,1,0,0:0:0:0:
448,192,29160,1,0,0:0:0:0:
192,192,29264,1,0,0:0:0:0:
320,192,29368,1,0,0:0:0:0:
448,192,29472,1,0,0:0:0:0:
64,192,29576,1,0,0:0:0:0:
192,192,29576,1,0,0:0:0:0:
448,192,29680,1,0,0:0:0:0:
320,192,29784,1,0,0:0:0:0:
192,192,29889,1,0,0:0:0:0:
64,192,29993,1,0,0:0:0:0:
320,192,29993,1,0,0:0:0:0:
448,192,29993,1,0,0:0:0:0:
192,192,30097,1,0,0:0:0:0:
320,192,30201,1,0,0:0:0:0:
448,192,30305,1,0,0:0:0:0:
64,192,30409,1,0,0:0:0:0:
320,192,30409,1,0,0:0:0:0:
192,192,30514,1,0,0:0:0:0:
448,192,30618,1,0,0:0:0:0:
320,192,30722,1,0,0:0:0:0:
64,192,30826,1,0,0:0:0:0:
192,192,30826,1,0,0:0:0:0:
448,192,30826,1,0,0:0:0:0:
320,192,30930,1,0,0:0:0:0:
448,192,31034,1,0,0:0:0:0:
192,192,31139,1,0,0:0:0:0:
64,192,31243,1,0,0:0:0:0:
320,192,31243,1,0,0:0:0:0:
192,192,31347,1,0,0:0:0:0:
448,192,31451,1,0,0:0:0:0:
320,192,31555,1,0,0:0:0:0:
64,192,31659,1,0,0:0:0:0:
192,192,31659,1,0,0:0:0:0:
448,192,31659,1,0,0:0:0:0:
320,192,31763,1,0,0:0:0:0:
448,192,31868,1,0,0:0:0:0:
192,192,31972,1,0,0:0:0:0:
64,192,32076,1,0,0:0:0:0:
448,192,32076,1,0,0:0:0:0:
192,192,32180,1,0,0:0:0:0:
320,192,32284,1,0,0:0:0:0:
192,192,32388,1,0,0:0:0:0:
64,192,32493,1,0,0:0:0:0:
320,192,32493,1,0,0:0:0:0:
448,192,32493,1,0,0:0:0:0:
192,192,32597,1,0,0:0:0:0:
320,192,32701,1,0,0:0:0:0:
192,192,32805,1,0,0:0:0:0:
64,192,32909,1,0,0:0:0:0:
448,192,32909,1,0,0:0:0:0:
192,192,33013,1,0,0:0:0:0:
320,192,33118,1,0,0:0:0:0:
192,192,33222,1,0,0:0:0:0:
64,192,33326,1,0,0:0:0:0:
320,192,33326,1,0,0:0:0:0:
448,192,33326,1,0,0:0:0:0:
192,192,33430,1,0,0:0:0:0:
320,192,33534,1,0,0:0:0:0:
448,192,33638,1,0,0:0:0:0:
64,192,33743,1,0,0:0:0:0:
192,192,33743,1,0,0:0:0:0:
320,192,33847,1,0,0:0:0:0:
448,192,33951,1,0,0:0:0:0:
192,192,34055,1,0,0:0:0:0:
64,192,34159,1,0,0:0:0:0:
320,192,34159,1,0,0:0:0:0:
448,192,34159,1,0,0:0:0:0:
192,192,34263,1,0,0:0:0:0:
448,192,34367,1,0,0:0:0:0:
320,192,34472,1,0,0:0:0:0:
64,192,34576,1,0,0:0:0:0:
192,192,34576,1,0,0:0:0:0:
320,192,34680,1,0,0:0:0:0:
448,192,34784,1,0,0:0:0:0:
192,192,34888,1,0,0:0:0:0:
64,192,34992,1,0,0:0:0:0:
320,192,34992,1,0,0:0:0:0:
448,192,34992,1,0,0:0:0:0:
192,192,35097,1,0,0:0:0:0:
448,192,35201,1,0,0:0:0:0:
320,192,35305,1,0,0:0:0:0:
64,192,35409,1,0,0:0:0:0:
192,192,35409,1,0,0:0:0:0:
448,192,35513,1,0,0:0:0:0:
320,192,35617,1,0,0:0:0:0:
192,192,35722,1,0,0:0:0:0:
64,192,35826,1,0,0:0:0:0:
320,192,35826,1,0,0:0:0:0:
448,192,35826,1,0,0:0:0:0:
192,192,35930,1,0,0:0:0:0:
320,192,36034,1,0,0:0:0:0:
448,192,36138,1,0,0:0:0:0:
64,192,36242,1,0,0:0:0:0:
192,192,36242,1,0,0:0:0:0:
448,192,36347,1,0,0:0:0:0:
320,192,36451,1,0,0:0:0:0:
192,192,36555,1,0,0:0:0:0:
64,192,36659,1,0,0:0:0:0:
320,192,36659,1,0,0:0:0:0:
448,192,36659,1,0,0:0:0:0:
192,192,36763,1,0,0:0:0:0:
320,192,36867,1,0,0:0:0:0:
448,192,36971,1,0,0:0:0:0:
64,192,37076,1,0,0:0:0:0:
320,192,37076,1,0,0:0:0:0:
192,192,37180,1,0,0:0:0:0:
448,192,37284,1,0,0:0:0:0:
320,192,37388,1,0,0:0:0:0:
64,192,37492,1,0,0:0:0:0:
192,192,37492,1,0,0:0:0:0:
448,192,37492,1,0,0:0:0:0:
320,192,37596,1,0,0:0:0:0:
448,192,37701,1,0,0:0:0:0:
192,192,37805,1,0,0:0:0:0:
64,192,37909,1,0,0:0:0:0:
320,192,37909,1,0,0:0:0:0:
192,192,38013,1,0,0:0:0:0:
448,192,38117,1,0,0:0:0:0:
320,192,38221,1,0,0:0:0:0:
64,192,38326,1,0,0:0:0:0:
192,192,38326,1,0,0:0:0:0:
448,192,38326,1,0,0:0:0:0:
320,192,38430,1,0,0:0:0:0:
448,192,38534,1,0,0:0:0:0:
192,192,38638,1,0,0:0:0:0:
64,192,38742,1,0,0:0:0:0:
448,192,38742,1,0,0:0:0:0:
192,192,38846,1,0,0:0:0:0:
320,192,38950,1,0,0:0:0:0:
192,192,39055,1,0,0:0:0:0:
64,192,39159,1,0,0:0:0:0:
320,192,39159,1,0,0:0:0:0:
448,192,39159,1,0,0:0:0:0:
192,192,39263,1,0,0:0:0:0:
320,192,39367,1,0,0:0:0:0:
192,192,39471,1,0,0:0:0:0:
64,192,39575,1,0,0:0:0:0:
448,192,39575,1,0,0:0:0:0:
192,192,39680,1,0,0:0:0:0:
320,192,39784,1,0,0:0:0:0:
192,192,39888,1,0,0:0:0:0:
64,192,39992,1,0,0:0:0:0:
320,192,39992,1,0,0:0:0:0:
448,192,39992,1,0,0:0:0:0:
192,192,40096,1,0,0:0:0:0:
320,192,40200,1,0,0:0:0:0:
192,192,40305,1,0,0:0:0:0:
64,192,40409,1,0,0:0:0:0:
448,192,40409,1,0,0:0:0:0:
320,192,40513,1,0,0:0:0:0:
448,192,40617,1,0,0:0:0:0:
192,192,40721,1,0,0:0:0:0:
64,192,40825,1,0,0:0:0:0:
320,192,40825,1,0,0:0:0:0:
448,192,40825,1,0,0:0:0:0:
192,192,40930,1,0,0:0:0:0:
448,192,41034,1,0,0:0:0:0:
320,192,41138,1,0,0:0:0:0:
64,192,41242,1,0,0:0:0:0:
192,192,41242,1,0,0:0:0:0:
320,192,41346,1,0,0:0:0:0:
448,192,41450,1,0,0:0:0:0:
192,192,41554,1,0,0:0:0:0:
64,192,41659,1,0,0:0:0:0:
320,192,41659,1,0,0:0:0:0:
448,192,41659,1,0,0:0:0:0:
192,192,41763,1,0,0:0:0:0:
448,192,41867,1,0,0:0:0:0:
320,192,41971,1,0,0:0:0:0:
64,192,42075,1,0,0:0:0:0:
192,192,42075,1,0,0:0:0:0:
448,192,42179,1,0,0:0:0:0:
320,192,42284,1,0,0:0:0:0:
192,192,42388,1,0,0:0:0:0:
64,192,42492,1,0,0:0:0:0:
320,192,42492,1,0,0:0:0:0:
448,192,42492,1,0,0:0:0:0:
192,192,42596,1,0,0:0:0:0:
320,192,42700,1,0,0:0:0:0:
448,192,42804,1,0,0:0:0:0:
64,192,42909,1,0,0:0:0:0:
192,192,42909,1,0,0:0:0:0:
448,192,43013,1,0,0:0:0:0:
320,192,43117,1,0,0:0:0:0:
192,192,43221,1,0,0:0:0:0:
64,192,43325,1,0,0:0:0:0:
320,192,43325,1,0,0:0:0:0:
448,192,43325,1,0,0:0:0:0:
192,192,43429,1,0,0:0:0:0:
320,192,43534,1,0,0:0:0:0:
448,192,43638,1,0,0:0:0:0:
64,192,43742,1,0,0:0:0:0:
320,192,43742,1,0,0:0:0:0:
192,192,43846,1,0,0:0:0:0:
448,192,43950,1,0,0:0:0:0:
320,192,44054,1,0,0:0:0:0:
64,192,44158,1,0,0:0:0:0:
192,192,44158,1,0,0:0:0:0:
448,192,44158,1,0,0:0:0:0:
320,192,44263,1,0,0:0:0:0:
448,192,44367,1,0,0:0:0:0:
192,192,44471,1,0,0:0:0:0:
64,192,44575,1,0,0:0:0:0:
320,192,44575,1,0,0:0:0:0:
192,192,44679,1,0,0:0:0:0:
448,192,44783,1,0,0:0:0:0:
320,192,44888,1,0,0:0:0:0:
64,192,44992,1,0,0:0:0:0:
192,192,44992,1,0,0:0:0:0:
448,192,44992,1,0,0:0:0:0:
320,192,45096,1,0,0:0:0:0:
448,192,45200,1,0,0:0:0:0:
192,192,45304,1,0,0:0:0:0:
64,192,45408,1,0,0:0:0:0:
448,192,45408,1,0,0:0:0:0:
192,192,45513,1,0,0:0:0:0:
320,192,45617,1,0,0:0:0:0:
192,192,45721,1,0,0:0:0:0:
64,192,45825,1,0,0:0:0:0:
320,192,45825,1,0,0:0:0:0:
448,192,45825,1,0,0:0:0:0:
192,192,45929,1,0,0:0:0:0:
320,192,46033,1,0,0:0:0:0:
192,192,46137,1,0,0:0:0:0:
64,192,46242,1,0,0:0:0:0:
448,192,46242,1,0,0:0:0:0:
192,192,46346,1,0,0:0:0:0:
320,192,46450,1,0,0:0:0:0:
192,192,46554,1,0,0:0:0:0:
64,192,46658,1,0,0:0:0:0:
320,192,46658,1,0,0:0:0:0:
448,192,46658,1,0,0:0:0:0:
192,192,46762,1,0,0:0:0:0:
320,192,46867,1,0,0:0:0:0:
192,192,46971,1,0,0:0:0:0:
64,192,47075,1,0,0:0:0:0:
320,192,47075,1,0,0:0:0:0:
448,192,47179,1,0,0:0:0:0:
320,192,47283,1,0,0:0:0:0:
192,192,47387,1,0,0:0:0:0:
64,192,47492,1,0,0:0:0:0:
320,192,47492,1,0,0:0:0:0:
448,192,47492,1,0,0:0:0:0:
192,192,47596,1,0,0:0:0:0:
448,192,47700,1,0,0:0:0:0:
320,192,47804,1,0,0:0:0:0:
64,192,47908,1,0,0:0:0:0:
192,192,47908,1,0,0:0:0:0:
320,192,48012,1,0,0:0:0:0:
448,192,48117,1,0,0:0:0:0:
192,192,48221,1,0,0:0:0:0:
64,192,48325,1,0,0:0:0:0:
320,192,48325,1,0,0:0:0:0:
448,192,48325,1,0,0:0:0:0:
192,192,48429,1,0,0:0:0:0:
448,192,48533,1,0,0:0:0:0:
320,192,48637,1,0,0:0:0:0:
64,192,48741,1,0,0:0:0:0:
192,192,48741,1,0,0:0:0:0:
448,192,48846,1,0,0:0:0:0:
320,192,48950,1,0,0:0:0:0:
192,192,49054,1,0,0:0:0:0:
64,192,49158,1,0,0:0:0:0:
320,192,49158,1,0,0:0:0:0:
448,192,49158,1,0,0:0:0:0:
192,192,49262,1,0,0:0:0:0:
320,192,49366,1,0,0:0:0:0:
448,192,49471,1,0,0:0:0:0:
64,192,49575,1,0,0:0:0:0:
192,192,49575,1,0,0:0:0:0:
448,192,49679,1,0,0:0:0:0:
320,192,49783,1,0,0:0:0:0:
192,192,49887,1,0,0:0:0:0:
64,192,49991,1,0,0:0:0:0:
320,192,49991,1,0,0:0:0:0:
448,192,49991,1,0,0:0:0:0:
192,192,50096,1,0,0:0:0:0:
320,192,50200,1,0,0:0:0:0:
448,192,50304,1,0,0:0:0:0:
64,192,50408,1,0,0:0:0:0:
320,192,50408,1,0,0:0:0:0:
192,192,50512,1,0,0:0:0:0:
448,192,50616,1,0,0:0:0:0:
320,192,50721,1,0,0:0:0:0:
64,192,50825,1,0,0:0:0:0:
192,192,50825,1,0,0:0:0:0:
448,192,50825,1,0,0:0:0:0:
320,192,50929,1,0,0:0:0:0:
448,192,51033,1,0,0:0:0:0:
192,192,51137,1,0,0:0:0:0:
64,192,51241,1,0,0:0:0:0:
320,192,51241,1,0,0:0:0:0:
192,192,51345,1,0,0:0:0:0:
448,192,51450,1,0,0:0:0:0:
320,192,51554,1,0,0:0:0:0:
64,192,51658,1,0,0:0:0:0:
192,192,51658,1,0,0:0:0:0:
448,192,51658,1,0,0:0:0:0:
320,192,51762,1,0,0:0:0:0:
448,192,51866,1,0,0:0:0:0:
192,192,51970,1,0,0:0:0:0:
64,192,52075,1,0,0:0:0:0:
448,192,52075,1,0,0:0:0:0:
192,192,52179,1,0,0:0:0:0:
320,192,52283,1,0,0:0:0:0:
192,192,52387,1,0,0:0:0:0:
64,192,52491,1,0,0:0:0:0:
320,192,52491,1,0,0:0:0:0:
448,192,52491,1,0,0:0:0:0:
192,192,52595,1,0,0:0:0:0:
320,192,52700,1,0,0:0:0:0:
192,192,52804,1,0,0:0:0:0:
64,192,52908,1,0,0:0:0:0:
448,192,52908,1,0,0:0:0:0:
192,192,53012,1,0,0:0:0:0:
64,192,53116,1,0,0:0:0:0:
320,192,53116,1,0,0:0:0:0:
192,192,53220,1,0,0:0:0:0:
320,192,53324,1,0,0:0:0:0:
448,192,53324,1,0,0:0:0:0:
192,192,53429,1,0,0:0:0:0:
64,192,53533,1,0,0:0:0:0:
320,192,53533,1,0,0:0:0:0:
192,192,53637,1,0,0:0:0:0:
64,192,53741,1,0,0:0:0:0:
320,192,53741,1,0,0:0:0:0:
448,192,53741,1,0,0:0:0:0:
192,192,53845,1,0,0:0:0:0:
320,192,53949,1,0,0:0:0:0:
192,192,54054,1,0,0:0:0:0:
192,192,54262,1,0,0:0:0:0:
320,192,54366,1,0,0:0:0:0:
192,192,54470,1,0,0:0:0:0:
192,192,54679,1,0,0:0:0:0:
320,192,54783,1,0,0:0:0:0:
192,192,54887,1,0,0:0:0:0:
192,192,55095,1,0,0:0:0:0:
64,192,55199,1,0,0:0:0:0:
192,192,55304,1,0,0:0:0:0:
192,192,55512,1,0,0:0:0:0:
320,192,55616,1,0,0:0:0:0:
192,192,55720,1,0,0:0:0:0:
192,192,55928,1,0,0:0:0:0:
320,192,56033,1,0,0:0:0:0:
192,192,56137,1,0,0:0:0:0:
192,192,56345,1,0,0:0:0:0:
320,192,56449,1,0,0:0:0:0:
192,192,56553,1,0,0:0:0:0:
192,192,56762,1,0,0:0:0:0:
64,192,56866,1,0,0:0:0:0:
192,192,56970,1,0,0:0:0:0:
448,192,57178,1,0,0:0:0:0:
320,192,57283,1,0,0:0:0:0:
448,192,57387,1,0,0:0:0:0:
448,192,57595,1,0,0:0:0:0:
320,192,57699,1,0,0:0:0:0:
448,192,57803,1,0,0:0:0:0:
448,192,58012,1,0,0:0:0:0:
320,192,58116,1,0,0:0:0:0:
448,192,58220,1,0,0:0:0:0:
448,192,58428,1,0,0:0:0:0:
192,192,58532,1,0,0:0:0:0:
448,192,58637,1,0,0:0:0:0:
448,192,58845,1,0,0:0:0:0:
320,192,58949,1,0,0:0:0:0:
448,192,59053,1,0,0:0:0:0:
448,192,59262,1,0,0:0:0:0:
320,192,59366,1,0,0:0:0:0:
448,192,59470,1,0,0:0:0:0:
448,192,59678,1,0,0:0:0:0:
320,192,59782,1,0,0:0:0:0:
448,192,59887,1,0,0:0:0:0:
448,192,60095,1,0,0:0:0:0:
192,192,60199,1,0,0:0:0:0:
448,192,60303,1,0,0:0:0:0:
64,192,60407,1,0,0:0:0:0:
192,192,60407,1,0,0:0:0:0:
320,192,60407,1,0,0:0:0:0:
448,192,60511,1,0,0:0:0:0:
64,192,60616,1,0,0:0:0:0:
320,192,60616,1,0,0:0:0:0:
192,192,60720,1,0,0:0:0:0:
448,192,60720,1,0,0:0:0:0:
64,192,60928,1,0,0:0:0:0:
448,192,60928,1,0,0:0:0:0:
192,192,61032,1,0,0:0:0:0:
320,192,61032,1,0,0:0:0:0:
64,192,61136,1,0,0:0:0:0:
448,192,61136,1,0,0:0:0:0:
192,192,61241,1,0,0:0:0:0:
448,192,61345,1,0,0:0:0:0:
64,192,61449,1,0,0:0:0:0:
320,192,61449,1,0,0:0:0:0:
192,192,61553,1,0,0:0:0:0:
448,192,61553,1,0,0:0:0:0:
64,192,61761,1,0,0:0:0:0:
448,192,61761,1,0,0:0:0:0:
192,192,61866,1,0,0:0:0:0:
320,192,61866,1,0,0:0:0:0:
64,192,61970,1,0,0:0:0:0:
448,192,61970,1,0,0:0:0:0:
192,192,62074,1,0,0:0:0:0:
448,192,62178,1,0,0:0:0:0:
64,192,62282,1,0,0:0:0:0:
320,192,62282,1,0,0:0:0:0:
192,192,62386,1,0,0:0:0:0:
448,192,62386,1,0,0:0:0:0:
64,192,62595,1,0,0:0:0:0:
448,192,62595,1,0,0:0:0:0:
192,192,62699,1,0,0:0:0:0:
320,192,62699,1,0,0:0:0:0:
64,192,62803,1,0,0:0:0:0:
448,192,62803,1,0,0:0:0:0:
192,192,62907,1,0,0:0:0:0:
448,192,63011,1,0,0:0:0:0:
64,192,63115,1,0,0:0:0:0:
320,192,63115,1,0,0:0:0:0:
192,192,63220,1,0,0:0:0:0:
448,192,63220,1,0,0:0:0:0:
64,192,63428,1,0,0:0:0:0:
448,192,63428,1,0,0:0:0:0:
192,192,63532,1,0,0:0:0:0:
320,192,63532,1,0,0:0:0:0:
64,192,63636,1,0,0:0:0:0:
448,192,63636,1,0,0:0:0:0:
192,192,63740,1,0,0:0:0:0:
448,192,63845,1,0,0:0:0:0:
64,192,63949,1,0,0:0:0:0:
320,192,63949,1,0,0:0:0:0:
192,192,64053,1,0,0:0:0:0:
448,192,64053,1,0,0:0:0:0:
64,192,64261,1,0,0:0:0:0:
448,192,64261,1,0,0:0:0:0:
192,192,64365,1,0,0:0:0:0:
320,192,64365,1,0,0:0:0:0:
64,192,64470,1,0,0:0:0:0:
448,192,64470,1,0,0:0:0:0:
192,192,64574,1,0,0:0:0:0:
448,192,64678,1,0,0:0:0:0:
64,192,64782,1,0,0:0:0:0:
320,192,64782,1,0,0:0:0:0:
192,192,64886,1,0,0:0:0:0:
448,192,64886,1,0,0:0:0:0:
64,192,65095,1,0,0:0:0:0:
448,192,65095,1,0,0:0:0:0:
192,192,65199,1,0,0:0:0:0:
320,192,65199,1,0,0:0:0:0:
64,192,65303,1,0,0:0:0:0:
448,192,65303,1,0,0:0:0:0:
192,192,65407,1,0,0:0:0:0:
448,192,65511,1,0,0:0:0:0:
64,192,65615,1,0,0:0:0:0:
320,192,65615,1,0,0:0:0:0:
192,192,65719,1,0,0:0:0:0:
448,192,65719,1,0,0:0:0:0:
64,192,65928,1,0,0:0:0:0:
448,192,65928,1,0,0:0:0:0:
192,192,66032,1,0,0:0:0:0:
320,192,66032,1,0,0:0:0:0:
64,192,66136,1,0,0:0:0:0:
448,192,66136,1,0,0:0:0:0:
192,192,66240,1,0,0:0:0:0:
448,192,66344,1,0,0:0:0:0:
64,192,66449,1,0,0:0:0:0:
320,192,66449,1,0,0:0:0:0:
192,192,66553,1,0,0:0:0:0:
448,192,66553,1,0,0:0:0:0:
192,192,66761,1,0,0:0:0:0:
320,192,66761,1,0,0:0:0:0:
64,192,66865,1,0,0:0:0:0:
448,192,66865,1,0,0:0:0:0:
192,192,66969,1,0,0:0:0:0:
320,192,66969,1,0,0:0:0:0:
64,192,67074,1,0,0:0:0:0:
448,192,67074,1,0,0:0:0:0:
192,192,67178,1,0,0:0:0:0:
64,192,67282,1,0,0:0:0:0:
320,192,67282,1,0,0:0:0:0:
192,192,67386,1,0,0:0:0:0:
448,192,67386,1,0,0:0:0:0:
64,192,67490,1,0,0:0:0:0:
192,192,67594,1,0,0:0:0:0:
320,192,67594,1,0,0:0:0:0:
64,192,67698,1,0,0:0:0:0:
448,192,67698,1,0,0:0:0:0:
192,192,67803,1,0,0:0:0:0:
320,192,67803,1,0,0:0:0:0:
64,192,67907,1,0,0:0:0:0:
448,192,67907,1,0,0:0:0:0:
192,192,68011,1,0,0:0:0:0:
64,192,68115,1,0,0:0:0:0:
320,192,68115,1,0,0:0:0:0:
192,192,68219,1,0,0:0:0:0:
448,192,68219,1,0,0:0:0:0:
64,192,68323,1,0,0:0:0:0:
192,192,68428,1,0,0:0:0:0:
320,192,68428,1,0,0:0:0:0:
64,192,68532,1,0,0:0:0:0:
448,192,68532,1,0,0:0:0:0:
192,192,68636,1,0,0:0:0:0:
320,192,68636,1,0,0:0:0:0:
64,192,68740,1,0,0:0:0:0:
448,192,68740,1,0,0:0:0:0:
192,192,68844,1,0,0:0:0:0:
64,192,68948,1,0,0:0:0:0:
320,192,68948,1,0,0:0:0:0:
192,192,69053,1,0,0:0:0:0:
448,192,69053,1,0,0:0:0:0:
64,192,69157,1,0,0:0:0:0:
192,192,69261,1,0,0:0:0:0:
320,192,69261,1,0,0:0:0:0:
64,192,69365,1,0,0:0:0:0:
448,192,69365,1,0,0:0:0:0:
192,192,69469,1,0,0:0:0:0:
320,192,69469,1,0,0:0:0:0:
64,192,69573,1,0,0:0:0:0:
448,192,69573,1,0,0:0:0:0:
192,192,69678,1,0,0:0:0:0:
64,192,69782,1,0,0:0:0:0:
320,192,69782,1,0,0:0:0:0:
192,192,69886,1,0,0:0:0:0:
448,192,69886,1,0,0:0:0:0:
64,192,69990,1,0,0:0:0:0:
192,192,70094,1,0,0:0:0:0:
320,192,70094,1,0,0:0:0:0:
64,192,70198,1,0,0:0:0:0:
448,192,70198,1,0,0:0:0:0:
192,192,70302,1,0,0:0:0:0:
320,192,70302,1,0,0:0:0:0:
64,192,70407,1,0,0:0:0:0:
448,192,70407,1,0,0:0:0:0:
192,192,70511,1,0,0:0:0:0:
64,192,70615,1,0,0:0:0:0:
320,192,70615,1,0,0:0:0:0:
192,192,70719,1,0,0:0:0:0:
448,192,70719,1,0,0:0:0:0:
64,192,70823,1,0,0:0:0:0:
192,192,70927,1,0,0:0:0:0:
320,192,70927,1,0,0:0:0:0:
64,192,71032,1,0,0:0:0:0:
448,192,71032,1,0,0:0:0:0:
192,192,71136,1,0,0:0:0:0:
320,192,71136,1,0,0:0:0:0:
64,192,71240,1,0,0:0:0:0:
448,192,71240,1,0,0:0:0:0:
192,192,71344,1,0,0:0:0:0:
64,192,71448,1,0,0:0:0:0:
320,192,71448,1,0,0:0:0:0:
192,192,71552,1,0,0:0:0:0:
448,192,71552,1,0,0:0:0:0:
64,192,71657,1,0,0:0:0:0:
192,192,71761,1,0,0:0:0:0:
320,192,71761,1,0,0:0:0:0:
64,192,71865,1,0,0:0:0:0:
448,192,71865,1,0,0:0:0:0:
192,192,71969,1,0,0:0:0:0:
320,192,71969,1,0,0:0:0:0:
64,192,72073,1,0,0:0:0:0:
448,192,72073,1,0,0:0:0:0:
192,192,72177,1,0,0:0:0:0:
64,192,72282,1,0,0:0:0:0:
320,192,72282,1,0,0:0:0:0:
192,192,72386,1,0,0:0:0:0:
448,192,72386,1,0,0:0:0:0:
64,192,72490,1,0,0:0:0:0:
192,192,72594,1,0,0:0:0:0:
320,192,72594,1,0,0:0:0:0:
64,192,72698,1,0,0:0:0:0:
448,192,72698,1,0,0:0:0:0:
192,192,72802,1,0,0:0:0:0:
320,192,72802,1,0,0:0:0:0:
64,192,72906,1,0,0:0:0:0:
448,192,72906,1,0,0:0:0:0:
192,192,73011,1,0,0:0:0:0:
64,192,73115,1,0,0:0:0:0:
320,192,73115,1,0,0:0:0:0:
192,192,73219,1,0,0:0:0:0:
448,192,73219,1,0,0:0:0:0:
64,192,73323,1,0,0:0:0:0:
320,192,73427,1,0,0:0:0:0:
448,192,73427,1,0,0:0:0:0:
64,192,73531,1,0,0:0:0:0:
192,192,73531,1,0,0:0:0:0:
320,192,73636,1,0,0:0:0:0:
448,192,73636,1,0,0:0:0:0:
64,192,73740,1,0,0:0:0:0:
192,192,73740,1,0,0:0:0:0:
448,192,73844,1,0,0:0:0:0:
64,192,73948,1,0,0:0:0:0:
320,192,73948,1,0,0:0:0:0:
192,192,74052,1,0,0:0:0:0:
448,192,74052,1,0,0:0:0:0:
64,192,74156,1,0,0:0:0:0:
320,192,74261,1,0,0:0:0:0:
448,192,74261,1,0,0:0:0:0:
64,192,74365,1,0,0:0:0:0:
192,192,74365,1,0,0:0:0:0:
320,192,74469,1,0,0:0:0:0:
448,192,74469,1,0,0:0:0:0:
64,192,74573,1,0,0:0:0:0:
192,192,74573,1,0,0:0:0:0:
448,192,74677,1,0,0:0:0:0:
64,192,74781,1,0,0:0:0:0:
320,192,74781,1,0,0:0:0:0:
192,192,74885,1,0,0:0:0:0:
448,192,74885,1,0,0:0:0:0:
64,192,74990,1,0,0:0:0:0:
320,192,75094,1,0,0:0:0:0:
448,192,75094,1,0,0:0:0:0:
64,192,75198,1,0,0:0:0:0:
192,192,75198,1,0,0:0:0:0:
320,192,75302,1,0,0:0:0:0:
448,192,75302,1,0,0:0:0:0:
64,192,75406,1,0,0:0:0:0:
192,192,75406,1,0,0:0:0:0:
448,192,75510,1,0,0:0:0:0:
64,192,75615,1,0,0:0:0:0:
320,192,75615,1,0,0:0:0:0:
192,192,75719,1,0,0:0:0:0:
448,192,75719,1,0,0:0:0:0:
64,192,75823,1,0,0:0:0:0:
320,192,75927,1,0,0:0:0:0:
448,192,75927,1,0,0:0:0:0:
64,192,76031,1,0,0:0:0:0:
192,192,76031,1,0,0:0:0:0:
320,192,76135,1,0,0:0:0:0:
448,192,76135,1,0,0:0:0:0:
64,192,76240,1,0,0:0:0:0:
192,192,76240,1,0,0:0:0:0:
448,192,76344,1,0,0:0:0:0:
64,192,76448,1,0,0:0:0:0:
320,192,76448,1,0,0:0:0:0:
192,192,76552,1,0,0:0:0:0:
448,192,76552,1,0,0:0:0:0:
64,192,76656,1,0,0:0:0:0:
320,192,76760,1,0,0:0:0:0:
448,192,76760,1,0,0:0:0:0:
64,192,76865,1,0,0:0:0:0:
192,192,76865,1,0,0:0:0:0:
320,192,76969,1,0,0:0:0:0:
448,192,76969,1,0,0:0:0:0:
64,192,77073,1,0,0:0:0:0:
192,192,77073,1,0,0:0:0:0:
448,192,77177,1,0,0:0:0:0:
64,192,77281,1,0,0:0:0:0:
320,192,77281,1,0,0:0:0:0:
192,192,77385,1,0,0:0:0:0:
448,192,77385,1,0,0:0:0:0:
64,192,77489,1,0,0:0:0:0:
320,192,77594,1,0,0:0:0:0:
448,192,77594,1,0,0:0:0:0:
64,192,77698,1,0,0:0:0:0:
192,192,77698,1,0,0:0:0:0:
320,192,77802,1,0,0:0:0:0:
448,192,77802,1,0,0:0:0:0:
64,192,77906,1,0,0:0:0:0:
192,192,77906,1,0,0:0:0:0:
448,192,78010,1,0,0:0:0:0:
64,192,78114,1,0,0:0:0:0:
320,192,78114,1,0,0:0:0:0:
192,192,78219,1,0,0:0:0:0:
448,192,78219,1,0,0:0:0:0:
64,192,78323,1,0,0:0:0:0:
320,192,78427,1,0,0:0:0:0:
448,192,78427,1,0,0:0:0:0:
64,192,78531,1,0,0:0:0:0:
192,192,78531,1,0,0:0:0:0:
320,192,78635,1,0,0:0:0:0:
448,192,78635,1,0,0:0:0:0:
64,192,78739,1,0,0:0:0:0:
192,192,78739,1,0,0:0:0:0:
320,192,78948,1,0,0:0:0:0:
448,192,79052,1,0,0:0:0:0:
320,192,79260,1,0,0:0:0:0:
448,192,79364,1,0,0:0:0:0:
320,192,79469,1,0,0:0:0:0:
64,192,79573,1,0,0:0:0:0:
448,192,79677,1,0,0:0:0:0:
320,192,79781,1,0,0:0:0:0:
64,192,79885,1,0,0:0:0:0:
192,192,79989,1,0,0:0:0:0:
320,192,80093,1,0,0:0:0:0:
192,192,80198,1,0,0:0:0:0:
64,192,80406,1,0,0:0:0:0:
448,192,80406,1,0,0:0:0:0:
320,192,80510,1,0,0:0:0:0:
64,192,80614,1,0,0:0:0:0:
192,192,80614,1,0,0:0:0:0:
320,192,80718,1,0,0:0:0:0:
448,192,80718,1,0,0:0:0:0:
64,192,80823,1,0,0:0:0:0:
192,192,80927,1,0,0:0:0:0:
320,192,80927,1,0,0:0:0:0:
64,192,81031,1,0,0:0:0:0:
448,192,81031,1,0,0:0:0:0:
192,192,81135,1,0,0:0:0:0:
320,192,81135,1,0,0:0:0:0:
64,192,81239,1,0,0:0:0:0:
448,192,81239,1,0,0:0:0:0:
320,192,81343,1,0,0:0:0:0:
64,192,81448,1,0,0:0:0:0:
192,192,81448,1,0,0:0:0:0:
320,192,81552,1,0,0:0:0:0:
448,192,81552,1,0,0:0:0:0:
64,192,81656,1,0,0:0:0:0:
192,192,81760,1,0,0:0:0:0:
320,192,81760,1,0,0:0:0:0:
64,192,81864,1,0,0:0:0:0:
448,192,81864,1,0,0:0:0:0:
192,192,81968,1,0,0:0:0:0:
320,192,81968,1,0,0:0:0:0:
64,192,82072,1,0,0:0:0:0:
448,192,82072,1,0,0:0:0:0:
320,192,82177,1,0,0:0:0:0:
64,192,82281,1,0,0:0:0:0:
192,192,82281,1,0,0:0:0:0:
320,192,82385,1,0,0:0:0:0:
448,192,82385,1,0,0:0:0:0:
64,192,82489,1,0,0:0:0:0:
192,192,82593,1,0,0:0:0:0:
320,192,82593,1,0,0:0:0:0:
64,192,82697,1,0,0:0:0:0:
448,192,82697,1,0,0:0:0:0:
192,192,82802,1,0,0:0:0:0:
320,192,82802,1,0,0:0:0:0:
64,192,82906,1,0,0:0:0:0:
448,192,82906,1,0,0:0:0:0:
320,192,83010,1,0,0:0:0:0:
64,192,83114,1,0,0:0:0:0:
192,192,83114,1,0,0:0:0:0:
320,192,83218,1,0,0:0:0:0:
448,192,83218,1,0,0:0:0:0:
64,192,83322,1,0,0:0:0:0:
192,192,83427,1,0,0:0:0:0:
320,192,83427,1,0,0:0:0:0:
64,192,83531,1,0,0:0:0:0:
448,192,83531,1,0,0:0:0:0:
192,192,83635,1,0,0:0:0:0:
320,192,83635,1,0,0:0:0:0:
64,192,83739,1,0,0:0:0:0:
448,192,83739,1,0,0:0:0:0:
320,192,83843,1,0,0:0:0:0:
64,192,83947,1,0,0:0:0:0:
192,192,83947,1,0,0:0:0:0:
320,192,84052,1,0,0:0:0:0:
448,192,84052,1,0,0:0:0:0:
64,192,84156,1,0,0:0:0:0:
192,192,84260,1,0,0:0:0:0:
320,192,84260,1,0,0:0:0:0:
64,192,84364,1,0,0:0:0:0:
448,192,84364,1,0,0:0:0:0:
192,192,84468,1,0,0:0:0:0:
320,192,84468,1,0,0:0:0:0:
64,192,84572,1,0,0:0:0:0:
448,192,84572,1,0,0:0:0:0:
320,192,84676,1,0,0:0:0:0:
64,192,84781,1,0,0:0:0:0:
192,192,84781,1,0,0:0:0:0:
320,192,84885,1,0,0:0:0:0:
448,192,84885,1,0,0:0:0:0:
64,192,84989,1,0,0:0:0:0:
192,192,85093,1,0,0:0:0:0:
320,192,85093,1,0,0:0:0:0:
64,192,85197,1,0,0:0:0:0:
448,192,85197,1,0,0:0:0:0:
192,192,85301,1,0,0:0:0:0:
320,192,85301,1,0,0:0:0:0:
64,192,85406,1,0,0:0:0:0:
448,192,85406,1,0,0:0:0:0:
320,192,85510,1,0,0:0:0:0:
64,192,85614,1,0,0:0:0:0:
192,192,85614,1,0,0:0:0:0:
320,192,85718,1,0,0:0:0:0:
448,192,85718,1,0,0:0:0:0:
64,192,85822,1,0,0:0:0:0:
192,192,85926,1,0,0:0:0:0:
320,192,85926,1,0,0:0:0:0:
64,192,86031,1,0,0:0:0:0:
448,192,86031,1,0,0:0:0:0:
192,192,86135,1,0,0:0:0:0:
320,192,86135,1,0,0:0:0:0:
64,192,86239,1,0,0:0:0:0:
448,192,86239,1,0,0:0:0:0:
320,192,86343,1,0,0:0:0:0:
64,192,86447,1,0,0:0:0:0:
192,192,86447,1,0,0:0:0:0:
320,192,86551,1,0,0:0:0:0:
448,192,86551,1,0,0:0:0:0:
192,192,86656,1,0,0:0:0:0:
64,192,86760,1,0,0:0:0:0:
320,192,86760,1,0,0:0:0:0:
192,192,86864,1,0,0:0:0:0:
448,192,86864,1,0,0:0:0:0:
64,192,86968,1,0,0:0:0:0:
320,192,86968,1,0,0:0:0:0:
192,192,87072,1,0,0:0:0:0:
448,192,87072,1,0,0:0:0:0:
320,192,87176,1,0,0:0:0:0:
64,192,87280,1,0,0:0:0:0:
448,192,87280,1,0,0:0:0:0:
192,192,87385,1,0,0:0:0:0:
320,192,87385,1,0,0:0:0:0:
448,192,87489,1,0,0:0:0:0:
64,192,87593,1,0,0:0:0:0:
320,192,87593,1,0,0:0:0:0:
192,192,87697,1,0,0:0:0:0:
448,192,87697,1,0,0:0:0:0:
64,192,87801,1,0,0:0:0:0:
320,192,87801,1,0,0:0:0:0:
192,192,87905,1,0,0:0:0:0:
448,192,87905,1,0,0:0:0:0:
320,192,88010,1,0,0:0:0:0:
64,192,88114,1,0,0:0:0:0:
448,192,88114,1,0,0:0:0:0:
192,192,88218,1,0,0:0:0:0:
320,192,88218,1,0,0:0:0:0:
448,192,88322,1,0,0:0:0:0:
64,192,88426,1,0,0:0:0:0:
320,192,88426,1,0,0:0:0:0:
192,192,88530,1,0,0:0:0:0:
448,192,88530,1,0,0:0:0:0:
64,192,88635,1,0,0:0:0:0:
320,192,88635,1,0,0:0:0:0:
192,192,88739,1,0,0:0:0:0:
448,192,88739,1,0,0:0:0:0:
320,192,88843,1,0,0:0:0:0:
64,192,88947,1,0,0:0:0:0:
448,192,88947,1,0,0:0:0:0:
192,192,89051,1,0,0:0:0:0:
320,192,89051,1,0,0:0:0:0:
448,192,89155,1,0,0:0:0:0:
64,192,89259,1,0,0:0:0:0:
320,192,89259,1,0,0:0:0:0:
192,192,89364,1,0,0:0:0:0:
448,192,89364,1,0,0:0:0:0:
64,192,89468,1,0,0:0:0:0:
320,192,89468,1,0,0:0:0:0:
192,192,89572,1,0,0:0:0:0:
448,192,89572,1,0,0:0:0:0:
320,192,89676,1,0,0:0:0:0:
64,192,89780,1,0,0:0:0:0:
448,192,89780,1,0,0:0:0:0:
192,192,89884,1,0,0:0:0:0:
320,192,89884,1,0,0:0:0:0:
448,192,89989,1,0,0:0:0:0:
64,192,90093,1,0,0:0:0:0:
320,192,90093,1,0,0:0:0:0:
192,192,90197,1,0,0:0:0:0:
448,192,90197,1,0,0:0:0:0:
64,192,90301,1,0,0:0:0:0:
320,192,90301,1,0,0:0:0:0:
192,192,90405,1,0,0:0:0:0:
448,192,90405,1,0,0:0:0:0:
320,192,90509,1,0,0:0:0:0:
64,192,90614,1,0,0:0:0:0:
448,192,90614,1,0,0:0:0:0:
192,192,90718,1,0,0:0:0:0:
320,192,90718,1,0,0:0:0:0:
448,192,90822,1,0,0:0:0:0:
64,192,90926,1,0,0:0:0:0:
320,192,90926,1,0,0:0:0:0:
192,192,91030,1,0,0:0:0:0:
448,192,91030,1,0,0:0:0:0:
64,192,91134,1,0,0:0:0:0:
320,192,91134,1,0,0:0:0:0:
192,192,91239,1,0,0:0:0:0:
448,192,91239,1,0,0:0:0:0:
320,192,91343,1,0,0:0:0:0:
64,192,91447,1,0,0:0:0:0:
448,192,91447,1,0,0:0:0:0:
192,192,91551,1,0,0:0:0:0:
320,192,91551,1,0,0:0:0:0:
448,192,91655,1,0,0:0:0:0:
64,192,91759,1,0,0:0:0:0:
320,192,91759,1,0,0:0:0:0:
192,192,91863,1,0,0:0:0:0:
448,192,91863,1,0,0:0:0:0:
64,192,91968,1,0,0:0:0:0:
320,192,91968,1,0,0:0:0:0:
192,192,92072,1,0,0:0:0:0:
448,192,92072,1,0,0:0:0:0:
320,192,92176,1,0,0:0:0:0:
64,192,92280,1,0,0:0:0:0:
448,192,92280,1,0,0:0:0:0:
192,192,92384,1,0,0:0:0:0:
320,192,92384,1,0,0:0:0:0:
64,192,92488,1,0,0:0:0:0:
320,192,92593,1,0,0:0:0:0:
448,192,92593,1,0,0:0:0:0:
64,192,92697,1,0,0:0:0:0:
192,192,92697,1,0,0:0:0:0:
320,192,92801,1,0,0:0:0:0:
448,192,92801,1,0,0:0:0:0:
64,192,92905,1,0,0:0:0:0:
192,192,92905,1,0,0:0:0:0:
192,192,93113,1,0,0:0:0:0:
320,192,93113,1,0,0:0:0:0:
64,192,93218,1,0,0:0:0:0:
448,192,93218,1,0,0:0:0:0:
192,192,93426,1,0,0:0:0:0:
320,192,93426,1,0,0:0:0:0:
64,192,93530,1,0,0:0:0:0:
448,192,93530,1,0,0:0:0:0:
192,192,93634,1,0,0:0:0:0:
320,192,93634,1,0,0:0:0:0:
64,192,93738,1,0,0:0:0:0:
448,192,93738,1,0,0:0:0:0:
192,192,93843,1,0,0:0:0:0:
64,192,93947,1,0,0:0:0:0:
320,192,93947,1,0,0:0:0:0:
192,192,94051,1,0,0:0:0:0:
448,192,94051,1,0,0:0:0:0:
64,192,94155,1,0,0:0:0:0:
192,192,94259,1,0,0:0:0:0:
320,192,94259,1,0,0:0:0:0:
64,192,94363,1,0,0:0:0:0:
448,192,94363,1,0,0:0:0:0:
192,192,94467,1,0,0:0:0:0:
320,192,94467,1,0,0:0:0:0:
64,192,94572,1,0,0:0:0:0:
448,192,94572,1,0,0:0:0:0:
192,192,94676,1,0,0:0:0:0:
64,192,94780,1,0,0:0:0:0:
320,192,94780,1,0,0:0:0:0:
192,192,94884,1,0,0:0:0:0:
448,192,94884,1,0,0:0:0:0:
64,192,94988,1,0,0:0:0:0:
192,192,95092,1,0,0:0:0:0:
320,192,95092,1,0,0:0:0:0:
64,192,95197,1,0,0:0:0:0:
448,192,95197,1,0,0:0:0:0:
192,192,95301,1,0,0:0:0:0:
320,192,95301,1,0,0:0:0:0:
64,192,95405,1,0,0:0:0:0:
448,192,95405,1,0,0:0:0:0:
192,192,95509,1,0,0:0:0:0:
64,192,95613,1,0,0:0:0:0:
320,192,95613,1,0,0:0:0:0:
192,192,95717,1,0,0:0:0:0:
448,192,95717,1,0,0:0:0:0:
64,192,95822,1,0,0:0:0:0:
192,192,95926,1,0,0:0:0:0:
320,192,95926,1,0,0:0:0:0:
64,192,96030,1,0,0:0:0:0:
448,192,96030,1,0,0:0:0:0:
192,192,96134,1,0,0:0:0:0:
320,192,96134,1,0,0:0:0:0:
64,192,96238,1,0,0:0:0:0:
448,192,96238,1,0,0:0:0:0:
192,192,96342,1,0,0:0:0:0:
64,192,96446,1,0,0:0:0:0:
320,192,96446,1,0,0:0:0:0:
192,192,96551,1,0,0:0:0:0:
448,192,96551,1,0,0:0:0:0:
64,192,96655,1,0,0:0:0:0:
192,192,96759,1,0,0:0:0:0:
320,192,96759,1,0,0:0:0:0:
64,192,96863,1,0,0:0:0:0:
448,192,96863,1,0,0:0:0:0:
192,192,96967,1,0,0:0:0:0:
320,192,96967,1,0,0:0:0:0:
64,192,97071,1,0,0:0:0:0:
448,192,97071,1,0,0:0:0:0:
192,192,97176,1,0,0:0:0:0:
64,192,97280,1,0,0:0:0:0:
320,192,97280,1,0,0:0:0:0:
192,192,97384,1,0,0:0:0:0:
448,192,97384,1,0,0:0:0:0:
64,192,97488,1,0,0:0:0:0:
192,192,97592,1,0,0:0:0:0:
320,192,97592,1,0,0:0:0:0:
64,192,97696,1,0,0:0:0:0:
448,192,97696,1,0,0:0:0:0:
192,192,97801,1,0,0:0:0:0:
320,192,97801,1,0,0:0:0:0:
64,192,97905,1,0,0:0:0:0:
448,192,97905,1,0,0:0:0:0:
192,192,98009,1,0,0:0:0:0:
64,192,98113,1,0,0:0:0:0:
320,192,98113,1,0,0:0:0:0:
192,192,98217,1,0,0:0:0:0:
448,192,98217,1,0,0:0:0:0:
64,192,98321,1,0,0:0:0:0:
192,192,98426,1,0,0:0:0:0:
320,192,98426,1,0,0:0:0:0:
64,192,98530,1,0,0:0:0:0:
448,192,98530,1,0,0:0:0:0:
192,192,98634,1,0,0:0:0:0:
320,192,98634,1,0,0:0:0:0:
64,192,98738,1,0,0:0:0:0:
448,192,98738,1,0,0:0:0:0:
192,192,98842,1,0,0:0:0:0:
64,192,98946,1,0,0:0:0:0:
320,192,98946,1,0,0:0:0:0:
192,192,99050,1,0,0:0:0:0:
448,192,99050,1,0,0:0:0:0:
64,192,99155,1,0,0:0:0:0:
192,192,99259,1,0,0:0:0:0:
320,192,99259,1,0,0:0:0:0:
64,192,99363,1,0,0:0:0:0:
448,192,99363,1,0,0:0:0:0:
192,192,99467,1,0,0:0:0:0:
320,192,99467,1,0,0:0:0:0:
64,192,99571,1,0,0:0:0:0:
448,192,99571,1,0,0:0:0:0:
192,192,99675,1,0,0:0:0:0:
64,192,99780,1,0,0:0:0:0:
320,192,99780,1,0,0:0:0:0:
192,192,99884,1,0,0:0:0:0:
448,192,99884,1,0,0:0:0:0:
64,192,99988,1,0,0:0:0:0:
320,192,100092,1,0,0:0:0:0:
448,192,100092,1,0,0:0:0:0:
64,192,100196,1,0,0:0:0:0:
192,192,100196,1,0,0:0:0:0:
320,192,100300,1,0,0:0:0:0:
448,192,100300,1,0,0:0:0:0:
64,192,100405,1,0,0:0:0:0:
192,192,100405,1,0,0:0:0:0:
448,192,100509,1,0,0:0:0:0:
64,192,100613,1,0,0:0:0:0:
320,192,100613,1,0,0:0:0:0:
192,192,100717,1,0,0:0:0:0:
448,192,100717,1,0,0:0:0:0:
64,192,100821,1,0,0:0:0:0:
320,192,100925,1,0,0:0:0:0:
448,192,100925,1,0,0:0:0:0:
64,192,101030,1,0,0:0:0:0:
192,192,101030,1,0,0:0:0:0:
320,192,101134,1,0,0:0:0:0:
448,192,101134,1,0,0:0:0:0:
64,192,101238,1,0,0:0:0:0:
192,192,101238,1,0,0:0:0:0:
448,192,101342,1,0,0:0:0:0:
64,192,101446,1,0,0:0:0:0:
320,192,101446,1,0,0:0:0:0:
192,192,101550,1,0,0:0:0:0:
448,192,101550,1,0,0:0:0:0:
64,192,101654,1,0,0:0:0:0:
320,192,101759,1,0,0:0:0:0:
448,192,101759,1,0,0:0:0:0:
64,192,101863,1,0,0:0:0:0:
192,192,101863,1,0,0:0:0:0:
320,192,101967,1,0,0:0:0:0:
448,192,101967,1,0,0:0:0:0:
64,192,102071,1,0,0:0:0:0:
192,192,102071,1,0,0:0:0:0:
448,192,102175,1,0,0:0:0:0:
64,192,102279,1,0,0:0:0:0:
320,192,102279,1,0,0:0:0:0:
192,192,102384,1,0,0:0:0:0:
448,192,102384,1,0,0:0:0:0:
64,192,102488,1,0,0:0:0:0:
320,192,102592,1,0,0:0:0:0:
448,192,102592,1,0,0:0:0:0:
64,192,102696,1,0,0:0:0:0:
192,192,102696,1,0,0:0:0:0:
320,192,102800,1,0,0:0:0:0:
448,192,102800,1,0,0:0:0:0:
64,192,102904,1,0,0:0:0:0:
192,192,102904,1,0,0:0:0:0:
448,192,103009,1,0,0:0:0:0:
64,192,103113,1,0,0:0:0:0:
320,192,103113,1,0,0:0:0:0:
192,192,103217,1,0,0:0:0:0:
448,192,103217,1,0,0:0:0:0:
64,192,103321,1,0,0:0:0:0:
320,192,103425,1,0,0:0:0:0:
448,192,103425,1,0,0:0:0:0:
64,192,103529,1,0,0:0:0:0:
192,192,103529,1,0,0:0:0:0:
320,192,103633,1,0,0:0:0:0:
448,192,103633,1,0,0:0:0:0:
64,192,103738,1,0,0:0:0:0:
192,192,103738,1,0,0:0:0:0:
448,192,103842,1,0,0:0:0:0:
64,192,103946,1,0,0:0:0:0:
320,192,103946,1,0,0:0:0:0:
192,192,104050,1,0,0:0:0:0:
448,192,104050,1,0,0:0:0:0:
64,192,104154,1,0,0:0:0:0:
320,192,104258,1,0,0:0:0:0:
448,192,104258,1,0,0:0:0:0:
64,192,104363,1,0,0:0:0:0:
192,192,104363,1,0,0:0:0:0:
320,192,104467,1,0,0:0:0:0:
448,192,104467,1,0,0:0:0:0:
64,192,104571,1,0,0:0:0:0:
192,192,104571,1,0,0:0:0:0:
448,192,104675,1,0,0:0:0:0:
64,192,104779,1,0,0:0:0:0:
320,192,104779,1,0,0:0:0:0:
192,192,104883,1,0,0:0:0:0:
448,192,104883,1,0,0:0:0:0:
64,192,104988,1,0,0:0:0:0:
320,192,105092,1,0,0:0:0:0:
448,192,105092,1,0,0:0:0:0:
64,192,105196,1,0,0:0:0:0:
192,192,105196,1,0,0:0:0:0:
320,192,105300,1,0,0:0:0:0:
448,192,105300,1,0,0:0:0:0:
64,192,105404,1,0,0:0:0:0:
192,192,105404,1,0,0:0:0:0:
448,192,105508,1,0,0:0:0:0:
64,192,105613,1,0,0:0:0:0:
320,192,105613,1,0,0:0:0:0:
192,192,105717,1,0,0:0:0:0:
448,192,105717,1,0,0:0:0:0:
320,192,105925,1,0,0:0:0:0:
448,192,105925,1,0,0:0:0:0:
64,192,106029,1,0,0:0:0:0:
192,192,106029,1,0,0:0:0:0:
320,192,106133,1,0,0:0:0:0:
448,192,106133,1,0,0:0:0:0:
192,192,106237,1,0,0:0:0:0:
448,192,106342,1,0,0:0:0:0:
64,192,106446,1,0,0:0:0:0:
320,192,106446,1,0,0:0:0:0:
192,192,106550,1,0,0:0:0:0:
448,192,106550,1,0,0:0:0:0:
320,192,106758,1,0,0:0:0:0:
448,192,106758,1,0,0:0:0:0:
64,192,106862,1,0,0:0:0:0:
192,192,106862,1,0,0:0:0:0:
320,192,106967,1,0,0:0:0:0:
448,192,106967,1,0,0:0:0:0:
64,192,107071,128,0,108737:0:0:0:0:
192,192,107071,1,0,0:0:0:0:
448,192,107383,1,0,0:0:0:0:
192,192,107696,1,0,0:0:0:0:
320,192,107696,1,0,0:0:0:0:
192,192,108112,1,0,0:0:0:0:
448,192,108112,1,0,0:0:0:0:
192,192,108737,128,0,110404:0:0:0:0:
320,192,108737,1,0,0:0:0:0:
448,192,108737,1,0,0:0:0:0:
448,192,109050,1,0,0:0:0:0:
64,192,109362,1,0,0:0:0:0:
320,192,109362,1,0,0:0:0:0:
320,192,109779,1,0,0:0:0:0:
448,192,109779,1,0,0:0:0:0:
64,192,110404,1,0,0:0:0:0:
320,192,110404,128,0,112070:0:0:0:0:
448,192,110404,1,0,0:0:0:0:
448,192,110716,1,0,0:0:0:0:
64,192,111029,1,0,0:0:0:0:
192,192,111029,1,0,0:0:0:0:
192,192,111445,1,0,0:0:0:0:
448,192,111445,1,0,0:0:0:0:
64,192,112070,1,0,0:0:0:0:
192,192,112070,1,0,0:0:0:0:
448,192,112070,128,0,113737:0:0:0:0:
320,192,112383,1,0,0:0:0:0:
64,192,112695,1,0,0:0:0:0:
320,192,112695,1,0,0:0:0:0:
64,192,113737,128,0,115404:0:0:0:0:
192,192,113737,1,0,0:0:0:0:
320,192,113737,1,0,0:0:0:0:
448,192,114049,1,0,0:0:0:0:
192,192,114362,1,0,0:0:0:0:
448,192,114362,1,0,0:0:0:0:
320,192,114779,1,0,0:0:0:0:
448,192,114779,1,0,0:0:0:0:
192,192,115404,128,0,117070:0:0:0:0:
320,192,115404,1,0,0:0:0:0:
448,192,115404,1,0,0:0:0:0:
448,192,115716,1,0,0:0:0:0:
64,192,116028,1,0,0:0:0:0:
320,192,116028,1,0,0:0:0:0:
320,192,116445,1,0,0:0:0:0:
448,192,116445,1,0,0:0:0:0:
64,192,117070,1,0,0:0:0:0:
320,192,117070,128,0,118737:0:0:0:0:
448,192,117070,1,0,0:0:0:0:
448,192,117383,1,0,0:0:0:0:
64,192,117695,1,0,0:0:0:0:
192,192,117695,1,0,0:0:0:0:
192,192,118112,1,0,0:0:0:0:
448,192,118112,1,0,0:0:0:0:
64,192,118737,1,0,0:0:0:0:
192,192,118737,1,0,0:0:0:0:
448,192,118737,128,0,120403:0:0:0:0:
320,192,119049,1,0,0:0:0:0:
64,192,119362,1,0,0:0:0:0:
192,192,119362,1,0,0:0:0:0:
320,192,119362,1,0,0:0:0:0:
320,192,119778,1,0,0:0:0:0:
192,192,119987,1,0,0:0:0:0:
64,192,120195,1,0,0:0:0:0:
64,192,120403,128,0,122070:0:0:0:0:
192,192,120403,1,0,0:0:0:0:
320,192,120403,1,0,0:0:0:0:
448,192,120507,1,0,0:0:0:0:
192,192,120611,1,0,0:0:0:0:
320,192,120716,1,0,0:0:0:0:
448,192,120716,1,0,0:0:0:0:
192,192,120820,1,0,0:0:0:0:
448,192,120924,1,0,0:0:0:0:
192,192,121028,1,0,0:0:0:0:
320,192,121028,1,0,0:0:0:0:
448,192,121132,1,0,0:0:0:0:
192,192,121236,1,0,0:0:0:0:
320,192,121341,1,0,0:0:0:0:
192,192,121445,1,0,0:0:0:0:
448,192,121445,1,0,0:0:0:0:
320,192,121549,1,0,0:0:0:0:
192,192,121653,1,0,0:0:0:0:
320,192,121757,1,0,0:0:0:0:
448,192,121861,1,0,0:0:0:0:
320,192,121966,1,0,0:0:0:0:
192,192,122070,128,0,123736:0:0:0:0:
448,192,122070,1,0,0:0:0:0:
320,192,122174,1,0,0:0:0:0:
64,192,122278,1,0,0:0:0:0:
320,192,122382,1,0,0:0:0:0:
448,192,122382,1,0,0:0:0:0:
64,192,122486,1,0,0:0:0:0:
448,192,122591,1,0,0:0:0:0:
64,192,122695,1,0,0:0:0:0:
320,192,122695,1,0,0:0:0:0:
448,192,122799,1,0,0:0:0:0:
320,192,122903,1,0,0:0:0:0:
64,192,123007,1,0,0:0:0:0:
320,192,123111,1,0,0:0:0:0:
448,192,123111,1,0,0:0:0:0:
64,192,123215,1,0,0:0:0:0:
448,192,123320,1,0,0:0:0:0:
320,192,123424,1,0,0:0:0:0:
64,192,123528,1,0,0:0:0:0:
448,192,123632,1,0,0:0:0:0:
64,192,123736,1,0,0:0:0:0:
320,192,123736,128,0,125403:0:0:0:0:
192,192,123840,1,0,0:0:0:0:
64,192,123945,1,0,0:0:0:0:
192,192,124049,1,0,0:0:0:0:
448,192,124049,1,0,0:0:0:0:
64,192,124153,1,0,0:0:0:0:
448,192,124257,1,0,0:0:0:0:
64,192,124361,1,0,0:0:0:0:
192,192,124361,1,0,0:0:0:0:
448,192,124465,1,0,0:0:0:0:
192,192,124570,1,0,0:0:0:0:
64,192,124674,1,0,0:0:0:0:
192,192,124778,1,0,0:0:0:0:
448,192,124778,1,0,0:0:0:0:
64,192,124882,1,0,0:0:0:0:
448,192,124986,1,0,0:0:0:0:
192,192,125090,1,0,0:0:0:0:
64,192,125195,1,0,0:0:0:0:
192,192,125299,1,0,0:0:0:0:
64,192,125403,1,0,0:0:0:0:
448,192,125403,128,0,127069:0:0:0:0:
192,192,125507,1,0,0:0:0:0:
64,192,125611,1,0,0:0:0:0:
192,192,125715,1,0,0:0:0:0:
320,192,125715,1,0,0:0:0:0:
64,192,125819,1,0,0:0:0:0:
192,192,125924,1,0,0:0:0:0:
64,192,126028,1,0,0:0:0:0:
320,192,126028,1,0,0:0:0:0:
192,192,126132,1,0,0:0:0:0:
320,192,126236,1,0,0:0:0:0:
64,192,126340,1,0,0:0:0:0:
320,192,126444,1,0,0:0:0:0:
192,192,126549,1,0,0:0:0:0:
64,192,126653,1,0,0:0:0:0:
320,192,126757,1,0,0:0:0:0:
64,192,126861,1,0,0:0:0:0:
320,192,126965,1,0,0:0:0:0:
64,192,127069,128,0,128736:0:0:0:0:
192,192,127069,1,0,0:0:0:0:
320,192,127174,1,0,0:0:0:0:
448,192,127278,1,0,0:0:0:0:
192,192,127382,1,0,0:0:0:0:
320,192,127382,1,0,0:0:0:0:
448,192,127486,1,0,0:0:0:0:
320,192,127590,1,0,0:0:0:0:
192,192,127694,1,0,0:0:0:0:
448,192,127694,1,0,0:0:0:0:
320,192,127798,1,0,0:0:0:0:
192,192,127903,1,0,0:0:0:0:
448,192,128007,1,0,0:0:0:0:
192,192,128111,1,0,0:0:0:0:
320,192,128111,1,0,0:0:0:0:
448,192,128215,1,0,0:0:0:0:
320,192,128319,1,0,0:0:0:0:
192,192,128423,1,0,0:0:0:0:
448,192,128528,1,0,0:0:0:0:
320,192,128632,1,0,0:0:0:0:
192,192,128736,128,0,130402:0:0:0:0:
448,192,128736,1,0,0:0:0:0:
320,192,128840,1,0,0:0:0:0:
64,192,128944,1,0,0:0:0:0:
320,192,129048,1,0,0:0:0:0:
448,192,129048,1,0,0:0:0:0:
64,192,129153,1,0,0:0:0:0:
320,192,129257,1,0,0:0:0:0:
64,192,129361,1,0,0:0:0:0:
448,192,129361,1,0,0:0:0:0:
320,192,129465,1,0,0:0:0:0:
64,192,129569,1,0,0:0:0:0:
448,192,129673,1,0,0:0:0:0:
64,192,129778,1,0,0:0:0:0:
320,192,129778,1,0,0:0:0:0:
448,192,129882,1,0,0:0:0:0:
320,192,129986,1,0,0:0:0:0:
64,192,130090,1,0,0:0:0:0:
448,192,130194,1,0,0:0:0:0:
64,192,130298,1,0,0:0:0:0:
320,192,130402,128,0,132069:0:0:0:0:
448,192,130402,1,0,0:0:0:0:
64,192,130507,1,0,0:0:0:0:
192,192,130611,1,0,0:0:0:0:
64,192,130715,1,0,0:0:0:0:
448,192,130715,1,0,0:0:0:0:
192,192,130819,1,0,0:0:0:0:
448,192,130923,1,0,0:0:0:0:
64,192,131027,1,0,0:0:0:0:
192,192,131027,1,0,0:0:0:0:
448,192,131132,1,0,0:0:0:0:
64,192,131236,1,0,0:0:0:0:
192,192,131236,1,0,0:0:0:0:
448,192,131340,1,0,0:0:0:0:
64,192,131444,1,0,0:0:0:0:
192,192,131444,1,0,0:0:0:0:
448,192,131548,1,0,0:0:0:0:
64,192,131652,1,0,0:0:0:0:
192,192,131652,1,0,0:0:0:0:
448,192,131757,1,0,0:0:0:0:
64,192,131861,1,0,0:0:0:0:
192,192,131861,1,0,0:0:0:0:
64,192,132069,1,0,0:0:0:0:
192,192,132069,1,0,0:0:0:0:
448,192,132069,128,0,133736:0:0:0:0:
320,192,132173,1,0,0:0:0:0:
192,192,132277,1,0,0:0:0:0:
64,192,132382,1,0,0:0:0:0:
320,192,132382,1,0,0:0:0:0:
192,192,132486,1,0,0:0:0:0:
320,192,132590,1,0,0:0:0:0:
64,192,132694,1,0,0:0:0:0:
192,192,132694,1,0,0:0:0:0:
320,192,132798,1,0,0:0:0:0:
192,192,132902,1,0,0:0:0:0:
320,192,133006,1,0,0:0:0:0:
64,192,133111,1,0,0:0:0:0:
192,192,133111,1,0,0:0:0:0:
320,192,133215,1,0,0:0:0:0:
64,192,133319,1,0,0:0:0:0:
192,192,133319,1,0,0:0:0:0:
320,192,133423,1,0,0:0:0:0:
64,192,133527,1,0,0:0:0:0:
192,192,133527,1,0,0:0:0:0:
320,192,133631,1,0,0:0:0:0:
64,192,133736,1,0,0:0:0:0:
192,192,133736,1,0,0:0:0:0:
320,192,133840,1,0,0:0:0:0:
448,192,133944,1,0,0:0:0:0:
64,192,134048,1,0,0:0:0:0:
448,192,134152,1,0,0:0:0:0:
320,192,134256,1,0,0:0:0:0:
192,192,134361,1,0,0:0:0:0:
64,192,134465,1,0,0:0:0:0:
192,192,134569,1,0,0:0:0:0:
320,192,134673,1,0,0:0:0:0:
448,192,134777,1,0,0:0:0:0:
64,192,134881,1,0,0:0:0:0:
192,192,134985,1,0,0:0:0:0:
320,192,135090,1,0,0:0:0:0:
64,192,135194,1,0,0:0:0:0:
192,192,135298,1,0,0:0:0:0:
448,192,135402,1,0,0:0:0:0:
320,192,135506,1,0,0:0:0:0:
192,192,135610,1,0,0:0:0:0:
448,192,135715,1,0,0:0:0:0:
320,192,135819,1,0,0:0:0:0:
64,192,135923,1,0,0:0:0:0:
448,192,136027,1,0,0:0:0:0:
192,192,136131,1,0,0:0:0:0:
64,192,136235,1,0,0:0:0:0:
320,192,136340,1,0,0:0:0:0:
192,192,136444,1,0,0:0:0:0:
64,192,136548,1,0,0:0:0:0:
192,192,136652,1,0,0:0:0:0:
320,192,136756,1,0,0:0:0:0:
64,192,136860,1,0,0:0:0:0:
320,192,136965,1,0,0:0:0:0:
192,192,137069,1,0,0:0:0:0:
320,192,137173,1,0,0:0:0:0:
448,192,137277,1,0,0:0:0:0:
64,192,137381,1,0,0:0:0:0:
448,192,137485,1,0,0:0:0:0:
320,192,137589,1,0,0:0:0:0:
192,192,137694,1,0,0:0:0:0:
64,192,137798,1,0,0:0:0:0:
192,192,137902,1,0,0:0:0:0:
320,192,138006,1,0,0:0:0:0:
448,192,138110,1,0,0:0:0:0:
64,192,138214,1,0,0:0:0:0:
192,192,138319,1,0,0:0:0:0:
320,192,138423,1,0,0:0:0:0:
64,192,138527,1,0,0:0:0:0:
192,192,138631,1,0,0:0:0:0:
448,192,138735,1,0,0:0:0:0:
320,192,138839,1,0,0:0:0:0:
192,192,138944,1,0,0:0:0:0:
448,192,139048,1,0,0:0:0:0:
320,192,139152,1,0,0:0:0:0:
64,192,139256,1,0,0:0:0:0:
448,192,139360,1,0,0:0:0:0:
192,192,139464,1,0,0:0:0:0:
64,192,139569,1,0,0:0:0:0:
320,192,139673,1,0,0:0:0:0:
192,192,139777,1,0,0:0:0:0:
64,192,139881,1,0,0:0:0:0:
192,192,139985,1,0,0:0:0:0:
320,192,140089,1,0,0:0:0:0:
64,192,140193,1,0,0:0:0:0:
320,192,140298,1,0,0:0:0:0:
192,192,140402,1,0,0:0:0:0:
320,192,140506,1,0,0:0:0:0:
448,192,140610,1,0,0:0:0:0:
64,192,140714,1,0,0:0:0:0:
448,192,140818,1,0,0:0:0:0:
320,192,140923,1,0,0:0:0:0:
192,192,141027,1,0,0:0:0:0:
64,192,141131,1,0,0:0:0:0:
192,192,141235,1,0,0:0:0:0:
320,192,141339,1,0,0:0:0:0:
448,192,141443,1,0,0:0:0:0:
64,192,141548,1,0,0:0:0:0:
192,192,141652,1,0,0:0:0:0:
320,192,141756,1,0,0:0:0:0:
64,192,141860,1,0,0:0:0:0:
192,192,141964,1,0,0:0:0:0:
448,192,142068,1,0,0:0:0:0:
320,192,142172,1,0,0:0:0:0:
192,192,142277,1,0,0:0:0:0:
448,192,142381,1,0,0:0:0:0:
320,192,142485,1,0,0:0:0:0:
64,192,142589,1,0,0:0:0:0:
448,192,142693,1,0,0:0:0:0:
192,192,142797,1,0,0:0:0:0:
64,192,142902,1,0,0:0:0:0:
320,192,143006,1,0,0:0:0:0:
192,192,143110,1,0,0:0:0:0:
64,192,143214,1,0,0:0:0:0:
192,192,143318,1,0,0:0:0:0:
320,192,143422,1,0,0:0:0:0:
64,192,143527,1,0,0:0:0:0:
320,192,143631,1,0,0:0:0:0:
192,192,143735,1,0,0:0:0:0:
320,192,143839,1,0,0:0:0:0:
448,192,143943,1,0,0:0:0:0:
64,192,144047,1,0,0:0:0:0:
448,192,144152,1,0,0:0:0:0:
320,192,144256,1,0,0:0:0:0:
192,192,144360,1,0,0:0:0:0:
64,192,144464,1,0,0:0:0:0:
192,192,144568,1,0,0:0:0:0:
320,192,144672,1,0,0:0:0:0:
448,192,144776,1,0,0:0:0:0:
64,192,144881,1,0,0:0:0:0:
192,192,144985,1,0,0:0:0:0:
64,192,145089,1,0,0:0:0:0:
192,192,145193,1,0,0:0:0:0:
320,192,145297,1,0,0:0:0:0:
448,192,145401,1,0,0:0:0:0:
64,192,145506,1,0,0:0:0:0:
320,192,145610,1,0,0:0:0:0:
448,192,145714,1,0,0:0:0:0:
64,192,145818,1,0,0:0:0:0:
192,192,145922,1,0,0:0:0:0:
448,192,146026,1,0,0:0:0:0:
64,192,146131,1,0,0:0:0:0:
192,192,146235,1,0,0:0:0:0:
320,192,146339,1,0,0:0:0:0:
64,192,146443,1,0,0:0:0:0:
192,192,146547,1,0,0:0:0:0:
320,192,146651,1,0,0:0:0:0:
64,192,146756,1,0,0:0:0:0:
320,192,146860,1,0,0:0:0:0:
448,192,146964,1,0,0:0:0:0:
64,192,147068,1,0,0:0:0:0:
192,192,147068,1,0,0:0:0:0:
448,192,147172,1,0,0:0:0:0:
448,192,147380,128,0,147589:0:0:0:0:
64,192,147485,1,0,0:0:0:0:
448,192,147693,1,0,0:0:0:0:
64,192,147901,1,0,0:0:0:0:
192,192,147901,1,0,0:0:0:0:
448,192,148005,1,0,0:0:0:0:
448,192,148214,128,0,148422:0:0:0:0:
64,192,148318,1,0,0:0:0:0:
448,192,148526,1,0,0:0:0:0:
64,192,148735,1,0,0:0:0:0:
320,192,148735,1,0,0:0:0:0:
448,192,148839,1,0,0:0:0:0:
448,192,149047,128,0,149255:0:0:0:0:
64,192,149151,1,0,0:0:0:0:
448,192,149359,1,0,0:0:0:0:
64,192,149568,1,0,0:0:0:0:
320,192,149568,1,0,0:0:0:0:
448,192,149672,1,0,0:0:0:0:
320,192,149880,1,0,0:0:0:0:
64,192,149984,1,0,0:0:0:0:
448,192,149984,1,0,0:0:0:0:
192,192,150089,1,0,0:0:0:0:
320,192,150193,1,0,0:0:0:0:
448,192,150297,1,0,0:0:0:0:
64,192,150401,1,0,0:0:0:0:
320,192,150401,1,0,0:0:0:0:
448,192,150505,1,0,0:0:0:0:
448,192,150714,128,0,150922:0:0:0:0:
64,192,150818,1,0,0:0:0:0:
448,192,151026,1,0,0:0:0:0:
64,192,151234,1,0,0:0:0:0:
320,192,151234,1,0,0:0:0:0:
448,192,151339,1,0,0:0:0:0:
448,192,151547,128,0,151755:0:0:0:0:
64,192,151651,1,0,0:0:0:0:
448,192,151859,1,0,0:0:0:0:
320,192,151963,1,0,0:0:0:0:
64,192,152068,1,0,0:0:0:0:
192,192,152068,1,0,0:0:0:0:
320,192,152172,1,0,0:0:0:0:
320,192,152380,128,0,152588:0:0:0:0:
64,192,152484,1,0,0:0:0:0:
320,192,152693,1,0,0:0:0:0:
64,192,152901,1,0,0:0:0:0:
448,192,152901,1,0,0:0:0:0:
320,192,153005,1,0,0:0:0:0:
320,192,153213,128,0,153422:0:0:0:0:
64,192,153318,1,0,0:0:0:0:
320,192,153526,1,0,0:0:0:0:
448,192,153630,1,0,0:0:0:0:
64,192,153734,1,0,0:0:0:0:
320,192,153734,1,0,0:0:0:0:
192,192,153838,1,0,0:0:0:0:
192,192,154047,128,0,154255:0:0:0:0:
192,192,154359,1,0,0:0:0:0:
320,192,154567,1,0,0:0:0:0:
192,192,154672,1,0,0:0:0:0:
192,192,154880,128,0,155088:0:0:0:0:
192,192,155192,1,0,0:0:0:0:
320,192,155401,1,0,0:0:0:0:
64,192,155505,1,0,0:0:0:0:
448,192,155609,1,0,0:0:0:0:
64,192,155713,128,0,155922:0:0:0:0:
448,192,155817,1,0,0:0:0:0:
320,192,155922,1,0,0:0:0:0:
64,192,156026,1,0,0:0:0:0:
448,192,156130,1,0,0:0:0:0:
320,192,156234,1,0,0:0:0:0:
64,192,156338,1,0,0:0:0:0:
448,192,156442,1,0,0:0:0:0:
64,192,156546,128,0,156755:0:0:0:0:
448,192,156651,1,0,0:0:0:0:
320,192,156755,1,0,0:0:0:0:
64,192,156859,1,0,0:0:0:0:
448,192,156963,1,0,0:0:0:0:
192,192,157067,1,0,0:0:0:0:
320,192,157171,1,0,0:0:0:0:
448,192,157276,1,0,0:0:0:0:
320,192,157380,128,0,157588:0:0:0:0:
192,192,157484,1,0,0:0:0:0:
64,192,157588,1,0,0:0:0:0:
320,192,157692,1,0,0:0:0:0:
192,192,157796,1,0,0:0:0:0:
64,192,157901,1,0,0:0:0:0:
320,192,158005,1,0,0:0:0:0:
64,192,158109,1,0,0:0:0:0:
320,192,158213,128,0,158421:0:0:0:0:
192,192,158317,1,0,0:0:0:0:
64,192,158421,1,0,0:0:0:0:
320,192,158526,1,0,0:0:0:0:
448,192,158630,1,0,0:0:0:0:
192,192,158734,1,0,0:0:0:0:
320,192,158734,1,0,0:0:0:0:
64,192,158838,1,0,0:0:0:0:
448,192,158838,1,0,0:0:0:0:
192,192,158942,1,0,0:0:0:0:
64,192,159046,1,0,0:0:0:0:
320,192,159046,1,0,0:0:0:0:
192,192,159150,1,0,0:0:0:0:
448,192,159150,1,0,0:0:0:0:
64,192,159255,1,0,0:0:0:0:
192,192,159359,1,0,0:0:0:0:
448,192,159359,1,0,0:0:0:0:
64,192,159463,1,0,0:0:0:0:
192,192,159567,1,0,0:0:0:0:
320,192,159567,1,0,0:0:0:0:
64,192,159671,1,0,0:0:0:0:
448,192,159671,1,0,0:0:0:0:
192,192,159775,1,0,0:0:0:0:
64,192,159880,1,0,0:0:0:0:
320,192,159880,1,0,0:0:0:0:
192,192,159984,1,0,0:0:0:0:
448,192,159984,1,0,0:0:0:0:
64,192,160088,1,0,0:0:0:0:
192,192,160192,1,0,0:0:0:0:
320,192,160192,128,0,160400:0:0:0:0:
448,192,160192,128,0,160400:0:0:0:0:
64,192,160400,1,0,0:0:0:0:
192,192,160400,1,0,0:0:0:0:
320,192,160505,1,0,0:0:0:0:
448,192,160609,1,0,0:0:0:0:
192,192,160713,1,0,0:0:0:0:
64,192,160817,1,0,0:0:0:0:
448,192,160817,1,0,0:0:0:0:
320,192,160921,1,0,0:0:0:0:
192,192,161025,1,0,0:0:0:0:
448,192,161130,1,0,0:0:0:0:
64,192,161234,1,0,0:0:0:0:
192,192,161234,1,0,0:0:0:0:
320,192,161338,1,0,0:0:0:0:
448,192,161442,1,0,0:0:0:0:
192,192,161546,1,0,0:0:0:0:
64,192,161650,1,0,0:0:0:0:
320,192,161650,1,0,0:0:0:0:
448,192,161754,1,0,0:0:0:0:
192,192,161859,1,0,0:0:0:0:
320,192,161963,1,0,0:0:0:0:
64,192,162067,1,0,0:0:0:0:
448,192,162067,1,0,0:0:0:0:
320,192,162171,1,0,0:0:0:0:
192,192,162275,1,0,0:0:0:0:
448,192,162379,1,0,0:0:0:0:
64,192,162484,1,0,0:0:0:0:
320,192,162484,1,0,0:0:0:0:
192,192,162588,1,0,0:0:0:0:
448,192,162692,1,0,0:0:0:0:
320,192,162796,1,0,0:0:0:0:
64,192,162900,1,0,0:0:0:0:
192,192,162900,1,0,0:0:0:0:
448,192,163004,1,0,0:0:0:0:
320,192,163109,1,0,0:0:0:0:
192,192,163213,1,0,0:0:0:0:
64,192,163317,1,0,0:0:0:0:
320,192,163317,1,0,0:0:0:0:
448,192,163421,1,0,0:0:0:0:
192,192,163525,1,0,0:0:0:0:
320,192,163629,1,0,0:0:0:0:
64,192,163733,1,0,0:0:0:0:
192,192,163733,1,0,0:0:0:0:
320,192,163838,1,0,0:0:0:0:
448,192,163942,1,0,0:0:0:0:
192,192,164046,1,0,0:0:0:0:
64,192,164150,1,0,0:0:0:0:
448,192,164150,1,0,0:0:0:0:
320,192,164254,1,0,0:0:0:0:
192,192,164358,1,0,0:0:0:0:
448,192,164463,1,0,0:0:0:0:
64,192,164567,1,0,0:0:0:0:
192,192,164567,1,0,0:0:0:0:
320,192,164671,1,0,0:0:0:0:
448,192,164775,1,0,0:0:0:0:
192,192,164879,1,0,0:0:0:0:
64,192,164983,1,0,0:0:0:0:
320,192,164983,1,0,0:0:0:0:
448,192,165088,1,0,0:0:0:0:
192,192,165192,1,0,0:0:0:0:
320,192,165296,1,0,0:0:0:0:
64,192,165400,1,0,0:0:0:0:
448,192,165400,1,0,0:0:0:0:
320,192,165504,1,0,0:0:0:0:
192,192,165608,1,0,0:0:0:0:
448,192,165713,1,0,0:0:0:0:
64,192,165817,1,0,0:0:0:0:
320,192,165817,1,0,0:0:0:0:
192,192,165921,1,0,0:0:0:0:
448,192,166025,1,0,0:0:0:0:
320,192,166129,1,0,0:0:0:0:
64,192,166233,1,0,0:0:0:0:
192,192,166233,1,0,0:0:0:0:
448,192,166337,1,0,0:0:0:0:
320,192,166442,1,0,0:0:0:0:
192,192,166546,1,0,0:0:0:0:
64,192,166650,1,0,0:0:0:0:
320,192,166650,1,0,0:0:0:0:
448,192,166754,1,0,0:0:0:0:
192,192,166858,1,0,0:0:0:0:
320,192,166962,1,0,0:0:0:0:
64,192,167067,1,0,0:0:0:0:
192,192,167067,1,0,0:0:0:0:
320,192,167171,1,0,0:0:0:0:
448,192,167275,1,0,0:0:0:0:
192,192,167379,1,0,0:0:0:0:
64,192,167483,1,0,0:0:0:0:
448,192,167483,1,0,0:0:0:0:
320,192,167587,1,0,0:0:0:0:
192,192,167692,1,0,0:0:0:0:
448,192,167796,1,0,0:0:0:0:
64,192,167900,1,0,0:0:0:0:
192,192,167900,1,0,0:0:0:0:
320,192,168004,1,0,0:0:0:0:
448,192,168108,1,0,0:0:0:0:
192,192,168212,1,0,0:0:0:0:
64,192,168317,1,0,0:0:0:0:
320,192,168317,1,0,0:0:0:0:
448,192,168421,1,0,0:0:0:0:
192,192,168525,1,0,0:0:0:0:
320,192,168629,1,0,0:0:0:0:
64,192,168733,1,0,0:0:0:0:
448,192,168733,1,0,0:0:0:0:
320,192,168837,1,0,0:0:0:0:
192,192,168941,1,0,0:0:0:0:
448,192,169046,1,0,0:0:0:0:
64,192,169150,1,0,0:0:0:0:
320,192,169150,1,0,0:0:0:0:
192,192,169254,1,0,0:0:0:0:
448,192,169358,1,0,0:0:0:0:
320,192,169462,1,0,0:0:0:0:
64,192,169566,1,0,0:0:0:0:
192,192,169566,1,0,0:0:0:0:
448,192,169671,1,0,0:0:0:0:
320,192,169775,1,0,0:0:0:0:
192,192,169879,1,0,0:0:0:0:
64,192,169983,1,0,0:0:0:0:
320,192,169983,1,0,0:0:0:0:
448,192,170087,1,0,0:0:0:0:
192,192,170191,1,0,0:0:0:0:
320,192,170296,1,0,0:0:0:0:
64,192,170400,1,0,0:0:0:0:
192,192,170400,1,0,0:0:0:0:
320,192,170504,1,0,0:0:0:0:
448,192,170608,1,0,0:0:0:0:
192,192,170712,1,0,0:0:0:0:
64,192,170816,1,0,0:0:0:0:
448,192,170816,1,0,0:0:0:0:
320,192,170920,1,0,0:0:0:0:
192,192,171025,1,0,0:0:0:0:
448,192,171129,1,0,0:0:0:0:
64,192,171233,1,0,0:0:0:0:
192,192,171233,1,0,0:0:0:0:
320,192,171337,1,0,0:0:0:0:
448,192,171441,1,0,0:0:0:0:
320,192,171545,1,0,0:0:0:0:
64,192,171650,1,0,0:0:0:0:
448,192,171650,1,0,0:0:0:0:
320,192,171754,1,0,0:0:0:0:
192,192,171858,1,0,0:0:0:0:
320,192,171962,1,0,0:0:0:0:
64,192,172066,1,0,0:0:0:0:
448,192,172066,1,0,0:0:0:0:
192,192,172170,1,0,0:0:0:0:
320,192,172275,1,0,0:0:0:0:
448,192,172379,1,0,0:0:0:0:
64,192,172483,1,0,0:0:0:0:
192,192,172483,1,0,0:0:0:0:
320,192,172587,1,0,0:0:0:0:
448,192,172691,1,0,0:0:0:0:
192,192,172795,1,0,0:0:0:0:
64,192,172900,1,0,0:0:0:0:
320,192,172900,1,0,0:0:0:0:
448,192,173004,1,0,0:0:0:0:
64,192,173108,1,0,0:0:0:0:
192,192,173108,1,0,0:0:0:0:
320,192,173212,1,0,0:0:0:0:
448,192,173316,1,0,0:0:0:0:
192,192,173420,1,0,0:0:0:0:
64,192,173524,1,0,0:0:0:0:
320,192,173524,1,0,0:0:0:0:
448,192,173629,1,0,0:0:0:0:
64,192,173733,1,0,0:0:0:0:
320,192,173733,1,0,0:0:0:0:
192,192,173837,1,0,0:0:0:0:
448,192,173837,1,0,0:0:0:0:
64,192,173941,1,0,0:0:0:0:
192,192,174045,1,0,0:0:0:0:
320,192,174045,1,0,0:0:0:0:
64,192,174149,1,0,0:0:0:0:
448,192,174149,1,0,0:0:0:0:
192,192,174254,1,0,0:0:0:0:
64,192,174358,1,0,0:0:0:0:
448,192,174358,1,0,0:0:0:0:
192,192,174462,1,0,0:0:0:0:
64,192,174566,1,0,0:0:0:0:
320,192,174566,1,0,0:0:0:0:
192,192,174670,1,0,0:0:0:0:
448,192,174670,1,0,0:0:0:0:
64,192,174774,1,0,0:0:0:0:
192,192,174879,1,0,0:0:0:0:
320,192,174879,1,0,0:0:0:0:
64,192,174983,1,0,0:0:0:0:
448,192,174983,1,0,0:0:0:0:
192,192,175087,1,0,0:0:0:0:
64,192,175191,1,0,0:0:0:0:
448,192,175191,1,0,0:0:0:0:
192,192,175295,1,0,0:0:0:0:
64,192,175399,1,0,0:0:0:0:
448,192,175399,1,0,0:0:0:0:
192,192,175504,1,0,0:0:0:0:
320,192,175504,1,0,0:0:0:0:
64,192,175608,1,0,0:0:0:0:
192,192,175712,1,0,0:0:0:0:
448,192,175712,1,0,0:0:0:0:
64,192,175816,1,0,0:0:0:0:
320,192,175816,1,0,0:0:0:0:
192,192,175920,1,0,0:0:0:0:
64,192,176024,1,0,0:0:0:0:
320,192,176024,1,0,0:0:0:0:
192,192,176128,1,0,0:0:0:0:
64,192,176233,1,0,0:0:0:0:
448,192,176233,1,0,0:0:0:0:
192,192,176337,1,0,0:0:0:0:
320,192,176337,1,0,0:0:0:0:
64,192,176441,1,0,0:0:0:0:
192,192,176545,1,0,0:0:0:0:
448,192,176545,1,0,0:0:0:0:
64,192,176649,1,0,0:0:0:0:
320,192,176649,1,0,0:0:0:0:
192,192,176753,1,0,0:0:0:0:
448,192,176753,1,0,0:0:0:0:
64,192,176858,1,0,0:0:0:0:
320,192,176858,1,0,0:0:0:0:
448,192,176962,1,0,0:0:0:0:
192,192,177066,1,0,0:0:0:0:
320,192,177066,1,0,0:0:0:0:
64,192,177170,1,0,0:0:0:0:
448,192,177170,1,0,0:0:0:0:
320,192,177274,1,0,0:0:0:0:
64,192,177378,1,0,0:0:0:0:
192,192,177378,1,0,0:0:0:0:
320,192,177483,1,0,0:0:0:0:
448,192,177483,1,0,0:0:0:0:
64,192,177587,1,0,0:0:0:0:
320,192,177691,1,0,0:0:0:0:
448,192,177691,1,0,0:0:0:0:
64,192,177795,1,0,0:0:0:0:
192,192,177899,1,0,0:0:0:0:
320,192,177899,1,0,0:0:0:0:
64,192,178003,1,0,0:0:0:0:
448,192,178003,1,0,0:0:0:0:
320,192,178107,1,0,0:0:0:0:
64,192,178212,1,0,0:0:0:0:
192,192,178212,1,0,0:0:0:0:
320,192,178316,1,0,0:0:0:0:
448,192,178316,1,0,0:0:0:0:
64,192,178420,1,0,0:0:0:0:
192,192,178524,1,0,0:0:0:0:
320,192,178524,1,0,0:0:0:0:
448,192,178628,1,0,0:0:0:0:
64,192,178732,1,0,0:0:0:0:
192,192,178732,1,0,0:0:0:0:
320,192,178837,1,0,0:0:0:0:
448,192,178837,1,0,0:0:0:0:
192,192,178941,1,0,0:0:0:0:
64,192,179045,1,0,0:0:0:0:
320,192,179045,1,0,0:0:0:0:
192,192,179149,1,0,0:0:0:0:
448,192,179149,1,0,0:0:0:0:
320,192,179253,1,0,0:0:0:0:
192,192,179357,1,0,0:0:0:0:
448,192,179357,1,0,0:0:0:0:
320,192,179462,1,0,0:0:0:0:
64,192,179566,1,0,0:0:0:0:
192,192,179566,1,0,0:0:0:0:
320,192,179670,1,0,0:0:0:0:
448,192,179670,1,0,0:0:0:0:
192,192,179774,1,0,0:0:0:0:
64,192,179878,1,0,0:0:0:0:
320,192,179878,1,0,0:0:0:0:
192,192,179982,1,0,0:0:0:0:
448,192,179982,1,0,0:0:0:0:
320,192,180087,1,0,0:0:0:0:
64,192,180191,1,0,0:0:0:0:
448,192,180191,1,0,0:0:0:0:
192,192,180295,1,0,0:0:0:0:
64,192,180399,1,0,0:0:0:0:
320,192,180399,1,0,0:0:0:0:
192,192,180503,1,0,0:0:0:0:
448,192,180503,1,0,0:0:0:0:
64,192,180607,1,0,0:0:0:0:
192,192,180711,1,0,0:0:0:0:
320,192,180711,1,0,0:0:0:0:
64,192,180816,1,0,0:0:0:0:
448,192,180816,1,0,0:0:0:0:
192,192,180920,1,0,0:0:0:0:
64,192,181024,1,0,0:0:0:0:
448,192,181024,1,0,0:0:0:0:
192,192,181128,1,0,0:0:0:0:
64,192,181232,1,0,0:0:0:0:
320,192,181232,1,0,0:0:0:0:
192,192,181336,1,0,0:0:0:0:
448,192,181336,1,0,0:0:0:0:
64,192,181441,1,0,0:0:0:0:
192,192,181545,1,0,0:0:0:0:
320,192,181545,1,0,0:0:0:0:
64,192,181649,1,0,0:0:0:0:
448,192,181649,1,0,0:0:0:0:
192,192,181753,1,0,0:0:0:0:
64,192,181857,1,0,0:0:0:0:
448,192,181857,1,0,0:0:0:0:
192,192,181961,1,0,0:0:0:0:
64,192,182066,1,0,0:0:0:0:
448,192,182066,1,0,0:0:0:0:
192,192,182170,1,0,0:0:0:0:
320,192,182170,1,0,0:0:0:0:
64,192,182274,1,0,0:0:0:0:
192,192,182378,1,0,0:0:0:0:
448,192,182378,1,0,0:0:0:0:
64,192,182482,1,0,0:0:0:0:
320,192,182482,1,0,0:0:0:0:
192,192,182586,1,0,0:0:0:0:
64,192,182691,1,0,0:0:0:0:
320,192,182691,1,0,0:0:0:0:
192,192,182795,1,0,0:0:0:0:
64,192,182899,1,0,0:0:0:0:
448,192,182899,1,0,0:0:0:0:
192,192,183003,1,0,0:0:0:0:
320,192,183003,1,0,0:0:0:0:
64,192,183107,1,0,0:0:0:0:
192,192,183211,1,0,0:0:0:0:
448,192,183211,1,0,0:0:0:0:
64,192,183315,1,0,0:0:0:0:
320,192,183315,1,0,0:0:0:0:
192,192,183420,1,0,0:0:0:0:
64,192,183524,1,0,0:0:0:0:
320,192,183524,1,0,0:0:0:0:
448,192,183628,1,0,0:0:0:0:
192,192,183732,1,0,0:0:0:0:
320,192,183732,1,0,0:0:0:0:
64,192,183836,1,0,0:0:0:0:
448,192,183836,1,0,0:0:0:0:
320,192,183940,1,0,0:0:0:0:
64,192,184045,1,0,0:0:0:0:
192,192,184045,1,0,0:0:0:0:
320,192,184149,1,0,0:0:0:0:
448,192,184149,1,0,0:0:0:0:
64,192,184253,1,0,0:0:0:0:
320,192,184357,1,0,0:0:0:0:
448,192,184357,1,0,0:0:0:0:
64,192,184461,1,0,0:0:0:0:
192,192,184565,1,0,0:0:0:0:
320,192,184565,1,0,0:0:0:0:
64,192,184670,1,0,0:0:0:0:
448,192,184670,1,0,0:0:0:0:
320,192,184774,1,0,0:0:0:0:
64,192,184878,1,0,0:0:0:0:
192,192,184878,1,0,0:0:0:0:
320,192,184982,1,0,0:0:0:0:
448,192,184982,1,0,0:0:0:0:
64,192,185086,1,0,0:0:0:0:
192,192,185190,1,0,0:0:0:0:
320,192,185190,1,0,0:0:0:0:
448,192,185294,1,0,0:0:0:0:
64,192,185399,1,0,0:0:0:0:
192,192,185399,1,0,0:0:0:0:
320,192,185399,1,0,0:0:0:0:
448,192,185503,1,0,0:0:0:0:
320,192,185711,1,0,0:0:0:0:
64,192,185815,1,0,0:0:0:0:
192,192,185815,1,0,0:0:0:0:
448,192,185815,1,0,0:0:0:0:
320,192,186024,1,0,0:0:0:0:
64,192,186128,1,0,0:0:0:0:
192,192,186128,1,0,0:0:0:0:
320,192,186232,1,0,0:0:0:0:
64,192,186336,1,0,0:0:0:0:
192,192,186336,1,0,0:0:0:0:
448,192,186336,1,0,0:0:0:0:
64,192,186544,1,0,0:0:0:0:
192,192,186544,1,0,0:0:0:0:
320,192,186544,1,0,0:0:0:0:
64,192,186649,1,0,0:0:0:0:
192,192,186649,1,0,0:0:0:0:
448,192,186649,1,0,0:0:0:0:
64,192,186857,1,0,0:0:0:0:
192,192,186857,1,0,0:0:0:0:
320,192,186857,1,0,0:0:0:0:
64,192,187065,1,0,0:0:0:0:
192,192,187065,1,0,0:0:0:0:
448,192,187065,1,0,0:0:0:0:
320,192,187169,1,0,0:0:0:0:
192,192,187274,1,0,0:0:0:0:
320,192,187378,1,0,0:0:0:0:
448,192,187378,1,0,0:0:0:0:
64,192,187482,1,0,0:0:0:0:
192,192,187482,1,0,0:0:0:0:
320,192,187586,1,0,0:0:0:0:
192,192,187690,1,0,0:0:0:0:
448,192,187690,1,0,0:0:0:0:
320,192,187794,1,0,0:0:0:0:
64,192,187898,1,0,0:0:0:0:
448,192,187898,1,0,0:0:0:0:
320,192,188003,1,0,0:0:0:0:
192,192,188107,1,0,0:0:0:0:
448,192,188107,1,0,0:0:0:0:
320,192,188211,1,0,0:0:0:0:
64,192,188315,1,0,0:0:0:0:
192,192,188315,1,0,0:0:0:0:
320,192,188419,1,0,0:0:0:0:
192,192,188523,1,0,0:0:0:0:
320,192,188628,1,0,0:0:0:0:
64,192,188732,1,0,0:0:0:0:
192,192,188732,1,0,0:0:0:0:
448,192,188732,1,0,0:0:0:0:
320,192,188836,1,0,0:0:0:0:
192,192,188940,1,0,0:0:0:0:
320,192,189044,1,0,0:0:0:0:
448,192,189044,1,0,0:0:0:0:
64,192,189148,1,0,0:0:0:0:
192,192,189148,1,0,0:0:0:0:
448,192,189253,1,0,0:0:0:0:
192,192,189357,1,0,0:0:0:0:
320,192,189357,1,0,0:0:0:0:
448,192,189461,1,0,0:0:0:0:
64,192,189565,1,0,0:0:0:0:
320,192,189565,1,0,0:0:0:0:
448,192,189669,1,0,0:0:0:0:
192,192,189773,1,0,0:0:0:0:
320,192,189773,1,0,0:0:0:0:
448,192,189878,1,0,0:0:0:0:
64,192,189982,1,0,0:0:0:0:
192,192,189982,1,0,0:0:0:0:
448,192,190086,1,0,0:0:0:0:
192,192,190190,1,0,0:0:0:0:
320,192,190294,1,0,0:0:0:0:
64,192,190398,1,0,0:0:0:0:
192,192,190398,1,0,0:0:0:0:
448,192,190398,1,0,0:0:0:0:
320,192,190502,1,0,0:0:0:0:
448,192,190607,1,0,0:0:0:0:
192,192,190711,1,0,0:0:0:0:
320,192,190711,1,0,0:0:0:0:
64,192,190815,1,0,0:0:0:0:
448,192,190815,1,0,0:0:0:0:
320,192,190919,1,0,0:0:0:0:
192,192,191023,1,0,0:0:0:0:
448,192,191023,1,0,0:0:0:0:
320,192,191127,1,0,0:0:0:0:
64,192,191232,1,0,0:0:0:0:
192,192,191232,1,0,0:0:0:0:
448,192,191336,1,0,0:0:0:0:
192,192,191440,1,0,0:0:0:0:
320,192,191440,1,0,0:0:0:0:
448,192,191544,1,0,0:0:0:0:
64,192,191648,1,0,0:0:0:0:
192,192,191648,1,0,0:0:0:0:
448,192,191752,1,0,0:0:0:0:
192,192,191857,1,0,0:0:0:0:
320,192,191961,1,0,0:0:0:0:
64,192,192065,1,0,0:0:0:0:
192,192,192065,1,0,0:0:0:0:
448,192,192065,1,0,0:0:0:0:
320,192,192169,1,0,0:0:0:0:
192,192,192273,1,0,0:0:0:0:
320,192,192377,1,0,0:0:0:0:
448,192,192377,1,0,0:0:0:0:
64,192,192481,1,0,0:0:0:0:
192,192,192481,1,0,0:0:0:0:
320,192,192586,1,0,0:0:0:0:
192,192,192690,1,0,0:0:0:0:
448,192,192690,1,0,0:0:0:0:
320,192,192794,1,0,0:0:0:0:
64,192,192898,1,0,0:0:0:0:
192,192,192898,1,0,0:0:0:0:
448,192,193002,1,0,0:0:0:0:
192,192,193106,1,0,0:0:0:0:
320,192,193106,1,0,0:0:0:0:
448,192,193211,1,0,0:0:0:0:
64,192,193315,1,0,0:0:0:0:
192,192,193315,1,0,0:0:0:0:
320,192,193419,1,0,0:0:0:0:
192,192,193523,1,0,0:0:0:0:
448,192,193523,1,0,0:0:0:0:
320,192,193627,1,0,0:0:0:0:
64,192,193731,1,0,0:0:0:0:
192,192,193731,1,0,0:0:0:0:
448,192,193731,1,0,0:0:0:0:
320,192,193836,1,0,0:0:0:0:
192,192,193940,1,0,0:0:0:0:
320,192,194044,1,0,0:0:0:0:
448,192,194044,1,0,0:0:0:0:
64,192,194148,1,0,0:0:0:0:
192,192,194148,1,0,0:0:0:0:
448,192,194252,1,0,0:0:0:0:
192,192,194356,1,0,0:0:0:0:
320,192,194356,1,0,0:0:0:0:
448,192,194461,1,0,0:0:0:0:
64,192,194565,1,0,0:0:0:0:
192,192,194565,1,0,0:0:0:0:
448,192,194669,1,0,0:0:0:0:
192,192,194773,1,0,0:0:0:0:
320,192,194773,1,0,0:0:0:0:
448,192,194877,1,0,0:0:0:0:
64,192,194981,1,0,0:0:0:0:
192,192,194981,1,0,0:0:0:0:
320,192,195085,1,0,0:0:0:0:
192,192,195190,1,0,0:0:0:0:
320,192,195294,1,0,0:0:0:0:
64,192,195398,1,0,0:0:0:0:
192,192,195398,1,0,0:0:0:0:
448,192,195398,1,0,0:0:0:0:
320,192,195502,1,0,0:0:0:0:
192,192,195606,1,0,0:0:0:0:
320,192,195710,1,0,0:0:0:0:
448,192,195710,1,0,0:0:0:0:
64,192,195815,1,0,0:0:0:0:
192,192,195815,1,0,0:0:0:0:
448,192,195919,1,0,0:0:0:0:
192,192,196023,1,0,0:0:0:0:
320,192,196023,1,0,0:0:0:0:
448,192,196127,1,0,0:0:0:0:
64,192,196231,1,0,0:0:0:0:
192,192,196231,1,0,0:0:0:0:
448,192,196335,1,0,0:0:0:0:
192,192,196440,1,0,0:0:0:0:
320,192,196440,1,0,0:0:0:0:
448,192,196544,1,0,0:0:0:0:
64,192,196648,1,0,0:0:0:0:
192,192,196648,1,0,0:0:0:0:
320,192,196752,1,0,0:0:0:0:
192,192,196856,1,0,0:0:0:0:
320,192,196960,1,0,0:0:0:0:
64,192,197065,1,0,0:0:0:0:
192,192,197065,1,0,0:0:0:0:
448,192,197065,1,0,0:0:0:0:
320,192,197169,1,0,0:0:0:0:
192,192,197273,1,0,0:0:0:0:
320,192,197377,1,0,0:0:0:0:
448,192,197377,1,0,0:0:0:0:
64,192,197481,1,0,0:0:0:0:
192,192,197481,1,0,0:0:0:0:
448,192,197585,1,0,0:0:0:0:
192,192,197689,1,0,0:0:0:0:
320,192,197689,1,0,0:0:0:0:
448,192,197794,1,0,0:0:0:0:
64,192,197898,1,0,0:0:0:0:
192,192,197898,1,0,0:0:0:0:
448,192,198002,1,0,0:0:0:0:
192,192,198106,1,0,0:0:0:0:
320,192,198106,1,0,0:0:0:0:
448,192,198210,1,0,0:0:0:0:
64,192,198314,1,0,0:0:0:0:
192,192,198314,1,0,0:0:0:0:
448,192,198419,1,0,0:0:0:0:
192,192,198523,1,0,0:0:0:0:
320,192,198627,1,0,0:0:0:0:
64,192,198731,1,0,0:0:0:0:
192,192,198731,1,0,0:0:0:0:
448,192,198731,1,0,0:0:0:0:
320,192,198835,1,0,0:0:0:0:
192,192,198939,1,0,0:0:0:0:
320,192,199044,1,0,0:0:0:0:
448,192,199044,1,0,0:0:0:0:
64,192,199148,1,0,0:0:0:0:
192,192,199148,1,0,0:0:0:0:
320,192,199252,1,0,0:0:0:0:
192,192,199356,1,0,0:0:0:0:
448,192,199356,1,0,0:0:0:0:
320,192,199460,1,0,0:0:0:0:
64,192,199564,1,0,0:0:0:0:
192,192,199564,1,0,0:0:0:0:
320,192,199668,1,0,0:0:0:0:
192,192,199773,1,0,0:0:0:0:
448,192,199773,1,0,0:0:0:0:
64,192,199877,1,0,0:0:0:0:
320,192,199877,1,0,0:0:0:0:
192,192,199981,1,0,0:0:0:0:
320,192,200085,1,0,0:0:0:0:
64,192,200189,1,0,0:0:0:0:
192,192,200189,1,0,0:0:0:0:
448,192,200189,1,0,0:0:0:0:
320,192,200293,1,0,0:0:0:0:
64,192,200398,128,0,202064:0:0:0:0:
192,192,200398,1,0,0:0:0:0:
448,192,200398,1,0,0:0:0:0:
320,192,200502,1,0,0:0:0:0:
448,192,200606,1,0,0:0:0:0:
320,192,200710,1,0,0:0:0:0:
192,192,200814,1,0,0:0:0:0:
448,192,200814,1,0,0:0:0:0:
320,192,200918,1,0,0:0:0:0:
192,192,201023,1,0,0:0:0:0:
448,192,201127,1,0,0:0:0:0:
192,192,201231,1,0,0:0:0:0:
320,192,201231,1,0,0:0:0:0:
448,192,201335,1,0,0:0:0:0:
192,192,201439,1,0,0:0:0:0:
320,192,201543,1,0,0:0:0:0:
192,192,201648,1,0,0:0:0:0:
448,192,201648,1,0,0:0:0:0:
320,192,201752,1,0,0:0:0:0:
192,192,201856,1,0,0:0:0:0:
320,192,201960,1,0,0:0:0:0:
192,192,202064,1,0,0:0:0:0:
448,192,202064,128,0,203210:0:0:0:0:
320,192,202168,1,0,0:0:0:0:
64,192,202272,1,0,0:0:0:0:
192,192,202377,1,0,0:0:0:0:
64,192,202481,1,0,0:0:0:0:
320,192,202481,1,0,0:0:0:0:
192,192,202585,1,0,0:0:0:0:
64,192,202689,1,0,0:0:0:0:
320,192,202793,1,0,0:0:0:0:
64,192,202897,1,0,0:0:0:0:
192,192,202897,1,0,0:0:0:0:
320,192,203002,1,0,0:0:0:0:
64,192,203106,1,0,0:0:0:0:
320,192,203210,1,0,0:0:0:0:
64,192,203314,1,0,0:0:0:0:
192,192,203314,1,0,0:0:0:0:
448,192,203314,128,0,203731:0:0:0:0:
320,192,203418,1,0,0:0:0:0:
64,192,203522,1,0,0:0:0:0:
320,192,203627,1,0,0:0:0:0:
64,192,203731,1,0,0:0:0:0:
192,192,203731,128,0,204356:0:0:0:0:
320,192,203835,1,0,0:0:0:0:
448,192,203939,1,0,0:0:0:0:
320,192,204043,1,0,0:0:0:0:
64,192,204147,1,0,0:0:0:0:
448,192,204147,1,0,0:0:0:0:
320,192,204252,1,0,0:0:0:0:
64,192,204356,128,0,204981:0:0:0:0:
448,192,204356,1,0,0:0:0:0:
320,192,204460,1,0,0:0:0:0:
192,192,204564,1,0,0:0:0:0:
448,192,204564,1,0,0:0:0:0:
320,192,204668,1,0,0:0:0:0:
448,192,204772,1,0,0:0:0:0:
320,192,204876,1,0,0:0:0:0:
192,192,204981,1,0,0:0:0:0:
448,192,204981,128,0,205397:0:0:0:0:
320,192,205085,1,0,0:0:0:0:
64,192,205189,1,0,0:0:0:0:
192,192,205293,1,0,0:0:0:0:
64,192,205397,1,0,0:0:0:0:
320,192,205397,128,0,206022:0:0:0:0:
192,192,205501,1,0,0:0:0:0:
64,192,205606,1,0,0:0:0:0:
448,192,205710,1,0,0:0:0:0:
64,192,205814,1,0,0:0:0:0:
192,192,205814,1,0,0:0:0:0:
448,192,205918,1,0,0:0:0:0:
192,192,206022,128,0,206647:0:0:0:0:
448,192,206126,1,0,0:0:0:0:
64,192,206231,1,0,0:0:0:0:
320,192,206231,1,0,0:0:0:0:
448,192,206335,1,0,0:0:0:0:
64,192,206439,1,0,0:0:0:0:
448,192,206543,1,0,0:0:0:0:
64,192,206647,128,0,206855:0:0:0:0:
320,192,206647,1,0,0:0:0:0:
192,192,206751,1,0,0:0:0:0:
320,192,206855,1,0,0:0:0:0:
448,192,206855,128,0,206960:0:0:0:0:
192,192,206960,1,0,0:0:0:0:
64,192,207064,1,0,0:0:0:0:
320,192,207064,1,0,0:0:0:0:
448,192,207064,128,0,208105:0:0:0:0:
192,192,207168,1,0,0:0:0:0:
320,192,207272,1,0,0:0:0:0:
64,192,207376,1,0,0:0:0:0:
192,192,207480,1,0,0:0:0:0:
320,192,207480,1,0,0:0:0:0:
64,192,207585,1,0,0:0:0:0:
320,192,207689,1,0,0:0:0:0:
64,192,207793,1,0,0:0:0:0:
192,192,207897,1,0,0:0:0:0:
320,192,207897,1,0,0:0:0:0:
64,192,208001,1,0,0:0:0:0:
192,192,208105,128,0,208210:0:0:0:0:
320,192,208210,128,0,208314:0:0:0:0:
64,192,208314,1,0,0:0:0:0:
448,192,208314,128,0,208418:0:0:0:0:
192,192,208418,128,0,208522:0:0:0:0:
448,192,208522,128,0,208626:0:0:0:0:
192,192,208626,128,0,208730:0:0:0:0:
64,192,208730,1,0,0:0:0:0:
320,192,208730,128,0,210293:0:0:0:0:
448,192,208835,1,0,0:0:0:0:
64,192,208939,1,0,0:0:0:0:
192,192,209043,1,0,0:0:0:0:
64,192,209147,1,0,0:0:0:0:
448,192,209147,1,0,0:0:0:0:
192,192,209251,1,0,0:0:0:0:
64,192,209355,1,0,0:0:0:0:
448,192,209459,1,0,0:0:0:0:
64,192,209564,1,0,0:0:0:0:
192,192,209564,1,0,0:0:0:0:
448,192,209668,1,0,0:0:0:0:
64,192,209772,1,0,0:0:0:0:
192,192,209876,1,0,0:0:0:0:
64,192,209980,1,0,0:0:0:0:
448,192,209980,1,0,0:0:0:0:
192,192,210084,1,0,0:0:0:0:
64,192,210189,1,0,0:0:0:0:
448,192,210293,1,0,0:0:0:0:
64,192,210397,1,0,0:0:0:0:
192,192,210397,1,0,0:0:0:0:
320,192,210397,128,0,211855:0:0:0:0:
448,192,210501,1,0,0:0:0:0:
64,192,210605,1,0,0:0:0:0:
192,192,210709,1,0,0:0:0:0:
64,192,210814,1,0,0:0:0:0:
448,192,210814,1,0,0:0:0:0:
192,192,210918,1,0,0:0:0:0:
64,192,211022,1,0,0:0:0:0:
448,192,211126,1,0,0:0:0:0:
64,192,211230,1,0,0:0:0:0:
192,192,211230,1,0,0:0:0:0:
448,192,211334,1,0,0:0:0:0:
192,192,211439,1,0,0:0:0:0:
64,192,211543,1,0,0:0:0:0:
192,192,211647,1,0,0:0:0:0:
448,192,211647,1,0,0:0:0:0:
64,192,211751,1,0,0:0:0:0:
192,192,211855,128,0,211959:0:0:0:0:
448,192,211855,1,0,0:0:0:0:
64,192,211959,128,0,212272:0:0:0:0:
320,192,211959,1,0,0:0:0:0:
192,192,212063,1,0,0:0:0:0:
448,192,212063,1,0,0:0:0:0:
320,192,212168,1,0,0:0:0:0:
192,192,212272,128,0,213730:0:0:0:0:
448,192,212272,1,0,0:0:0:0:
320,192,212376,1,0,0:0:0:0:
320,192,212584,1,0,0:0:0:0:
448,192,212688,1,0,0:0:0:0:
320,192,212793,1,0,0:0:0:0:
320,192,213001,1,0,0:0:0:0:
448,192,213105,1,0,0:0:0:0:
320,192,213209,1,0,0:0:0:0:
320,192,213418,1,0,0:0:0:0:
448,192,213522,1,0,0:0:0:0:
320,192,213626,1,0,0:0:0:0:
64,192,213730,1,0,0:0:0:0:
448,192,213730,1,0,0:0:0:0:
320,192,213834,1,0,0:0:0:0:
448,192,213938,1,0,0:0:0:0:
192,192,214042,1,0,0:0:0:0:
64,192,214147,1,0,0:0:0:0:
448,192,214147,1,0,0:0:0:0:
320,192,214251,1,0,0:0:0:0:
192,192,214355,1,0,0:0:0:0:
448,192,214459,1,0,0:0:0:0:
64,192,214563,1,0,0:0:0:0:
192,192,214563,1,0,0:0:0:0:
320,192,214667,1,0,0:0:0:0:
448,192,214772,1,0,0:0:0:0:
192,192,214876,1,0,0:0:0:0:
64,192,214980,1,0,0:0:0:0:
320,192,214980,1,0,0:0:0:0:
448,192,215084,1,0,0:0:0:0:
192,192,215188,1,0,0:0:0:0:
320,192,215292,1,0,0:0:0:0:
64,192,215397,1,0,0:0:0:0:
448,192,215397,1,0,0:0:0:0:
320,192,215501,1,0,0:0:0:0:
192,192,215605,1,0,0:0:0:0:
448,192,215709,1,0,0:0:0:0:
64,192,215813,1,0,0:0:0:0:
320,192,215813,1,0,0:0:0:0:
192,192,215917,1,0,0:0:0:0:
448,192,216022,1,0,0:0:0:0:
320,192,216126,1,0,0:0:0:0:
64,192,216230,1,0,0:0:0:0:
192,192,216230,1,0,0:0:0:0:
448,192,216334,1,0,0:0:0:0:
320,192,216438,1,0,0:0:0:0:
192,192,216542,1,0,0:0:0:0:
64,192,216646,1,0,0:0:0:0:
320,192,216646,1,0,0:0:0:0:
448,192,216751,1,0,0:0:0:0:
192,192,216855,1,0,0:0:0:0:
320,192,216959,1,0,0:0:0:0:
64,192,217063,1,0,0:0:0:0:
192,192,217063,1,0,0:0:0:0:
320,192,217167,1,0,0:0:0:0:
448,192,217271,1,0,0:0:0:0:
192,192,217376,1,0,0:0:0:0:
64,192,217480,1,0,0:0:0:0:
448,192,217480,1,0,0:0:0:0:
320,192,217584,1,0,0:0:0:0:
192,192,217688,1,0,0:0:0:0:
448,192,217792,1,0,0:0:0:0:
64,192,217896,1,0,0:0:0:0:
192,192,217896,1,0,0:0:0:0:
320,192,218001,1,0,0:0:0:0:
448,192,218105,1,0,0:0:0:0:
192,192,218209,1,0,0:0:0:0:
64,192,218313,1,0,0:0:0:0:
320,192,218313,1,0,0:0:0:0:
448,192,218417,1,0,0:0:0:0:
192,192,218521,1,0,0:0:0:0:
320,192,218626,1,0,0:0:0:0:
64,192,218730,1,0,0:0:0:0:
448,192,218730,1,0,0:0:0:0:
320,192,218834,1,0,0:0:0:0:
192,192,218938,1,0,0:0:0:0:
448,192,219042,1,0,0:0:0:0:
64,192,219146,1,0,0:0:0:0:
320,192,219146,1,0,0:0:0:0:
192,192,219250,1,0,0:0:0:0:
448,192,219355,1,0,0:0:0:0:
320,192,219459,1,0,0:0:0:0:
64,192,219563,1,0,0:0:0:0:
192,192,219563,1,0,0:0:0:0:
448,192,219667,1,0,0:0:0:0:
320,192,219771,1,0,0:0:0:0:
192,192,219875,1,0,0:0:0:0:
64,192,219980,1,0,0:0:0:0:
320,192,219980,1,0,0:0:0:0:
448,192,220084,1,0,0:0:0:0:
192,192,220188,1,0,0:0:0:0:
320,192,220292,1,0,0:0:0:0:
64,192,220396,1,0,0:0:0:0:
192,192,220396,1,0,0:0:0:0:
320,192,220500,1,0,0:0:0:0:
448,192,220605,1,0,0:0:0:0:
192,192,220709,1,0,0:0:0:0:
64,192,220813,1,0,0:0:0:0:
448,192,220813,1,0,0:0:0:0:
320,192,220917,1,0,0:0:0:0:
192,192,221021,1,0,0:0:0:0:
448,192,221125,1,0,0:0:0:0:
64,192,221229,1,0,0:0:0:0:
192,192,221229,1,0,0:0:0:0:
320,192,221334,1,0,0:0:0:0:
448,192,221438,1,0,0:0:0:0:
192,192,221542,1,0,0:0:0:0:
64,192,221646,1,0,0:0:0:0:
320,192,221646,1,0,0:0:0:0:
448,192,221750,1,0,0:0:0:0:
192,192,221854,1,0,0:0:0:0:
320,192,221959,1,0,0:0:0:0:
64,192,222063,1,0,0:0:0:0:
448,192,222063,1,0,0:0:0:0:
320,192,222167,1,0,0:0:0:0:
192,192,222271,1,0,0:0:0:0:
448,192,222375,1,0,0:0:0:0:
64,192,222479,1,0,0:0:0:0:
320,192,222479,1,0,0:0:0:0:
192,192,222584,1,0,0:0:0:0:
448,192,222688,1,0,0:0:0:0:
320,192,222792,1,0,0:0:0:0:
64,192,222896,1,0,0:0:0:0:
192,192,222896,1,0,0:0:0:0:
448,192,223000,1,0,0:0:0:0:
320,192,223104,1,0,0:0:0:0:
192,192,223209,1,0,0:0:0:0:
64,192,223313,1,0,0:0:0:0:
320,192,223313,1,0,0:0:0:0:
448,192,223417,1,0,0:0:0:0:
192,192,223521,1,0,0:0:0:0:
320,192,223625,1,0,0:0:0:0:
64,192,223729,1,0,0:0:0:0:
192,192,223729,1,0,0:0:0:0:
320,192,223833,1,0,0:0:0:0:
448,192,223938,1,0,0:0:0:0:
192,192,224042,1,0,0:0:0:0:
64,192,224146,1,0,0:0:0:0:
448,192,224146,1,0,0:0:0:0:
320,192,224250,1,0,0:0:0:0:
192,192,224354,1,0,0:0:0:0:
448,192,224458,1,0,0:0:0:0:
64,192,224563,1,0,0:0:0:0:
192,192,224563,1,0,0:0:0:0:
320,192,224667,1,0,0:0:0:0:
448,192,224771,1,0,0:0:0:0:
320,192,224875,1,0,0:0:0:0:
64,192,224979,1,0,0:0:0:0:
448,192,224979,1,0,0:0:0:0:
320,192,225083,1,0,0:0:0:0:
192,192,225188,1,0,0:0:0:0:
320,192,225292,1,0,0:0:0:0:
64,192,225396,1,0,0:0:0:0:
448,192,225396,1,0,0:0:0:0:
192,192,225500,1,0,0:0:0:0:
320,192,225604,1,0,0:0:0:0:
448,192,225708,1,0,0:0:0:0:
64,192,225813,1,0,0:0:0:0:
192,192,225813,1,0,0:0:0:0:
320,192,225917,1,0,0:0:0:0:
448,192,226021,1,0,0:0:0:0:
192,192,226125,1,0,0:0:0:0:
64,192,226229,1,0,0:0:0:0:
320,192,226229,1,0,0:0:0:0:
448,192,226333,1,0,0:0:0:0:
64,192,226437,1,0,0:0:0:0:
192,192,226437,1,0,0:0:0:0:
320,192,226542,1,0,0:0:0:0:
448,192,226646,1,0,0:0:0:0:
320,192,226750,1,0,0:0:0:0:
64,192,226854,1,0,0:0:0:0:
192,192,226854,1,0,0:0:0:0:
320,192,226958,1,0,0:0:0:0:
64,192,227062,1,0,0:0:0:0:
192,192,227167,1,0,0:0:0:0:
64,192,227271,1,0,0:0:0:0:
448,192,227271,1,0,0:0:0:0:
192,192,227375,1,0,0:0:0:0:
320,192,227375,1,0,0:0:0:0:
64,192,227479,1,0,0:0:0:0:
448,192,227479,1,0,0:0:0:0:
192,192,227583,1,0,0:0:0:0:
320,192,227583,1,0,0:0:0:0:
64,192,227687,1,0,0:0:0:0:
448,192,227687,1,0,0:0:0:0:
192,192,227792,1,0,0:0:0:0:
320,192,227792,1,0,0:0:0:0:
64,192,227896,1,0,0:0:0:0:
320,192,228000,1,0,0:0:0:0:
64,192,228104,1,0,0:0:0:0:
192,192,228104,1,0,0:0:0:0:
320,192,228208,1,0,0:0:0:0:
64,192,228312,1,0,0:0:0:0:
192,192,228312,1,0,0:0:0:0:
320,192,228416,1,0,0:0:0:0:
448,192,228416,1,0,0:0:0:0:
64,192,228521,1,0,0:0:0:0:
192,192,228521,1,0,0:0:0:0:
320,192,228625,1,0,0:0:0:0:
448,192,228625,1,0,0:0:0:0:
64,192,228729,1,0,0:0:0:0:
448,192,228833,1,0,0:0:0:0:
64,192,228937,1,0,0:0:0:0:
192,192,228937,1,0,0:0:0:0:
448,192,229041,1,0,0:0:0:0:
64,192,229146,1,0,0:0:0:0:
192,192,229146,1,0,0:0:0:0:
320,192,229250,1,0,0:0:0:0:
448,192,229250,1,0,0:0:0:0:
64,192,229354,1,0,0:0:0:0:
192,192,229354,1,0,0:0:0:0:
320,192,229458,1,0,0:0:0:0:
448,192,229458,1,0,0:0:0:0:
192,192,229562,1,0,0:0:0:0:
64,192,229666,1,0,0:0:0:0:
192,192,229771,1,0,0:0:0:0:
320,192,229771,1,0,0:0:0:0:
64,192,229875,1,0,0:0:0:0:
192,192,229979,1,0,0:0:0:0:
320,192,229979,1,0,0:0:0:0:
64,192,230083,1,0,0:0:0:0:
448,192,230083,1,0,0:0:0:0:
192,192,230187,1,0,0:0:0:0:
320,192,230187,1,0,0:0:0:0:
64,192,230291,1,0,0:0:0:0:
448,192,230291,1,0,0:0:0:0:
192,192,230396,1,0,0:0:0:0:
448,192,230500,1,0,0:0:0:0:
64,192,230604,1,0,0:0:0:0:
320,192,230604,1,0,0:0:0:0:
448,192,230708,1,0,0:0:0:0:
64,192,230812,1,0,0:0:0:0:
320,192,230812,1,0,0:0:0:0:
192,192,230916,1,0,0:0:0:0:
448,192,230916,1,0,0:0:0:0:
64,192,231020,1,0,0:0:0:0:
320,192,231020,1,0,0:0:0:0:
192,192,231125,1,0,0:0:0:0:
448,192,231125,1,0,0:0:0:0:
64,192,231229,1,0,0:0:0:0:
320,192,231333,1,0,0:0:0:0:
64,192,231437,1,0,0:0:0:0:
192,192,231437,1,0,0:0:0:0:
320,192,231541,1,0,0:0:0:0:
64,192,231645,1,0,0:0:0:0:
192,192,231645,1,0,0:0:0:0:
320,192,231750,1,0,0:0:0:0:
448,192,231750,1,0,0:0:0:0:
64,192,231854,1,0,0:0:0:0:
192,192,231854,1,0,0:0:0:0:
320,192,231958,1,0,0:0:0:0:
448,192,231958,1,0,0:0:0:0:
192,192,232062,1,0,0:0:0:0:
64,192,232166,1,0,0:0:0:0:
192,192,232270,1,0,0:0:0:0:
320,192,232270,1,0,0:0:0:0:
64,192,232375,1,0,0:0:0:0:
192,192,232479,1,0,0:0:0:0:
320,192,232479,1,0,0:0:0:0:
64,192,232583,1,0,0:0:0:0:
448,192,232583,1,0,0:0:0:0:
192,192,232687,1,0,0:0:0:0:
320,192,232687,1,0,0:0:0:0:
64,192,232791,1,0,0:0:0:0:
448,192,232791,1,0,0:0:0:0:
320,192,232895,1,0,0:0:0:0:
192,192,233000,1,0,0:0:0:0:
320,192,233104,1,0,0:0:0:0:
448,192,233104,1,0,0:0:0:0:
192,192,233208,1,0,0:0:0:0:
64,192,233312,1,0,0:0:0:0:
320,192,233312,1,0,0:0:0:0:
192,192,233416,1,0,0:0:0:0:
448,192,233416,1,0,0:0:0:0:
64,192,233520,1,0,0:0:0:0:
320,192,233520,1,0,0:0:0:0:
192,192,233624,1,0,0:0:0:0:
448,192,233624,1,0,0:0:0:0:
320,192,233729,1,0,0:0:0:0:
64,192,233833,1,0,0:0:0:0:
320,192,233937,1,0,0:0:0:0:
448,192,233937,1,0,0:0:0:0:
64,192,234041,1,0,0:0:0:0:
192,192,234145,1,0,0:0:0:0:
320,192,234145,1,0,0:0:0:0:
64,192,234249,1,0,0:0:0:0:
448,192,234249,1,0,0:0:0:0:
192,192,234354,1,0,0:0:0:0:
320,192,234354,1,0,0:0:0:0:
64,192,234458,1,0,0:0:0:0:
448,192,234458,1,0,0:0:0:0:
320,192,234562,1,0,0:0:0:0:
192,192,234666,1,0,0:0:0:0:
320,192,234770,1,0,0:0:0:0:
448,192,234770,1,0,0:0:0:0:
192,192,234874,1,0,0:0:0:0:
320,192,234979,1,0,0:0:0:0:
448,192,234979,1,0,0:0:0:0:
64,192,235083,1,0,0:0:0:0:
192,192,235083,1,0,0:0:0:0:
320,192,235187,1,0,0:0:0:0:
448,192,235187,1,0,0:0:0:0:
64,192,235291,1,0,0:0:0:0:
192,192,235291,1,0,0:0:0:0:
448,192,235395,1,0,0:0:0:0:
320,192,235499,1,0,0:0:0:0:
64,192,235604,1,0,0:0:0:0:
192,192,235604,1,0,0:0:0:0:
320,192,235708,1,0,0:0:0:0:
64,192,235812,1,0,0:0:0:0:
192,192,235812,1,0,0:0:0:0:
320,192,235916,1,0,0:0:0:0:
448,192,235916,1,0,0:0:0:0:
64,192,236020,1,0,0:0:0:0:
192,192,236020,1,0,0:0:0:0:
320,192,236124,1,0,0:0:0:0:
448,192,236124,1,0,0:0:0:0:
64,192,236228,1,0,0:0:0:0:
448,192,236333,1,0,0:0:0:0:
192,192,236437,1,0,0:0:0:0:
320,192,236437,1,0,0:0:0:0:
448,192,236541,1,0,0:0:0:0:
192,192,236645,1,0,0:0:0:0:
320,192,236645,1,0,0:0:0:0:
64,192,236749,1,0,0:0:0:0:
448,192,236749,1,0,0:0:0:0:
192,192,236853,1,0,0:0:0:0:
320,192,236853,1,0,0:0:0:0:
64,192,236958,1,0,0:0:0:0:
448,192,236958,1,0,0:0:0:0:
192,192,237062,1,0,0:0:0:0:
64,192,237166,1,0,0:0:0:0:
320,192,237270,1,0,0:0:0:0:
448,192,237270,1,0,0:0:0:0:
64,192,237374,1,0,0:0:0:0:
320,192,237478,1,0,0:0:0:0:
64,192,237583,1,0,0:0:0:0:
192,192,237583,1,0,0:0:0:0:
320,192,237687,1,0,0:0:0:0:
448,192,237687,1,0,0:0:0:0:
64,192,237791,1,0,0:0:0:0:
192,192,237791,1,0,0:0:0:0:
192,192,237999,1,0,0:0:0:0:
320,192,238103,1,0,0:0:0:0:
448,192,238103,1,0,0:0:0:0:
192,192,238207,1,0,0:0:0:0:
320,192,238312,1,0,0:0:0:0:
192,192,238416,1,0,0:0:0:0:
448,192,238416,1,0,0:0:0:0:
64,192,238520,1,0,0:0:0:0:
320,192,238520,1,0,0:0:0:0:
192,192,238624,1,0,0:0:0:0:
448,192,238624,1,0,0:0:0:0:
448,192,238832,1,0,0:0:0:0:
64,192,238937,1,0,0:0:0:0:
320,192,238937,1,0,0:0:0:0:
448,192,239041,1,0,0:0:0:0:
320,192,239145,1,0,0:0:0:0:
192,192,239249,1,0,0:0:0:0:
448,192,239249,1,0,0:0:0:0:
64,192,239353,1,0,0:0:0:0:
320,192,239353,1,0,0:0:0:0:
192,192,239457,1,0,0:0:0:0:
448,192,239457,1,0,0:0:0:0:
64,192,239666,1,0,0:0:0:0:
192,192,239770,1,0,0:0:0:0:
320,192,239770,1,0,0:0:0:0:
64,192,239874,1,0,0:0:0:0:
320,192,239978,1,0,0:0:0:0:
192,192,240082,1,0,0:0:0:0:
448,192,240082,1,0,0:0:0:0:
64,192,240187,1,0,0:0:0:0:
320,192,240187,1,0,0:0:0:0:
192,192,240291,1,0,0:0:0:0:
448,192,240291,1,0,0:0:0:0:
64,192,240395,1,0,0:0:0:0:
320,192,240395,1,0,0:0:0:0:
448,192,240499,1,0,0:0:0:0:
192,192,240603,1,0,0:0:0:0:
320,192,240603,1,0,0:0:0:0:
448,192,240707,1,0,0:0:0:0:
64,192,240811,1,0,0:0:0:0:
192,192,240811,1,0,0:0:0:0:
320,192,240916,1,0,0:0:0:0:
448,192,241020,1,0,0:0:0:0:
320,192,241124,1,0,0:0:0:0:
64,192,241228,1,0,0:0:0:0:
192,192,241228,1,0,0:0:0:0:
448,192,241228,1,0,0:0:0:0:
320,192,241332,1,0,0:0:0:0:
192,192,241436,1,0,0:0:0:0:
320,192,241541,1,0,0:0:0:0:
64,192,241645,1,0,0:0:0:0:
192,192,241645,1,0,0:0:0:0:
448,192,241749,1,0,0:0:0:0:
192,192,241853,1,0,0:0:0:0:
320,192,241853,1,0,0:0:0:0:
448,192,241957,1,0,0:0:0:0:
64,192,242061,1,0,0:0:0:0:
320,192,242061,1,0,0:0:0:0:
192,192,242166,1,0,0:0:0:0:
320,192,242270,1,0,0:0:0:0:
448,192,242270,1,0,0:0:0:0:
192,192,242374,1,0,0:0:0:0:
64,192,242478,1,0,0:0:0:0:
320,192,242478,1,0,0:0:0:0:
448,192,242582,1,0,0:0:0:0:
192,192,242686,1,0,0:0:0:0:
320,192,242791,1,0,0:0:0:0:
64,192,242895,1,0,0:0:0:0:
192,192,242895,1,0,0:0:0:0:
448,192,242895,1,0,0:0:0:0:
320,192,242999,1,0,0:0:0:0:
448,192,243103,1,0,0:0:0:0:
192,192,243207,1,0,0:0:0:0:
64,192,243311,1,0,0:0:0:0:
320,192,243311,1,0,0:0:0:0:
448,192,243415,1,0,0:0:0:0:
192,192,243520,1,0,0:0:0:0:
320,192,243520,1,0,0:0:0:0:
448,192,243624,1,0,0:0:0:0:
64,192,243728,1,0,0:0:0:0:
192,192,243728,1,0,0:0:0:0:
448,192,243832,1,0,0:0:0:0:
192,192,243936,1,0,0:0:0:0:
320,192,243936,1,0,0:0:0:0:
448,192,244040,1,0,0:0:0:0:
64,192,244145,1,0,0:0:0:0:
192,192,244145,1,0,0:0:0:0:
448,192,244249,1,0,0:0:0:0:
320,192,244353,1,0,0:0:0:0:
192,192,244457,1,0,0:0:0:0:
64,192,244561,1,0,0:0:0:0:
320,192,244561,1,0,0:0:0:0:
448,192,244561,1,0,0:0:0:0:
192,192,244665,1,0,0:0:0:0:
448,192,244770,1,0,0:0:0:0:
320,192,244874,1,0,0:0:0:0:
64,192,244978,1,0,0:0:0:0:
192,192,244978,1,0,0:0:0:0:
320,192,245082,1,0,0:0:0:0:
192,192,245186,1,0,0:0:0:0:
448,192,245186,1,0,0:0:0:0:
320,192,245290,1,0,0:0:0:0:
64,192,245394,1,0,0:0:0:0:
192,192,245394,1,0,0:0:0:0:
320,192,245499,1,0,0:0:0:0:
192,192,245603,1,0,0:0:0:0:
448,192,245603,1,0,0:0:0:0:
320,192,245707,1,0,0:0:0:0:
64,192,245811,1,0,0:0:0:0:
448,192,245811,1,0,0:0:0:0:
320,192,245915,1,0,0:0:0:0:
448,192,246019,1,0,0:0:0:0:
320,192,246124,1,0,0:0:0:0:
64,192,246228,1,0,0:0:0:0:
192,192,246228,1,0,0:0:0:0:
448,192,246228,1,0,0:0:0:0:
320,192,246332,1,0,0:0:0:0:
192,192,246436,1,0,0:0:0:0:
320,192,246540,1,0,0:0:0:0:
64,192,246644,1,0,0:0:0:0:
192,192,246644,1,0,0:0:0:0:
448,192,246749,1,0,0:0:0:0:
192,192,246853,1,0,0:0:0:0:
320,192,246853,1,0,0:0:0:0:
448,192,246957,1,0,0:0:0:0:
64,192,247061,1,0,0:0:0:0:
192,192,247061,1,0,0:0:0:0:
448,192,247165,1,0,0:0:0:0:
192,192,247269,1,0,0:0:0:0:
320,192,247269,1,0,0:0:0:0:
448,192,247374,1,0,0:0:0:0:
64,192,247478,1,0,0:0:0:0:
192,192,247478,1,0,0:0:0:0:
320,192,247582,1,0,0:0:0:0:
192,192,247686,1,0,0:0:0:0:
320,192,247790,1,0,0:0:0:0:
64,192,247894,1,0,0:0:0:0:
192,192,247894,1,0,0:0:0:0:
448,192,247894,1,0,0:0:0:0:
320,192,247998,1,0,0:0:0:0:
192,192,248103,1,0,0:0:0:0:
320,192,248207,1,0,0:0:0:0:
64,192,248311,1,0,0:0:0:0:
448,192,248311,1,0,0:0:0:0:
320,192,248415,1,0,0:0:0:0:
192,192,248519,1,0,0:0:0:0:
448,192,248519,1,0,0:0:0:0:
320,192,248623,1,0,0:0:0:0:
64,192,248728,1,0,0:0:0:0:
192,192,248728,1,0,0:0:0:0:
448,192,248832,1,0,0:0:0:0:
192,192,248936,1,0,0:0:0:0:
320,192,248936,1,0,0:0:0:0:
448,192,249040,1,0,0:0:0:0:
64,192,249144,1,0,0:0:0:0:
320,192,249144,1,0,0:0:0:0:
448,192,249248,1,0,0:0:0:0:
192,192,249353,1,0,0:0:0:0:
320,192,249457,1,0,0:0:0:0:
64,192,249561,1,0,0:0:0:0:
192,192,249561,1,0,0:0:0:0:
448,192,249561,1,0,0:0:0:0:
320,192,249665,1,0,0:0:0:0:
448,192,249769,1,0,0:0:0:0:
320,192,249873,1,0,0:0:0:0:
64,192,249978,1,0,0:0:0:0:
192,192,249978,1,0,0:0:0:0:
448,192,250082,1,0,0:0:0:0:
192,192,250186,1,0,0:0:0:0:
320,192,250186,1,0,0:0:0:0:
448,192,250290,1,0,0:0:0:0:
64,192,250394,1,0,0:0:0:0:
192,192,250394,1,0,0:0:0:0:
448,192,250498,1,0,0:0:0:0:
192,192,250602,1,0,0:0:0:0:
320,192,250602,1,0,0:0:0:0:
448,192,250707,1,0,0:0:0:0:
64,192,250811,1,0,0:0:0:0:
320,192,250811,1,0,0:0:0:0:
448,192,250915,1,0,0:0:0:0:
192,192,251019,1,0,0:0:0:0:
320,192,251123,1,0,0:0:0:0:
64,192,251227,1,0,0:0:0:0:
192,192,251227,1,0,0:0:0:0:
448,192,251227,1,0,0:0:0:0:
320,192,251332,1,0,0:0:0:0:
192,192,251436,1,0,0:0:0:0:
320,192,251540,1,0,0:0:0:0:
64,192,251644,1,0,0:0:0:0:
192,192,251644,1,0,0:0:0:0:
448,192,251748,1,0,0:0:0:0:
192,192,251852,1,0,0:0:0:0:
320,192,251852,1,0,0:0:0:0:
448,192,251957,1,0,0:0:0:0:
64,192,252061,1,0,0:0:0:0:
192,192,252061,1,0,0:0:0:0:
448,192,252165,1,0,0:0:0:0:
192,192,252269,1,0,0:0:0:0:
320,192,252269,1,0,0:0:0:0:
448,192,252373,1,0,0:0:0:0:
64,192,252477,1,0,0:0:0:0:
192,192,252477,1,0,0:0:0:0:
448,192,252581,1,0,0:0:0:0:
320,192,252686,1,0,0:0:0:0:
448,192,252790,1,0,0:0:0:0:
64,192,252894,1,0,0:0:0:0:
192,192,252894,1,0,0:0:0:0:
320,192,252894,1,0,0:0:0:0:
448,192,252998,1,0,0:0:0:0:
64,192,253102,1,0,0:0:0:0:
192,192,253102,1,0,0:0:0:0:
448,192,253206,1,0,0:0:0:0:
192,192,253311,1,0,0:0:0:0:
320,192,253415,1,0,0:0:0:0:
64,192,253519,1,0,0:0:0:0:
192,192,253519,1,0,0:0:0:0:
448,192,253519,1,0,0:0:0:0:
320,192,253623,1,0,0:0:0:0:
64,192,253727,1,0,0:0:0:0:
448,192,253727,1,0,0:0:0:0:
192,192,253831,1,0,0:0:0:0:
320,192,253936,1,0,0:0:0:0:
448,192,253936,1,0,0:0:0:0:
192,192,254040,1,0,0:0:0:0:
64,192,254144,1,0,0:0:0:0:
448,192,254144,1,0,0:0:0:0:
320,192,254248,1,0,0:0:0:0:
448,192,254352,1,0,0:0:0:0:
192,192,254456,1,0,0:0:0:0:
64,192,254561,1,0,0:0:0:0:
448,192,254561,1,0,0:0:0:0:
320,192,254665,1,0,0:0:0:0:
192,192,254769,1,0,0:0:0:0:
320,192,254873,1,0,0:0:0:0:
64,192,254977,1,0,0:0:0:0:
448,192,254977,1,0,0:0:0:0:
320,192,255081,1,0,0:0:0:0:
192,192,255185,1,0,0:0:0:0:
448,192,255185,1,0,0:0:0:0:
320,192,255290,1,0,0:0:0:0:
64,192,255394,1,0,0:0:0:0:
448,192,255394,1,0,0:0:0:0:
320,192,255498,1,0,0:0:0:0:
192,192,255602,1,0,0:0:0:0:
448,192,255602,1,0,0:0:0:0:
320,192,255706,1,0,0:0:0:0:
64,192,255810,1,0,0:0:0:0:
192,192,255810,1,0,0:0:0:0:
320,192,255915,1,0,0:0:0:0:
448,192,256019,1,0,0:0:0:0:
192,192,256123,1,0,0:0:0:0:
64,192,256227,1,0,0:0:0:0:
320,192,256227,1,0,0:0:0:0:
448,192,256227,1,0,0:0:0:0:
192,192,256331,1,0,0:0:0:0:
448,192,256435,1,0,0:0:0:0:
320,192,256540,1,0,0:0:0:0:
64,192,256644,1,0,0:0:0:0:
448,192,256644,1,0,0:0:0:0:
320,192,256748,1,0,0:0:0:0:
192,192,256852,1,0,0:0:0:0:
448,192,256852,1,0,0:0:0:0:
320,192,256956,1,0,0:0:0:0:
64,192,257060,1,0,0:0:0:0:
192,192,257060,1,0,0:0:0:0:
448,192,257165,1,0,0:0:0:0:
192,192,257269,1,0,0:0:0:0:
320,192,257269,1,0,0:0:0:0:
448,192,257373,1,0,0:0:0:0:
64,192,257477,1,0,0:0:0:0:
192,192,257477,1,0,0:0:0:0:
320,192,257581,1,0,0:0:0:0:
192,192,257685,1,0,0:0:0:0:
320,192,257789,1,0,0:0:0:0:
64,192,257894,1,0,0:0:0:0:
192,192,257894,1,0,0:0:0:0:
448,192,257894,1,0,0:0:0:0:
320,192,257998,1,0,0:0:0:0:
448,192,258102,1,0,0:0:0:0:
192,192,258206,1,0,0:0:0:0:
64,192,258310,1,0,0:0:0:0:
320,192,258310,1,0,0:0:0:0:
448,192,258414,1,0,0:0:0:0:
192,192,258519,1,0,0:0:0:0:
320,192,258519,1,0,0:0:0:0:
448,192,258623,1,0,0:0:0:0:
64,192,258727,1,0,0:0:0:0:
320,192,258727,1,0,0:0:0:0:
192,192,258831,1,0,0:0:0:0:
320,192,258935,1,0,0:0:0:0:
448,192,258935,1,0,0:0:0:0:
192,192,259039,1,0,0:0:0:0:
64,192,259144,1,0,0:0:0:0:
448,192,259144,1,0,0:0:0:0:
320,192,259248,1,0,0:0:0:0:
192,192,259352,1,0,0:0:0:0:
320,192,259456,1,0,0:0:0:0:
64,192,259560,1,0,0:0:0:0:
192,192,259560,1,0,0:0:0:0:
448,192,259560,1,0,0:0:0:0:
320,192,259664,1,0,0:0:0:0:
448,192,259768,1,0,0:0:0:0:
192,192,259873,1,0,0:0:0:0:
64,192,259977,1,0,0:0:0:0:
320,192,259977,1,0,0:0:0:0:
448,192,260081,1,0,0:0:0:0:
192,192,260185,1,0,0:0:0:0:
320,192,260185,1,0,0:0:0:0:
448,192,260289,1,0,0:0:0:0:
64,192,260393,1,0,0:0:0:0:
192,192,260393,1,0,0:0:0:0:
320,192,260498,1,0,0:0:0:0:
64,192,260602,1,0,0:0:0:0:
192,192,260602,1,0,0:0:0:0:
320,192,260706,1,0,0:0:0:0:
320,192,260914,1,0,0:0:0:0:
64,192,261018,1,0,0:0:0:0:
320,192,261123,1,0,0:0:0:0:
448,192,261227,1,0,0:0:0:0:
320,192,261331,1,0,0:0:0:0:
64,192,261435,1,0,0:0:0:0:
320,192,261539,1,0,0:0:0:0:
320,192,261748,1,0,0:0:0:0:
64,192,261852,1,0,0:0:0:0:
192,192,261852,1,0,0:0:0:0:
320,192,261956,1,0,0:0:0:0:
448,192,262164,1,0,0:0:0:0:
64,192,262268,1,0,0:0:0:0:
192,192,262268,1,0,0:0:0:0:
448,192,262372,1,0,0:0:0:0:
448,192,262581,1,0,0:0:0:0:
64,192,262685,1,0,0:0:0:0:
448,192,262789,1,0,0:0:0:0:
320,192,262893,1,0,0:0:0:0:
448,192,262997,1,0,0:0:0:0:
64,192,263102,1,0,0:0:0:0:
448,192,263206,1,0,0:0:0:0:
448,192,263414,1,0,0:0:0:0:
64,192,263518,1,0,0:0:0:0:
192,192,263518,1,0,0:0:0:0:
448,192,263622,1,0,0:0:0:0:
64,192,263727,1,0,0:0:0:0:
320,192,263727,1,0,0:0:0:0:
192,192,263831,1,0,0:0:0:0:
448,192,263831,1,0,0:0:0:0:
64,192,263935,1,0,0:0:0:0:
320,192,263935,1,0,0:0:0:0:
192,192,264039,1,0,0:0:0:0:
448,192,264039,1,0,0:0:0:0:
64,192,264143,1,0,0:0:0:0:
320,192,264143,1,0,0:0:0:0:
192,192,264247,1,0,0:0:0:0:
448,192,264247,1,0,0:0:0:0:
64,192,264352,1,0,0:0:0:0:
320,192,264352,1,0,0:0:0:0:
192,192,264456,1,0,0:0:0:0:
448,192,264456,1,0,0:0:0:0:
64,192,264560,1,0,0:0:0:0:
320,192,264560,1,0,0:0:0:0:
192,192,264664,1,0,0:0:0:0:
448,192,264664,1,0,0:0:0:0:
64,192,264768,1,0,0:0:0:0:
320,192,264768,1,0,0:0:0:0:
192,192,264872,1,0,0:0:0:0:
448,192,264872,1,0,0:0:0:0:
64,192,264976,1,0,0:0:0:0:
320,192,264976,1,0,0:0:0:0:
192,192,265081,1,0,0:0:0:0:
448,192,265081,1,0,0:0:0:0:
64,192,265185,1,0,0:0:0:0:
320,192,265185,1,0,0:0:0:0:
192,192,265289,1,0,0:0:0:0:
64,192,265393,1,0,0:0:0:0:
448,192,265393,1,0,0:0:0:0:
192,192,265497,1,0,0:0:0:0:
320,192,265497,1,0,0:0:0:0:
64,192,265601,1,0,0:0:0:0:
448,192,265601,1,0,0:0:0:0:
192,192,265706,1,0,0:0:0:0:
320,192,265706,1,0,0:0:0:0:
64,192,265810,1,0,0:0:0:0:
448,192,265810,1,0,0:0:0:0:
192,192,265914,1,0,0:0:0:0:
320,192,265914,1,0,0:0:0:0:
64,192,266018,1,0,0:0:0:0:
448,192,266018,1,0,0:0:0:0:
192,192,266122,1,0,0:0:0:0:
320,192,266122,1,0,0:0:0:0:
64,192,266226,1,0,0:0:0:0:
448,192,266226,1,0,0:0:0:0:
192,192,266331,1,0,0:0:0:0:
320,192,266331,1,0,0:0:0:0:
64,192,266435,1,0,0:0:0:0:
448,192,266435,1,0,0:0:0:0:
192,192,266539,1,0,0:0:0:0:
320,192,266539,1,0,0:0:0:0:
64,192,266643,1,0,0:0:0:0:
448,192,266643,1,0,0:0:0:0:
192,192,266747,1,0,0:0:0:0:
320,192,266747,1,0,0:0:0:0:
64,192,266851,1,0,0:0:0:0:
448,192,266851,1,0,0:0:0:0:
320,192,266955,1,0,0:0:0:0:
64,192,267060,1,0,0:0:0:0:
192,192,267060,1,0,0:0:0:0:
320,192,267164,1,0,0:0:0:0:
448,192,267268,1,0,0:0:0:0:
192,192,267372,1,0,0:0:0:0:
64,192,267476,1,0,0:0:0:0:
448,192,267476,1,0,0:0:0:0:
320,192,267580,1,0,0:0:0:0:
192,192,267685,1,0,0:0:0:0:
448,192,267789,1,0,0:0:0:0:
64,192,267893,1,0,0:0:0:0:
192,192,267893,1,0,0:0:0:0:
320,192,267997,1,0,0:0:0:0:
448,192,268101,1,0,0:0:0:0:
192,192,268205,1,0,0:0:0:0:
64,192,268310,1,0,0:0:0:0:
320,192,268310,1,0,0:0:0:0:
448,192,268414,1,0,0:0:0:0:
192,192,268518,1,0,0:0:0:0:
320,192,268622,1,0,0:0:0:0:
64,192,268726,1,0,0:0:0:0:
448,192,268726,1,0,0:0:0:0:
320,192,268830,1,0,0:0:0:0:
192,192,268935,1,0,0:0:0:0:
448,192,269039,1,0,0:0:0:0:
64,192,269143,1,0,0:0:0:0:
320,192,269143,1,0,0:0:0:0:
192,192,269247,1,0,0:0:0:0:
448,192,269351,1,0,0:0:0:0:
320,192,269455,1,0,0:0:0:0:
64,192,269559,1,0,0:0:0:0:
192,192,269559,1,0,0:0:0:0:
448,192,269664,1,0,0:0:0:0:
320,192,269768,1,0,0:0:0:0:
192,192,269872,1,0,0:0:0:0:
64,192,269976,1,0,0:0:0:0:
320,192,269976,1,0,0:0:0:0:
448,192,270080,1,0,0:0:0:0:
192,192,270184,1,0,0:0:0:0:
320,192,270289,1,0,0:0:0:0:
64,192,270393,1,0,0:0:0:0:
192,192,270393,1,0,0:0:0:0:
320,192,270497,1,0,0:0:0:0:
448,192,270601,1,0,0:0:0:0:
192,192,270705,1,0,0:0:0:0:
64,192,270809,1,0,0:0:0:0:
448,192,270809,1,0,0:0:0:0:
320,192,270914,1,0,0:0:0:0:
192,192,271018,1,0,0:0:0:0:
448,192,271122,1,0,0:0:0:0:
64,192,271226,1,0,0:0:0:0:
192,192,271226,1,0,0:0:0:0:
320,192,271330,1,0,0:0:0:0:
448,192,271434,1,0,0:0:0:0:
192,192,271539,1,0,0:0:0:0:
64,192,271643,1,0,0:0:0:0:
320,192,271643,1,0,0:0:0:0:
448,192,271747,1,0,0:0:0:0:
192,192,271851,1,0,0:0:0:0:
320,192,271955,1,0,0:0:0:0:
64,192,272059,1,0,0:0:0:0:
448,192,272059,1,0,0:0:0:0:
320,192,272163,1,0,0:0:0:0:
192,192,272268,1,0,0:0:0:0:
448,192,272372,1,0,0:0:0:0:
64,192,272476,1,0,0:0:0:0:
320,192,272476,1,0,0:0:0:0:
192,192,272580,1,0,0:0:0:0:
448,192,272684,1,0,0:0:0:0:
320,192,272788,1,0,0:0:0:0:
64,192,272893,1,0,0:0:0:0:
192,192,272893,1,0,0:0:0:0:
448,192,272997,1,0,0:0:0:0:
320,192,273101,1,0,0:0:0:0:
192,192,273205,1,0,0:0:0:0:
64,192,273309,1,0,0:0:0:0:
320,192,273309,1,0,0:0:0:0:
448,192,273413,1,0,0:0:0:0:
192,192,273518,1,0,0:0:0:0:
320,192,273622,1,0,0:0:0:0:
64,192,273726,1,0,0:0:0:0:
192,192,273726,1,0,0:0:0:0:
320,192,273830,1,0,0:0:0:0:
448,192,273934,1,0,0:0:0:0:
192,192,274038,1,0,0:0:0:0:
64,192,274142,1,0,0:0:0:0:
448,192,274142,1,0,0:0:0:0:
320,192,274247,1,0,0:0:0:0:
192,192,274351,1,0,0:0:0:0:
448,192,274455,1,0,0:0:0:0:
64,192,274559,1,0,0:0:0:0:
192,192,274559,1,0,0:0:0:0:
320,192,274663,1,0,0:0:0:0:
448,192,274767,1,0,0:0:0:0:
192,192,274872,1,0,0:0:0:0:
64,192,274976,1,0,0:0:0:0:
320,192,274976,1,0,0:0:0:0:
448,192,275080,1,0,0:0:0:0:
192,192,275184,1,0,0:0:0:0:
320,192,275288,1,0,0:0:0:0:
64,192,275392,1,0,0:0:0:0:
448,192,275392,1,0,0:0:0:0:
320,192,275497,1,0,0:0:0:0:
192,192,275601,1,0,0:0:0:0:
448,192,275705,1,0,0:0:0:0:
64,192,275809,1,0,0:0:0:0:
320,192,275809,1,0,0:0:0:0:
192,192,275913,1,0,0:0:0:0:
448,192,276017,1,0,0:0:0:0:
320,192,276122,1,0,0:0:0:0:
64,192,276226,1,0,0:0:0:0:
192,192,276226,1,0,0:0:0:0:
448,192,276330,1,0,0:0:0:0:
320,192,276434,1,0,0:0:0:0:
192,192,276538,1,0,0:0:0:0:
64,192,276642,1,0,0:0:0:0:
320,192,276642,1,0,0:0:0:0:
448,192,276746,1,0,0:0:0:0:
192,192,276851,1,0,0:0:0:0:
320,192,276955,1,0,0:0:0:0:
64,192,277059,1,0,0:0:0:0:
192,192,277059,1,0,0:0:0:0:
320,192,277163,1,0,0:0:0:0:
448,192,277267,1,0,0:0:0:0:
192,192,277371,1,0,0:0:0:0:
64,192,277476,1,0,0:0:0:0:
448,192,277476,1,0,0:0:0:0:
320,192,277580,1,0,0:0:0:0:
192,192,277684,1,0,0:0:0:0:
448,192,277788,1,0,0:0:0:0:
64,192,277892,1,0,0:0:0:0:
192,192,277892,1,0,0:0:0:0:
320,192,277996,1,0,0:0:0:0:
448,192,278101,1,0,0:0:0:0:
320,192,278205,1,0,0:0:0:0:
64,192,278309,1,0,0:0:0:0:
448,192,278309,1,0,0:0:0:0:
320,192,278413,1,0,0:0:0:0:
192,192,278517,1,0,0:0:0:0:
320,192,278621,1,0,0:0:0:0:
64,192,278726,1,0,0:0:0:0:
448,192,278726,1,0,0:0:0:0:
192,192,278830,1,0,0:0:0:0:
320,192,278934,1,0,0:0:0:0:
448,192,279038,1,0,0:0:0:0:
64,192,279142,1,0,0:0:0:0:
192,192,279142,1,0,0:0:0:0:
320,192,279246,1,0,0:0:0:0:
448,192,279350,1,0,0:0:0:0:
192,192,279455,1,0,0:0:0:0:
64,192,279559,1,0,0:0:0:0:
320,192,279559,1,0,0:0:0:0:
448,192,279663,1,0,0:0:0:0:
64,192,279767,1,0,0:0:0:0:
192,192,279767,1,0,0:0:0:0:
320,192,279871,1,0,0:0:0:0:
448,192,279975,1,0,0:0:0:0:
320,192,280080,1,0,0:0:0:0:
64,192,280184,1,0,0:0:0:0:
192,192,280184,1,0,0:0:0:0:
320,192,280288,1,0,0:0:0:0:
64,192,280392,1,0,0:0:0:0:
192,192,280496,1,0,0:0:0:0:
64,192,280600,1,0,0:0:0:0:
448,192,280600,1,0,0:0:0:0:
192,192,280705,1,0,0:0:0:0:
320,192,280705,1,0,0:0:0:0:
64,192,280809,1,0,0:0:0:0:
448,192,280809,1,0,0:0:0:0:
192,192,280913,1,0,0:0:0:0:
320,192,280913,1,0,0:0:0:0:
64,192,281017,1,0,0:0:0:0:
448,192,281017,1,0,0:0:0:0:
192,192,281121,1,0,0:0:0:0:
320,192,281121,1,0,0:0:0:0:
64,192,281225,1,0,0:0:0:0:
320,192,281329,1,0,0:0:0:0:
64,192,281434,1,0,0:0:0:0:
192,192,281434,1,0,0:0:0:0:
320,192,281538,1,0,0:0:0:0:
64,192,281642,1,0,0:0:0:0:
192,192,281642,1,0,0:0:0:0:
320,192,281746,1,0,0:0:0:0:
448,192,281746,1,0,0:0:0:0:
64,192,281850,1,0,0:0:0:0:
192,192,281850,1,0,0:0:0:0:
320,192,281954,1,0,0:0:0:0:
448,192,281954,1,0,0:0:0:0:
64,192,282059,1,0,0:0:0:0:
448,192,282163,1,0,0:0:0:0:
64,192,282267,1,0,0:0:0:0:
192,192,282267,1,0,0:0:0:0:
448,192,282371,1,0,0:0:0:0:
64,192,282475,1,0,0:0:0:0:
192,192,282475,1,0,0:0:0:0:
320,192,282579,1,0,0:0:0:0:
448,192,282579,1,0,0:0:0:0:
64,192,282684,1,0,0:0:0:0:
192,192,282684,1,0,0:0:0:0:
320,192,282788,1,0,0:0:0:0:
448,192,282788,1,0,0:0:0:0:
192,192,282892,1,0,0:0:0:0:
64,192,282996,1,0,0:0:0:0:
192,192,283100,1,0,0:0:0:0:
320,192,283100,1,0,0:0:0:0:
64,192,283204,1,0,0:0:0:0:
192,192,283309,1,0,0:0:0:0:
320,192,283309,1,0,0:0:0:0:
64,192,283413,1,0,0:0:0:0:
448,192,283413,1,0,0:0:0:0:
192,192,283517,1,0,0:0:0:0:
320,192,283517,1,0,0:0:0:0:
64,192,283621,1,0,0:0:0:0:
448,192,283621,1,0,0:0:0:0:
192,192,283725,1,0,0:0:0:0:
448,192,283829,1,0,0:0:0:0:
64,192,283933,1,0,0:0:0:0:
320,192,283933,1,0,0:0:0:0:
448,192,284038,1,0,0:0:0:0:
64,192,284142,1,0,0:0:0:0:
320,192,284142,1,0,0:0:0:0:
192,192,284246,1,0,0:0:0:0:
448,192,284246,1,0,0:0:0:0:
64,192,284350,1,0,0:0:0:0:
320,192,284350,1,0,0:0:0:0:
192,192,284454,1,0,0:0:0:0:
448,192,284454,1,0,0:0:0:0:
64,192,284558,1,0,0:0:0:0:
320,192,284663,1,0,0:0:0:0:
64,192,284767,1,0,0:0:0:0:
192,192,284767,1,0,0:0:0:0:
320,192,284871,1,0,0:0:0:0:
64,192,284975,1,0,0:0:0:0:
192,192,284975,1,0,0:0:0:0:
320,192,285079,1,0,0:0:0:0:
448,192,285079,1,0,0:0:0:0:
64,192,285183,1,0,0:0:0:0:
192,192,285183,1,0,0:0:0:0:
320,192,285288,1,0,0:0:0:0:
448,192,285288,1,0,0:0:0:0:
192,192,285392,1,0,0:0:0:0:
64,192,285496,1,0,0:0:0:0:
192,192,285600,1,0,0:0:0:0:
320,192,285600,1,0,0:0:0:0:
64,192,285704,1,0,0:0:0:0:
192,192,285808,1,0,0:0:0:0:
320,192,285808,1,0,0:0:0:0:
64,192,285913,1,0,0:0:0:0:
448,192,285913,1,0,0:0:0:0:
192,192,286017,1,0,0:0:0:0:
320,192,286017,1,0,0:0:0:0:
64,192,286121,1,0,0:0:0:0:
448,192,286121,1,0,0:0:0:0:
320,192,286225,1,0,0:0:0:0:
192,192,286329,1,0,0:0:0:0:
320,192,286433,1,0,0:0:0:0:
448,192,286433,1,0,0:0:0:0:
192,192,286537,1,0,0:0:0:0:
64,192,286642,1,0,0:0:0:0:
320,192,286642,1,0,0:0:0:0:
192,192,286746,1,0,0:0:0:0:
448,192,286746,1,0,0:0:0:0:
64,192,286850,1,0,0:0:0:0:
320,192,286850,1,0,0:0:0:0:
192,192,286954,1,0,0:0:0:0:
448,192,286954,1,0,0:0:0:0:
320,192,287058,1,0,0:0:0:0:
64,192,287162,1,0,0:0:0:0:
320,192,287267,1,0,0:0:0:0:
448,192,287267,1,0,0:0:0:0:
64,192,287371,1,0,0:0:0:0:
192,192,287475,1,0,0:0:0:0:
320,192,287475,1,0,0:0:0:0:
64,192,287579,1,0,0:0:0:0:
448,192,287579,1,0,0:0:0:0:
192,192,287683,1,0,0:0:0:0:
320,192,287683,1,0,0:0:0:0:
64,192,287787,1,0,0:0:0:0:
448,192,287787,1,0,0:0:0:0:
320,192,287892,1,0,0:0:0:0:
192,192,287996,1,0,0:0:0:0:
320,192,288100,1,0,0:0:0:0:
448,192,288100,1,0,0:0:0:0:
192,192,288204,1,0,0:0:0:0:
320,192,288308,1,0,0:0:0:0:
448,192,288308,1,0,0:0:0:0:
64,192,288412,1,0,0:0:0:0:
192,192,288412,1,0,0:0:0:0:
320,192,288516,1,0,0:0:0:0:
448,192,288516,1,0,0:0:0:0:
64,192,288621,1,0,0:0:0:0:
192,192,288621,1,0,0:0:0:0:
448,192,288725,1,0,0:0:0:0:
320,192,288829,1,0,0:0:0:0:
64,192,288933,1,0,0:0:0:0:
192,192,288933,1,0,0:0:0:0:
320,192,289037,1,0,0:0:0:0:
64,192,289141,1,0,0:0:0:0:
192,192,289141,1,0,0:0:0:0:
320,192,289246,1,0,0:0:0:0:
448,192,289246,1,0,0:0:0:0:
64,192,289350,1,0,0:0:0:0:
192,192,289350,1,0,0:0:0:0:
320,192,289454,1,0,0:0:0:0:
448,192,289454,1,0,0:0:0:0:
64,192,289558,1,0,0:0:0:0:
448,192,289662,1,0,0:0:0:0:
192,192,289766,1,0,0:0:0:0:
320,192,289766,1,0,0:0:0:0:
448,192,289871,1,0,0:0:0:0:
192,192,289975,1,0,0:0:0:0:
320,192,289975,1,0,0:0:0:0:
64,192,290079,1,0,0:0:0:0:
448,192,290079,1,0,0:0:0:0:
192,192,290183,1,0,0:0:0:0:
320,192,290183,1,0,0:0:0:0:
64,192,290287,1,0,0:0:0:0:
448,192,290287,1,0,0:0:0:0:
192,192,290391,1,0,0:0:0:0:
64,192,290496,1,0,0:0:0:0:
320,192,290600,1,0,0:0:0:0:
448,192,290600,1,0,0:0:0:0:
64,192,290704,1,0,0:0:0:0:
320,192,290808,1,0,0:0:0:0:
64,192,290912,1,0,0:0:0:0:
192,192,290912,1,0,0:0:0:0:
320,192,291016,1,0,0:0:0:0:
448,192,291016,1,0,0:0:0:0:
64,192,291120,1,0,0:0:0:0:
192,192,291120,1,0,0:0:0:0:
192,192,291329,1,0,0:0:0:0:
320,192,291433,1,0,0:0:0:0:
448,192,291433,1,0,0:0:0:0:
192,192,291537,1,0,0:0:0:0:
320,192,291641,1,0,0:0:0:0:
192,192,291745,1,0,0:0:0:0:
448,192,291745,1,0,0:0:0:0:
64,192,291850,1,0,0:0:0:0:
320,192,291850,1,0,0:0:0:0:
192,192,291954,1,0,0:0:0:0:
448,192,291954,1,0,0:0:0:0:
448,192,292162,1,0,0:0:0:0:
64,192,292266,1,0,0:0:0:0:
320,192,292266,1,0,0:0:0:0:
448,192,292370,1,0,0:0:0:0:
320,192,292475,1,0,0:0:0:0:
192,192,292579,1,0,0:0:0:0:
448,192,292579,1,0,0:0:0:0:
64,192,292683,1,0,0:0:0:0:
320,192,292683,1,0,0:0:0:0:
192,192,292787,1,0,0:0:0:0:
448,192,292787,1,0,0:0:0:0:
64,192,292995,1,0,0:0:0:0:
192,192,293100,1,0,0:0:0:0:
320,192,293100,1,0,0:0:0:0:
64,192,293204,1,0,0:0:0:0:
320,192,293308,1,0,0:0:0:0:
192,192,293412,1,0,0:0:0:0:
448,192,293412,1,0,0:0:0:0:
64,192,293516,1,0,0:0:0:0:
320,192,293516,1,0,0:0:0:0:
192,192,293620,1,0,0:0:0:0:
448,192,293620,1,0,0:0:0:0:
64,192,293724,1,0,0:0:0:0:
320,192,293724,1,0,0:0:0:0:
192,192,293933,1,0,0:0:0:0:
320,192,294037,1,0,0:0:0:0:
64,192,294141,1,0,0:0:0:0:
448,192,294141,1,0,0:0:0:0:
320,192,294245,1,0,0:0:0:0:
448,192,294349,1,0,0:0:0:0:
320,192,294454,128,0,294662:0:0:0:0:
64,192,294558,1,0,0:0:0:0:
320,192,294766,1,0,0:0:0:0:
64,192,294974,1,0,0:0:0:0:
320,192,294974,1,0,0:0:0:0:
448,192,295079,1,0,0:0:0:0:
320,192,295183,1,0,0:0:0:0:
192,192,295287,128,0,295495:0:0:0:0:
64,192,295391,1,0,0:0:0:0:
192,192,295599,1,0,0:0:0:0:
64,192,295808,1,0,0:0:0:0:
192,192,295808,1,0,0:0:0:0:
320,192,295912,1,0,0:0:0:0:
448,192,296016,1,0,0:0:0:0:
320,192,296120,128,0,296328:0:0:0:0:
64,192,296224,1,0,0:0:0:0:
320,192,296433,1,0,0:0:0:0:
64,192,296641,1,0,0:0:0:0:
320,192,296641,1,0,0:0:0:0:
448,192,296745,1,0,0:0:0:0:
320,192,296849,1,0,0:0:0:0:
192,192,296953,128,0,297162:0:0:0:0:
64,192,297058,1,0,0:0:0:0:
192,192,297266,1,0,0:0:0:0:
64,192,297474,1,0,0:0:0:0:
192,192,297474,1,0,0:0:0:0:
320,192,297578,1,0,0:0:0:0:
192,192,297683,1,0,0:0:0:0:
448,192,297787,128,0,297995:0:0:0:0:
64,192,297891,1,0,0:0:0:0:
192,192,298099,1,0,0:0:0:0:
64,192,298307,1,0,0:0:0:0:
192,192,298307,1,0,0:0:0:0:
320,192,298412,1,0,0:0:0:0:
192,192,298516,1,0,0:0:0:0:
448,192,298620,128,0,298828:0:0:0:0:
64,192,298724,1,0,0:0:0:0:
192,192,298932,1,0,0:0:0:0:
64,192,299141,1,0,0:0:0:0:
192,192,299141,1,0,0:0:0:0:
320,192,299245,1,0,0:0:0:0:
448,192,299349,1,0,0:0:0:0:
320,192,299453,128,0,299662:0:0:0:0:
64,192,299557,1,0,0:0:0:0:
320,192,299766,1,0,0:0:0:0:
64,192,299974,1,0,0:0:0:0:
320,192,299974,1,0,0:0:0:0:
448,192,300078,1,0,0:0:0:0:
320,192,300182,1,0,0:0:0:0:
448,192,300287,128,0,300495:0:0:0:0:
64,192,300391,1,0,0:0:0:0:
192,192,300599,1,0,0:0:0:0:
64,192,300807,1,0,0:0:0:0:
192,192,300807,1,0,0:0:0:0:
448,192,300911,1,0,0:0:0:0:
320,192,301016,1,0,0:0:0:0:
192,192,301120,128,0,301328:0:0:0:0:
64,192,301224,1,0,0:0:0:0:
192,192,301432,1,0,0:0:0:0:
64,192,301641,1,0,0:0:0:0:
192,192,301641,1,0,0:0:0:0:
320,192,301745,1,0,0:0:0:0:
192,192,301849,1,0,0:0:0:0:
320,192,301953,128,0,302161:0:0:0:0:
64,192,302057,1,0,0:0:0:0:
192,192,302266,1,0,0:0:0:0:
64,192,302474,1,0,0:0:0:0:
192,192,302474,1,0,0:0:0:0:
320,192,302578,1,0,0:0:0:0:
192,192,302682,1,0,0:0:0:0:
448,192,302786,128,0,302995:0:0:0:0:
64,192,302890,1,0,0:0:0:0:
192,192,303099,1,0,0:0:0:0:
64,192,303307,1,0,0:0:0:0:
192,192,303307,1,0,0:0:0:0:
320,192,303411,1,0,0:0:0:0:
192,192,303515,1,0,0:0:0:0:
320,192,303620,128,0,303828:0:0:0:0:
64,192,303724,1,0,0:0:0:0:
192,192,303932,1,0,0:0:0:0:
64,192,304140,1,0,0:0:0:0:
192,192,304140,1,0,0:0:0:0:
448,192,304245,1,0,0:0:0:0:
192,192,304349,1,0,0:0:0:0:
448,192,304453,128,0,304661:0:0:0:0:
64,192,304557,1,0,0:0:0:0:
192,192,304765,1,0,0:0:0:0:
64,192,304974,1,0,0:0:0:0:
192,192,304974,1,0,0:0:0:0:
448,192,305078,1,0,0:0:0:0:
192,192,305182,1,0,0:0:0:0:
320,192,305286,128,0,305494:0:0:0:0:
64,192,305390,1,0,0:0:0:0:
192,192,305599,1,0,0:0:0:0:
192,192,305807,1,0,0:0:0:0:
320,192,305911,1,0,0:0:0:0:
192,192,306015,1,0,0:0:0:0:
448,192,306119,128,0,306953:0:0:0:0:
64,192,307057,1,0,0:0:0:0:
192,192,307057,1,0,0:0:0:0:
448,192,307057,128,0,310390:0:0:0:0:
